Subcategories

Percy Faith - Those Were The Days / Love Theme From "Romeo And Juliet" (2 LP in 1 CD) [CD 2004]

Posted By: jbglx
Percy Faith - Those Were The Days / Love Theme From "Romeo And Juliet" (2 LP in 1 CD) [CD 2004]

Percy Faith - And His Orchestra And Chorus
Those Were The Days / Love Theme From "Romeo And Juliet"
( 2LP in 1CD ) [ CD 2004 ]

EAC Rip | FLAC-TRACKS+CUE+LOG/ADD Stereo | 1CD | Scans | 64 Min. | 364 MB
Label: Sony Music Collectables / Catalogue: COL-CD-7608 /
Easy Listening Pop / LP´s Originally Released in 1969

With the exception of the title cut on the first album, Those Were The Days (which is given a rather stodgy treatment), this CD is vintage Percy Faith. The second LP, Love Theme from Romeo and Juliet, came out in 1969, when Faith's new sound of orchestra with female chorus had just hit its stride. The trademark harpsichord is there, too. I had this album on LP when I was eight years old, and am pleased to discover that it is absolutely delightful all these years later. The two tunes from Hair are highlights of the album, brimming with energy and delicacy at the same time. Faith also commemorates the tenth anniversary of his big instrumental hit, Theme from A Summer Place, by writing a new version with female chorus. It doesn't displace memories of the original, but it is a welcome piece on this album. If you like your '60's music in a form that is evergreen, this Percy Faith CD is for you.
-Amazon-

Percy Faith - Those Were The Days / Love Theme From "Romeo And Juliet" (2 LP in 1 CD) [CD 2004]


Percy Faith - Those Were The Days / Love Theme From "Romeo And Juliet" (2 LP in 1 CD) [CD 2004]
Track Listing :
1. Those Were the Days
2. I Love How You Love Me
3. Both Sides Now
4. Promises, Promises
5. My Special Angel
6. Zorba
7. For Once in My Life
8. Stormy
9. Little Green Apples
10. Fool on the Hill
11. A Quiet Day
12. Theme from "A Summer Place"
13. Spinning Wheel
14. The April Fools
15. Aquarius
16. Love (Can Make You Happy)
17. Hello Tomorrow
18. Love Theme [From Romeo and Juliet]
19. Good Morning Starshine
20. One
21. Without Her
22. Through the Eyes of a Child (Un Jour, un Enfant)


Exact Audio Copy V1.0 beta 3 from 29. August 2011

EAC extraction logfile from 15. January 2013, 14:10

Faith , Percy / Those Were The Days - Love Theme From Romeo and Juliet

Used drive : SONY DVD RW DRU-840A Adapter: 0 ID: 1

Read mode : Secure
Utilize accurate stream : Yes
Defeat audio cache : Yes
Make use of C2 pointers : No

Read offset correction : 6
Overread into Lead-In and Lead-Out : No
Fill up missing offset samples with silence : Yes
Delete leading and trailing silent blocks : No
Null samples used in CRC calculations : Yes
Used interface : Native Win32 interface for Win NT & 2000
Gap handling : Not detected, thus appended to previous track

Used output format : User Defined Encoder
Selected bitrate : 320 kBit/s
Quality : High
Add ID3 tag : No
Command line compressor : C:\Archivos de programa\Exact Audio Copy\FLAC\FLAC.EXE
Additional command line options : -6 -V -T "ARTIST=%artist%" -T "TITLE=%title%" -T "ALBUM=%albumtitle%" -T "DATE=%year%" -T "TRACKNUMBER=%tracknr%" -T "GENRE=%genre%" -T "COMMENT=%comment%" -T "BAND=%albuminterpret%" -T "ALBUMARTIST=%albuminterpret%" -T "COMPOSER=%composer%" %haslyrics%–tag-from-file=LYRICS="%lyricsfile%"%haslyrics% -T "DISCNUMBER=%cdnumber%" -T "TOTALDISCS=%totalcds%" -T "TOTALTRACKS=%numtracks%" %hascover%–picture="%coverfile%"%hascover% %source% -o %dest%


TOC of the extracted CD

Track | Start | Length | Start sector | End sector
––––––––––––––––––––––––––––-
1 | 0:00.00 | 3:28.62 | 0 | 15661
2 | 3:28.62 | 2:37.50 | 15662 | 27486
3 | 6:06.37 | 3:14.00 | 27487 | 42036
4 | 9:20.37 | 2:05.63 | 42037 | 51474
5 | 11:26.25 | 3:14.00 | 51475 | 66024
6 | 14:40.25 | 2:28.50 | 66025 | 77174
7 | 17:09.00 | 2:53.25 | 77175 | 90174
8 | 20:02.25 | 2:42.50 | 90175 | 102374
9 | 22:45.00 | 2:59.62 | 102375 | 115861
10 | 25:44.62 | 2:50.50 | 115862 | 128661
11 | 28:35.37 | 3:38.50 | 128662 | 145061
12 | 32:14.12 | 2:37.50 | 145062 | 156886
13 | 34:51.62 | 2:46.38 | 156887 | 169374
14 | 37:38.25 | 3:06.00 | 169375 | 183324
15 | 40:44.25 | 2:42.50 | 183325 | 195524
16 | 43:27.00 | 2:41.25 | 195525 | 207624
17 | 46:08.25 | 2:54.50 | 207625 | 220724
18 | 49:03.00 | 3:12.50 | 220725 | 235174
19 | 52:15.50 | 2:59.62 | 235175 | 248661
20 | 55:15.37 | 3:15.63 | 248662 | 263349
21 | 58:31.25 | 2:55.50 | 263350 | 276524
22 | 61:27.00 | 3:17.47 | 276525 | 291346


Track 1

Filename E:\MUSIC\My Music\Percy Faith - Those Were The Days - Love Theme From Romeo and Juliiet\CD\01 Those Were The Days (Gene Raskin).wav

Peak level 90.2 %
Extraction speed 1.7 X
Track quality 99.9 %
Test CRC 9262B58B
Copy CRC 9262B58B
Accurately ripped (confidence 1) [004B4C12] (AR v2)
Copy OK

Track 2

Filename E:\MUSIC\My Music\Percy Faith - Those Were The Days - Love Theme From Romeo and Juliiet\CD\02 I Love How You Love Me (Mann-Kolber).wav

Peak level 68.0 %
Extraction speed 1.6 X
Track quality 99.9 %
Test CRC D0B3371D
Copy CRC D0B3371D
Accurately ripped (confidence 1) [C528BF78] (AR v2)
Copy OK

Track 3

Filename E:\MUSIC\My Music\Percy Faith - Those Were The Days - Love Theme From Romeo and Juliiet\CD\03 Both Sides Now (Joni Mitchell).wav

Peak level 78.2 %
Extraction speed 2.1 X
Track quality 100.0 %
Test CRC 97574251
Copy CRC 97574251
Accurately ripped (confidence 1) [341772DB] (AR v2)
Copy OK

Track 4

Filename E:\MUSIC\My Music\Percy Faith - Those Were The Days - Love Theme From Romeo and Juliiet\CD\04 Promises, Promises (Bacharach-David).wav

Peak level 79.9 %
Extraction speed 1.6 X
Track quality 99.9 %
Test CRC A759B9CE
Copy CRC A759B9CE
Accurately ripped (confidence 1) [6C75CE6A] (AR v2)
Copy OK

Track 5

Filename E:\MUSIC\My Music\Percy Faith - Those Were The Days - Love Theme From Romeo and Juliiet\CD\05 My Special Angel (Jimmy Duncan).wav

Peak level 70.1 %
Extraction speed 2.3 X
Track quality 100.0 %
Test CRC C6804B9C
Copy CRC C6804B9C
Accurately ripped (confidence 1) [47B44261] (AR v2)
Copy OK

Track 6

Filename E:\MUSIC\My Music\Percy Faith - Those Were The Days - Love Theme From Romeo and Juliiet\CD\06 Zorba (Ebb-Kander).wav

Peak level 89.6 %
Extraction speed 2.3 X
Track quality 100.0 %
Test CRC C1BC082F
Copy CRC C1BC082F
Accurately ripped (confidence 1) [1E55B56E] (AR v2)
Copy OK

Track 7

Filename E:\MUSIC\My Music\Percy Faith - Those Were The Days - Love Theme From Romeo and Juliiet\CD\07 For Once In My Life (Miller-Murden).wav

Peak level 69.8 %
Extraction speed 2.4 X
Track quality 100.0 %
Test CRC 43516928
Copy CRC 43516928
Accurately ripped (confidence 1) [6FBAEB3B] (AR v2)
Copy OK

Track 8

Filename E:\MUSIC\My Music\Percy Faith - Those Were The Days - Love Theme From Romeo and Juliiet\CD\08 Stormy (Buie-Cobb).wav

Peak level 83.3 %
Extraction speed 1.9 X
Track quality 99.9 %
Test CRC 17711322
Copy CRC 17711322
Accurately ripped (confidence 1) [A85DEB45] (AR v2)
Copy OK

Track 9

Filename E:\MUSIC\My Music\Percy Faith - Those Were The Days - Love Theme From Romeo and Juliiet\CD\09 Little Green Apples (Bobby Russell).wav

Peak level 71.6 %
Extraction speed 2.6 X
Track quality 100.0 %
Test CRC 9B97051F
Copy CRC 9B97051F
Accurately ripped (confidence 1) [69832695] (AR v2)
Copy OK

Track 10

Filename E:\MUSIC\My Music\Percy Faith - Those Were The Days - Love Theme From Romeo and Juliiet\CD\10 The Fool On The Hill (Lennon-McCartney).wav

Peak level 83.1 %
Extraction speed 2.1 X
Track quality 99.9 %
Test CRC 95DF0102
Copy CRC 95DF0102
Accurately ripped (confidence 1) [79C40667] (AR v2)
Copy OK

Track 11

Filename E:\MUSIC\My Music\Percy Faith - Those Were The Days - Love Theme From Romeo and Juliiet\CD\11 A Quiet Day (Maxwell-Faith).wav

Peak level 59.0 %
Extraction speed 3.0 X
Track quality 100.0 %
Test CRC FC4EB78F
Copy CRC FC4EB78F
Accurately ripped (confidence 1) [9A3A3A97] (AR v2)
Copy OK

Track 12

Filename E:\MUSIC\My Music\Percy Faith - Those Were The Days - Love Theme From Romeo and Juliiet\CD\12 Theme From ''A Summer Place'' (Discant-Steiner).wav

Peak level 49.6 %
Extraction speed 2.0 X
Track quality 99.9 %
Test CRC 29E0BB2F
Copy CRC 29E0BB2F
Accurately ripped (confidence 1) [8441B438] (AR v2)
Copy OK

Track 13

Filename E:\MUSIC\My Music\Percy Faith - Those Were The Days - Love Theme From Romeo and Juliiet\CD\13 Spinning Wheel (David Thomas).wav

Peak level 45.9 %
Extraction speed 2.9 X
Track quality 100.0 %
Test CRC CD6A866D
Copy CRC CD6A866D
Accurately ripped (confidence 1) [EF44EB8F] (AR v2)
Copy OK

Track 14

Filename E:\MUSIC\My Music\Percy Faith - Those Were The Days - Love Theme From Romeo and Juliiet\CD\14 The April Fools (Bacharach-David).wav

Peak level 39.3 %
Extraction speed 3.1 X
Track quality 100.0 %
Test CRC D589B982
Copy CRC D589B982
Accurately ripped (confidence 1) [3D666DEB] (AR v2)
Copy OK

Track 15

Filename E:\MUSIC\My Music\Percy Faith - Those Were The Days - Love Theme From Romeo and Juliiet\CD\15 Aquarius (Ragni-Rado-McDermott).wav

Peak level 45.4 %
Extraction speed 2.2 X
Track quality 99.9 %
Test CRC A9A98356
Copy CRC A9A98356
Accurately ripped (confidence 1) [D83843EA] (AR v2)
Copy OK

Track 16

Filename E:\MUSIC\My Music\Percy Faith - Those Were The Days - Love Theme From Romeo and Juliiet\CD\16 Love (Can Make You Happy) (Jack Sigler Jr.).wav

Peak level 41.7 %
Extraction speed 2.1 X
Track quality 99.9 %
Test CRC 3E362779
Copy CRC 3E362779
Accurately ripped (confidence 1) [A67DF05D] (AR v2)
Copy OK

Track 17

Filename E:\MUSIC\My Music\Percy Faith - Those Were The Days - Love Theme From Romeo and Juliiet\CD\17 Hello Tomorrow (Bradford Craig).wav

Peak level 44.8 %
Extraction speed 3.3 X
Track quality 100.0 %
Test CRC 852247DF
Copy CRC 852247DF
Accurately ripped (confidence 1) [D7B18266] (AR v2)
Copy OK

Track 18

Filename E:\MUSIC\My Music\Percy Faith - Those Were The Days - Love Theme From Romeo and Juliiet\CD\18 Love Theme from ''Romeo and Juliet'' (Nino Rota).wav

Peak level 54.2 %
Extraction speed 3.4 X
Track quality 100.0 %
Test CRC 74F67DCA
Copy CRC 74F67DCA
Accurately ripped (confidence 1) [6168B8FC] (AR v2)
Copy OK

Track 19

Filename E:\MUSIC\My Music\Percy Faith - Those Were The Days - Love Theme From Romeo and Juliiet\CD\19 Good Morning Starshine (Ragni-Rado-McDermott).wav

Peak level 62.4 %
Extraction speed 3.4 X
Track quality 100.0 %
Test CRC B78D3E23
Copy CRC B78D3E23
Accurately ripped (confidence 1) [8A0ACEFF] (AR v2)
Copy OK

Track 20

Filename E:\MUSIC\My Music\Percy Faith - Those Were The Days - Love Theme From Romeo and Juliiet\CD\20 One (Harry Nilsson).wav

Peak level 43.5 %
Extraction speed 2.5 X
Track quality 99.9 %
Test CRC BA104F5B
Copy CRC BA104F5B
Accurately ripped (confidence 1) [5D1F9CEF] (AR v2)
Copy OK

Track 21

Filename E:\MUSIC\My Music\Percy Faith - Those Were The Days - Love Theme From Romeo and Juliiet\CD\21 Without Her (Harry Nilsson).wav

Peak level 56.8 %
Extraction speed 3.6 X
Track quality 100.0 %
Test CRC F0FBE065
Copy CRC F0FBE065
Accurately ripped (confidence 1) [63CCB8F2] (AR v2)
Copy OK

Track 22

Filename E:\MUSIC\My Music\Percy Faith - Those Were The Days - Love Theme From Romeo and Juliiet\CD\22 Through The Eyes of a Child.wav

Peak level 44.9 %
Extraction speed 3.7 X
Track quality 100.0 %
Test CRC 4B2F1FF7
Copy CRC 4B2F1FF7
Accurately ripped (confidence 1) [3C2A54E9] (AR v2)
Copy OK


All tracks accurately ripped

No errors occurred

End of status report

==== Log checksum 57D811EEFFB796558729C062D1CF2EAD213A71B10CE07E5EDA5B29CD128C3163 ====

––––––––––––––––––––––––––––––

Exact Audio Copy V1.0 beta 3 from 29. August 2011

EAC extraction logfile from 15. January 2013, 14:10

Faith , Percy / Those Were The Days - Love Theme From Romeo and Juliet

Used drive : SONY DVD RW DRU-840A Adapter: 0 ID: 1

Read mode : Secure
Utilize accurate stream : Yes
Defeat audio cache : Yes
Make use of C2 pointers : No

Read offset correction : 6
Overread into Lead-In and Lead-Out : No
Fill up missing offset samples with silence : Yes
Delete leading and trailing silent blocks : No
Null samples used in CRC calculations : Yes
Used interface : Native Win32 interface for Win NT & 2000
Gap handling : Not detected, thus appended to previous track

Used output format : User Defined Encoder
Selected bitrate : 320 kBit/s
Quality : High
Add ID3 tag : No
Command line compressor : C:\Archivos de programa\Exact Audio Copy\FLAC\FLAC.EXE
Additional command line options : -6 -V -T "ARTIST=%artist%" -T "TITLE=%title%" -T "ALBUM=%albumtitle%" -T "DATE=%year%" -T "TRACKNUMBER=%tracknr%" -T "GENRE=%genre%" -T "COMMENT=%comment%" -T "BAND=%albuminterpret%" -T "ALBUMARTIST=%albuminterpret%" -T "COMPOSER=%composer%" %haslyrics%–tag-from-file=LYRICS="%lyricsfile%"%haslyrics% -T "DISCNUMBER=%cdnumber%" -T "TOTALDISCS=%totalcds%" -T "TOTALTRACKS=%numtracks%" %hascover%–picture="%coverfile%"%hascover% %source% -o %dest%


TOC of the extracted CD

Track | Start | Length | Start sector | End sector
––––––––––––––––––––––––––––-
1 | 0:00.00 | 3:28.62 | 0 | 15661
2 | 3:28.62 | 2:37.50 | 15662 | 27486
3 | 6:06.37 | 3:14.00 | 27487 | 42036
4 | 9:20.37 | 2:05.63 | 42037 | 51474
5 | 11:26.25 | 3:14.00 | 51475 | 66024
6 | 14:40.25 | 2:28.50 | 66025 | 77174
7 | 17:09.00 | 2:53.25 | 77175 | 90174
8 | 20:02.25 | 2:42.50 | 90175 | 102374
9 | 22:45.00 | 2:59.62 | 102375 | 115861
10 | 25:44.62 | 2:50.50 | 115862 | 128661
11 | 28:35.37 | 3:38.50 | 128662 | 145061
12 | 32:14.12 | 2:37.50 | 145062 | 156886
13 | 34:51.62 | 2:46.38 | 156887 | 169374
14 | 37:38.25 | 3:06.00 | 169375 | 183324
15 | 40:44.25 | 2:42.50 | 183325 | 195524
16 | 43:27.00 | 2:41.25 | 195525 | 207624
17 | 46:08.25 | 2:54.50 | 207625 | 220724
18 | 49:03.00 | 3:12.50 | 220725 | 235174
19 | 52:15.50 | 2:59.62 | 235175 | 248661
20 | 55:15.37 | 3:15.63 | 248662 | 263349
21 | 58:31.25 | 2:55.50 | 263350 | 276524
22 | 61:27.00 | 3:17.47 | 276525 | 291346


Track 1

Filename E:\MUSIC\My Music\Percy Faith - Those Were The Days - Love Theme From Romeo and Juliiet\CD\01 Those Were The Days (Gene Raskin).wav

Peak level 90.2 %
Extraction speed 1.7 X
Track quality 99.9 %
Test CRC 9262B58B
Copy CRC 9262B58B
Accurately ripped (confidence 1) [004B4C12] (AR v2)
Copy OK

Track 2

Filename E:\MUSIC\My Music\Percy Faith - Those Were The Days - Love Theme From Romeo and Juliiet\CD\02 I Love How You Love Me (Mann-Kolber).wav

Peak level 68.0 %
Extraction speed 1.6 X
Track quality 99.9 %
Test CRC D0B3371D
Copy CRC D0B3371D
Accurately ripped (confidence 1) [C528BF78] (AR v2)
Copy OK

Track 3

Filename E:\MUSIC\My Music\Percy Faith - Those Were The Days - Love Theme From Romeo and Juliiet\CD\03 Both Sides Now (Joni Mitchell).wav

Peak level 78.2 %
Extraction speed 2.1 X
Track quality 100.0 %
Test CRC 97574251
Copy CRC 97574251
Accurately ripped (confidence 1) [341772DB] (AR v2)
Copy OK

Track 4

Filename E:\MUSIC\My Music\Percy Faith - Those Were The Days - Love Theme From Romeo and Juliiet\CD\04 Promises, Promises (Bacharach-David).wav

Peak level 79.9 %
Extraction speed 1.6 X
Track quality 99.9 %
Test CRC A759B9CE
Copy CRC A759B9CE
Accurately ripped (confidence 1) [6C75CE6A] (AR v2)
Copy OK

Track 5

Filename E:\MUSIC\My Music\Percy Faith - Those Were The Days - Love Theme From Romeo and Juliiet\CD\05 My Special Angel (Jimmy Duncan).wav

Peak level 70.1 %
Extraction speed 2.3 X
Track quality 100.0 %
Test CRC C6804B9C
Copy CRC C6804B9C
Accurately ripped (confidence 1) [47B44261] (AR v2)
Copy OK

Track 6

Filename E:\MUSIC\My Music\Percy Faith - Those Were The Days - Love Theme From Romeo and Juliiet\CD\06 Zorba (Ebb-Kander).wav

Peak level 89.6 %
Extraction speed 2.3 X
Track quality 100.0 %
Test CRC C1BC082F
Copy CRC C1BC082F
Accurately ripped (confidence 1) [1E55B56E] (AR v2)
Copy OK

Track 7

Filename E:\MUSIC\My Music\Percy Faith - Those Were The Days - Love Theme From Romeo and Juliiet\CD\07 For Once In My Life (Miller-Murden).wav

Peak level 69.8 %
Extraction speed 2.4 X
Track quality 100.0 %
Test CRC 43516928
Copy CRC 43516928
Accurately ripped (confidence 1) [6FBAEB3B] (AR v2)
Copy OK

Track 8

Filename E:\MUSIC\My Music\Percy Faith - Those Were The Days - Love Theme From Romeo and Juliiet\CD\08 Stormy (Buie-Cobb).wav

Peak level 83.3 %
Extraction speed 1.9 X
Track quality 99.9 %
Test CRC 17711322
Copy CRC 17711322
Accurately ripped (confidence 1) [A85DEB45] (AR v2)
Copy OK

Track 9

Filename E:\MUSIC\My Music\Percy Faith - Those Were The Days - Love Theme From Romeo and Juliiet\CD\09 Little Green Apples (Bobby Russell).wav

Peak level 71.6 %
Extraction speed 2.6 X
Track quality 100.0 %
Test CRC 9B97051F
Copy CRC 9B97051F
Accurately ripped (confidence 1) [69832695] (AR v2)
Copy OK

Track 10

Filename E:\MUSIC\My Music\Percy Faith - Those Were The Days - Love Theme From Romeo and Juliiet\CD\10 The Fool On The Hill (Lennon-McCartney).wav

Peak level 83.1 %
Extraction speed 2.1 X
Track quality 99.9 %
Test CRC 95DF0102
Copy CRC 95DF0102
Accurately ripped (confidence 1) [79C40667] (AR v2)
Copy OK

Track 11

Filename E:\MUSIC\My Music\Percy Faith - Those Were The Days - Love Theme From Romeo and Juliiet\CD\11 A Quiet Day (Maxwell-Faith).wav

Peak level 59.0 %
Extraction speed 3.0 X
Track quality 100.0 %
Test CRC FC4EB78F
Copy CRC FC4EB78F
Accurately ripped (confidence 1) [9A3A3A97] (AR v2)
Copy OK

Track 12

Filename E:\MUSIC\My Music\Percy Faith - Those Were The Days - Love Theme From Romeo and Juliiet\CD\12 Theme From ''A Summer Place'' (Discant-Steiner).wav

Peak level 49.6 %
Extraction speed 2.0 X
Track quality 99.9 %
Test CRC 29E0BB2F
Copy CRC 29E0BB2F
Accurately ripped (confidence 1) [8441B438] (AR v2)
Copy OK

Track 13

Filename E:\MUSIC\My Music\Percy Faith - Those Were The Days - Love Theme From Romeo and Juliiet\CD\13 Spinning Wheel (David Thomas).wav

Peak level 45.9 %
Extraction speed 2.9 X
Track quality 100.0 %
Test CRC CD6A866D
Copy CRC CD6A866D
Accurately ripped (confidence 1) [EF44EB8F] (AR v2)
Copy OK

Track 14

Filename E:\MUSIC\My Music\Percy Faith - Those Were The Days - Love Theme From Romeo and Juliiet\CD\14 The April Fools (Bacharach-David).wav

Peak level 39.3 %
Extraction speed 3.1 X
Track quality 100.0 %
Test CRC D589B982
Copy CRC D589B982
Accurately ripped (confidence 1) [3D666DEB] (AR v2)
Copy OK

Track 15

Filename E:\MUSIC\My Music\Percy Faith - Those Were The Days - Love Theme From Romeo and Juliiet\CD\15 Aquarius (Ragni-Rado-McDermott).wav

Peak level 45.4 %
Extraction speed 2.2 X
Track quality 99.9 %
Test CRC A9A98356
Copy CRC A9A98356
Accurately ripped (confidence 1) [D83843EA] (AR v2)
Copy OK

Track 16

Filename E:\MUSIC\My Music\Percy Faith - Those Were The Days - Love Theme From Romeo and Juliiet\CD\16 Love (Can Make You Happy) (Jack Sigler Jr.).wav

Peak level 41.7 %
Extraction speed 2.1 X
Track quality 99.9 %
Test CRC 3E362779
Copy CRC 3E362779
Accurately ripped (confidence 1) [A67DF05D] (AR v2)
Copy OK

Track 17

Filename E:\MUSIC\My Music\Percy Faith - Those Were The Days - Love Theme From Romeo and Juliiet\CD\17 Hello Tomorrow (Bradford Craig).wav

Peak level 44.8 %
Extraction speed 3.3 X
Track quality 100.0 %
Test CRC 852247DF
Copy CRC 852247DF
Accurately ripped (confidence 1) [D7B18266] (AR v2)
Copy OK

Track 18

Filename E:\MUSIC\My Music\Percy Faith - Those Were The Days - Love Theme From Romeo and Juliiet\CD\18 Love Theme from ''Romeo and Juliet'' (Nino Rota).wav

Peak level 54.2 %
Extraction speed 3.4 X
Track quality 100.0 %
Test CRC 74F67DCA
Copy CRC 74F67DCA
Accurately ripped (confidence 1) [6168B8FC] (AR v2)
Copy OK

Track 19

Filename E:\MUSIC\My Music\Percy Faith - Those Were The Days - Love Theme From Romeo and Juliiet\CD\19 Good Morning Starshine (Ragni-Rado-McDermott).wav

Peak level 62.4 %
Extraction speed 3.4 X
Track quality 100.0 %
Test CRC B78D3E23
Copy CRC B78D3E23
Accurately ripped (confidence 1) [8A0ACEFF] (AR v2)
Copy OK

Track 20

Filename E:\MUSIC\My Music\Percy Faith - Those Were The Days - Love Theme From Romeo and Juliiet\CD\20 One (Harry Nilsson).wav

Peak level 43.5 %
Extraction speed 2.5 X
Track quality 99.9 %
Test CRC BA104F5B
Copy CRC BA104F5B
Accurately ripped (confidence 1) [5D1F9CEF] (AR v2)
Copy OK

Track 21

Filename E:\MUSIC\My Music\Percy Faith - Those Were The Days - Love Theme From Romeo and Juliiet\CD\21 Without Her (Harry Nilsson).wav

Peak level 56.8 %
Extraction speed 3.6 X
Track quality 100.0 %
Test CRC F0FBE065
Copy CRC F0FBE065
Accurately ripped (confidence 1) [63CCB8F2] (AR v2)
Copy OK

Track 22

Filename E:\MUSIC\My Music\Percy Faith - Those Were The Days - Love Theme From Romeo and Juliiet\CD\22 Through The Eyes of a Child.wav

Peak level 44.9 %
Extraction speed 3.7 X
Track quality 100.0 %
Test CRC 4B2F1FF7
Copy CRC 4B2F1FF7
Accurately ripped (confidence 1) [3C2A54E9] (AR v2)
Copy OK


All tracks accurately ripped

No errors occurred

End of status report

==== Log checksum 57D811EEFFB796558729C062D1CF2EAD213A71B10CE07E5EDA5B29CD128C3163 ====