Subcategories

Pergolesi - Il prigionier superbo; La serva padrona (Corrado Rovaris)

Posted By: Sowulo
Pergolesi - Il prigionier superbo; La serva padrona (Corrado Rovaris)

Pergolesi - Il prigionier superbo; La serva padrona (Corrado Rovaris) (2012)
BluRay | BDMV | MPEG-4 AVC Video / 23836 kbps / 1080i / 29,970 fps / 16:9 / High Profile 4.1 | 177 min | 40.7 Gb
Audio1: Italian / LPCM Audio / 2.0 / 48 kHz / 2304 kbps / 24-bit
Audio2: Italian / DTS-HD Master Audio / 5.1 / 48 kHz / 3829 kbps / 24-bit (DTS Core: 5.1 / 48 kHz / 1509 kbps / 24-bit)
Classical | Art Haus | Sub: Italian, English, Francais, Deutsch, Espanol, Spanish, Korean, Japanese

Il Prigionier Superbo is a three-act opera seria with six characters — two kings, two princes, two princesses. La Serva Padrona is a two-part comic intermezzo with two singing characters — master and servant. It was performed between Prigionier's acts when they bowed in 1733, as Naples theaters reopened after earthquake-forced closure. Prigionier vanished from the stage, but Serva Padrona grew popular, helped establish opera buffaand helped start a pamphlet war between Italian and French opera supporters in Paris.

This release brings the operas back together in Festival Pergolesi Spontini performances from the Teatro Pergolesi in Jesi, the composer's birthplace, near Ancona. They are separate productions, Prigionier from 2009, Serva Padrona from 2011, though they share the period orchestra Accademia Barocca de I Virtuosi Italiani, conductor Corrado Rovaris, stage director Henning Brockhaus and a gravelly stage floor.

Prigionier's gravel is earthquake rubble, in which partying twenty-first-century actors find old marionettes, identify with them and play out their drama: one king imprisons another, pursues the latter's daughter and forces her to save either her father or the prince she loves; the other must die. Marionettes, marionettists, party servers, quake refugees and human remains clutter the stage, and the viewer struggles to clarify. Just one of the four male characters — the imprisoned king, a tenor — is sung by a man. (Just one of the other three, the prince lover, was sung by a castrato in 1733.) The princess at the center is an alto whose prince lover sings in a higher tessitura than she does.

Brockhaus stresses the modern play-acting over the old drama by keeping the singers in party attire and largely in their modern personas. Fancy dresses, high heels, styled hair, bare shoulders and cleavage abound, and women ostensibly playing men don't act like men. At first confusing, this brings refreshing relief from the usual "pants role" trappings of flattened chests and manlike walks. The initially incongruous clash of elegant ladies and a homeless camp pays off in sharp frissons when, in Act III, they wrap themselves in broken-down cardboard boxes and one climbs into a trash can.

From the harpsichord, Rovaris leads a vivacious performance of an engaging score. Each singer is at least good, but the three mezzos stand out — for sheer voice, contraltoish Marina Rodríguez-Cusí as the beleaguered princess; for dazzling technique, Marina De Liso as the dastardly king of the Goths; for expressivity, Marina Comparato as the prince lover. Comparato gets the two best arias, a Handelian bravura blast with trumpets and a haunting lament. The "proud prisoner" of the title is tenor Antonio Lozano, who stands on his wheelchair for his bravura aria. Agile soprano Ruth Rosique and beautiful soprano Giacinta Nicotra sing the remaining princess and prince. Improbably and quickly, all ends happily.

Serva Padrona's gravel is the floor of a circus tent, where Serpina serves as a novice dancer under strongman/ringmaster Uberto. Clowns, freaks, dancers and (simulated) animals enliven this thirty-seven-minute romp, which centers on a large swing, where clever Serpina sexily cavorts and drives Uberto, first seen with an issue of Playboy, nuts, until he agrees to marriage. Bass Carlo Lepore sings handsomely; his acting is generalized. Soprano Alessandra Marianelli, expressing feelings and sexuality through nuanced singing, is visually and vocally captivating. spacer

MARK MANDEL
Performer:
Il prigionier superbo:
Sostrate - Antonio Lozano
Rosmene - Marina Rodriguez Cusi
Metalce - Marina De Liso
Ericlea - Ruth Rosique
Viridate - Marina Comparato
Micisda - Giacinta Nicotra
Accademia Barocca de I Virtuosi Italiani
Conductor - Corrado Rovaris

La serva padrona:
Serpina - Alessandra Marianelli
Uberto - Carlo Lepore
Vespone - Jean Neningue
Accademia Barocca de I Virtuosi Italiani
Conductor - Corrado Rovaris


Disc Title: PERGOLESI
Disc Size: 43 756 357 061 bytes
Protection: AACS
BD-Java: No
BDInfo: 0.5.8

Notes:

BDINFO HOME:
Cinema Squid
http://www.cinemasquid.com/blu-ray/tools/bdinfo

INCLUDES FORUMS REPORT FOR:
AVS Forum Blu-ray Audio and Video Specifications Thread
http://www.avsforum.com/avs-vb/showthread.php?t=1155731


********************
PLAYLIST: 00002.MPLS
********************

<–- BEGIN FORUMS PASTE –->
                                                                                                                Total   Video                                             
Title                                                           Codec   Length  Movie Size      Disc Size       Bitrate Bitrate Main Audio Track                          Secondary Audio Track
-----                                                           ------  ------- --------------  --------------  ------- ------- ------------------                        ---------------------
00002.MPLS                                                      AVC     2:04:45 29 911 474 176  43 756 357 061  31,97   23,93   LPCM 2.0 2304Kbps (48kHz/24-bit)          DTS-HD Master 5.1 3920Kbps (48kHz/24-bit)


DISC INFO:

Disc Title:     PERGOLESI
Disc Size:      43 756 357 061 bytes
Protection:     AACS
BD-Java:        No
BDInfo:         0.5.8

PLAYLIST REPORT:

Name:                   00002.MPLS
Length:                 2:04:45.010 (h:m:s.ms)
Size:                   29 911 474 176 bytes
Total Bitrate:          31,97 Mbps

VIDEO:

Codec                   Bitrate             Description     
-----                   -------             -----------     
MPEG-4 AVC Video        23932 kbps          1080i / 29,970 fps / 16:9 / High Profile 4.1

AUDIO:

Codec                           Language        Bitrate         Description     
-----                           --------        -------         -----------     
LPCM Audio                      Undetermined    2304 kbps       2.0 / 48 kHz / 2304 kbps / 24-bit
DTS-HD Master Audio             Undetermined    3920 kbps       5.1 / 48 kHz / 3920 kbps / 24-bit (DTS Core: 5.1 / 48 kHz / 1509 kbps / 24-bit)

SUBTITLES:

Codec                           Language        Bitrate         Description     
-----                           --------        -------         -----------     
Presentation Graphics           Italian         15,919 kbps                     
Presentation Graphics           English         18,074 kbps                     
Presentation Graphics           German          19,650 kbps                     
Presentation Graphics           French          17,502 kbps                     
Presentation Graphics           Spanish         16,522 kbps                     
Presentation Graphics           Japanese        19,039 kbps                     
Presentation Graphics           Korean          18,446 kbps                     

FILES:

Name            Time In         Length          Size            Total Bitrate   
----            -------         ------          ----            -------------   
00002.M2TS      0:00:00.000     2:04:30.629     29 910 349 824  32 030          
00005.M2TS      2:04:30.629     0:00:14.047     1 112 064       633             
00000.M2TS      2:04:44.677     0:00:00.333     12 288          295             

CHAPTERS:

Number          Time In         Length          Avg Video Rate  Max 1-Sec Rate  Max 1-Sec Time  Max 5-Sec Rate  Max 5-Sec Time  Max 10Sec Rate  Max 10Sec Time  Avg Frame Size  Max Frame Size  Max Frame Time  
------          -------         ------          --------------  --------------  --------------  --------------  --------------  --------------  --------------  --------------  --------------  --------------  
1               0:00:00.000     0:01:39.099     20 930 kbps     38 304 kbps     00:00:36.636    34 524 kbps     00:00:34.234    33 165 kbps     00:00:30.029    87 267 bytes    383 667 bytes   00:01:17.677    
2               0:01:39.099     0:05:29.228     24 230 kbps     41 000 kbps     00:03:05.652    36 297 kbps     00:03:03.249    33 346 kbps     00:03:00.847    101 061 bytes   785 356 bytes   00:03:46.459    
3               0:07:08.327     0:00:56.156     26 408 kbps     35 913 kbps     00:07:21.474    31 952 kbps     00:07:20.706    28 960 kbps     00:07:19.705    110 144 bytes   556 105 bytes   00:07:20.106    
4               0:08:04.483     0:02:06.125     26 201 kbps     37 672 kbps     00:09:06.045    30 788 kbps     00:09:02.041    29 288 kbps     00:08:12.158    109 280 bytes   595 039 bytes   00:09:04.477    
5               0:10:10.609     0:03:45.625     26 480 kbps     39 044 kbps     00:10:19.018    32 461 kbps     00:12:46.499    30 644 kbps     00:12:47.299    110 445 bytes   746 158 bytes   00:10:19.085    
6               0:13:56.235     0:01:33.193     25 035 kbps     36 595 kbps     00:14:07.112    31 216 kbps     00:14:06.312    30 306 kbps     00:14:58.430    104 415 bytes   773 589 bytes   00:14:28.367    
7               0:15:29.428     0:03:47.860     23 609 kbps     39 192 kbps     00:19:14.119    36 015 kbps     00:19:10.916    32 345 kbps     00:19:07.279    98 468 bytes    621 278 bytes   00:15:31.830    
8               0:19:17.289     0:02:34.020     22 720 kbps     39 199 kbps     00:19:26.698    35 007 kbps     00:19:25.531    31 971 kbps     00:19:20.893    94 760 bytes    608 597 bytes   00:19:29.301    
9               0:21:51.310     0:01:06.066     25 353 kbps     31 905 kbps     00:22:13.532    29 230 kbps     00:22:13.532    28 557 kbps     00:21:58.116    105 742 bytes   342 879 bytes   00:22:31.983    
10              0:22:57.376     0:04:22.261     24 038 kbps     36 293 kbps     00:26:05.196    32 826 kbps     00:26:05.163    32 326 kbps     00:25:59.991    100 258 bytes   423 849 bytes   00:25:32.330    
11              0:27:19.638     0:01:33.426     24 856 kbps     38 266 kbps     00:27:31.416    32 927 kbps     00:27:36.621    32 234 kbps     00:27:31.516    103 671 bytes   320 645 bytes   00:27:37.756    
12              0:28:53.064     0:02:56.843     25 430 kbps     36 357 kbps     00:29:18.456    33 514 kbps     00:29:16.654    32 338 kbps     00:29:11.716    106 063 bytes   378 004 bytes   00:29:31.770    
13              0:31:49.908     0:02:16.803     24 467 kbps     34 457 kbps     00:32:41.993    30 214 kbps     00:32:38.022    28 141 kbps     00:33:56.701    102 047 bytes   323 402 bytes   00:34:03.541    
14              0:34:06.711     0:03:26.439     24 366 kbps     38 647 kbps     00:36:57.748    34 515 kbps     00:36:54.946    30 501 kbps     00:36:51.576    101 628 bytes   375 792 bytes   00:36:53.844    
15              0:37:33.150     0:06:40.500     22 394 kbps     30 573 kbps     00:39:51.789    27 774 kbps     00:39:51.088    26 653 kbps     00:39:51.088    93 403 bytes    397 073 bytes   00:38:56.033    
16              0:44:13.651     0:03:01.614     25 609 kbps     40 042 kbps     00:46:06.597    34 776 kbps     00:46:05.996    32 446 kbps     00:46:03.627    106 811 bytes   396 181 bytes   00:46:22.613    
17              0:47:15.265     0:02:53.373     27 126 kbps     40 180 kbps     00:47:29.613    36 707 kbps     00:47:25.609    35 336 kbps     00:47:23.540    113 139 bytes   653 523 bytes   00:49:59.796    
18              0:50:08.638     0:01:50.977     18 248 kbps     37 918 kbps     00:50:09.272    33 626 kbps     00:50:09.272    30 512 kbps     00:50:09.072    76 110 bytes    611 024 bytes   00:50:12.642    
19              0:51:59.616     0:02:44.664     23 517 kbps     35 278 kbps     00:53:38.715    29 359 kbps     00:53:34.778    28 331 kbps     00:53:30.574    98 086 bytes    381 492 bytes   00:52:12.562    
20              0:54:44.281     0:01:35.428     24 951 kbps     36 466 kbps     00:56:08.965    34 473 kbps     00:54:59.396    30 943 kbps     00:55:27.057    104 065 bytes   331 158 bytes   00:56:09.032    
21              0:56:19.709     0:02:27.914     26 085 kbps     43 905 kbps     00:57:18.701    38 317 kbps     00:57:18.568    33 021 kbps     00:57:18.568    108 796 bytes   591 904 bytes   00:57:21.137    
22              0:58:47.624     0:01:04.964     26 097 kbps     35 144 kbps     00:59:15.018    30 348 kbps     00:59:20.623    29 238 kbps     00:59:19.923    108 846 bytes   578 792 bytes   00:59:15.218    
23              0:59:52.589     0:04:12.018     26 439 kbps     37 261 kbps     01:02:44.794    33 261 kbps     01:03:54.430    32 630 kbps     01:03:54.430    110 271 bytes   647 450 bytes   01:02:44.961    
24              1:04:04.607     0:03:35.448     25 377 kbps     39 382 kbps     01:04:06.909    30 282 kbps     01:07:17.600    28 412 kbps     01:07:14.730    105 842 bytes   637 822 bytes   01:04:06.976    
25              1:07:40.055     0:02:41.494     26 022 kbps     38 360 kbps     01:08:31.507    30 915 kbps     01:08:01.277    29 389 kbps     01:07:40.723    108 535 bytes   644 685 bytes   01:10:21.383    
26              1:10:21.550     0:01:57.450     22 547 kbps     32 413 kbps     01:10:26.088    28 503 kbps     01:10:26.088    27 299 kbps     01:10:25.087    94 041 bytes    769 191 bytes   01:10:32.695    
27              1:12:19.001     0:03:58.571     23 237 kbps     42 763 kbps     01:14:24.927    35 438 kbps     01:14:23.325    30 802 kbps     01:14:41.977    96 917 bytes    590 442 bytes   01:14:51.987    
28              1:16:17.573     0:02:39.826     24 885 kbps     39 091 kbps     01:17:20.736    34 824 kbps     01:17:19.534    31 355 kbps     01:17:14.596    103 791 bytes   467 227 bytes   01:17:20.969    
29              1:18:57.399     0:05:13.646     21 319 kbps     35 025 kbps     01:23:32.941    31 419 kbps     01:23:29.771    29 552 kbps     01:21:51.172    88 918 bytes    446 984 bytes   01:19:00.736    
30              1:24:11.046     0:05:44.344     20 530 kbps     32 749 kbps     01:29:31.232    29 554 kbps     01:29:30.365    27 669 kbps     01:26:36.291    85 628 bytes    308 622 bytes   01:28:41.883    
31              1:29:55.390     0:02:01.121     22 328 kbps     31 530 kbps     01:30:32.794    28 945 kbps     01:30:31.993    26 633 kbps     01:30:27.155    93 126 bytes    316 068 bytes   01:30:55.349    
32              1:31:56.511     0:02:15.134     25 929 kbps     40 633 kbps     01:32:21.536    36 982 kbps     01:32:17.532    35 360 kbps     01:32:15.730    108 147 bytes   738 815 bytes   01:32:24.138    
33              1:34:11.646     0:05:59.359     24 091 kbps     40 325 kbps     01:37:46.527    35 008 kbps     01:36:32.019    30 874 kbps     01:35:29.090    100 479 bytes   658 544 bytes   01:34:52.520    
34              1:40:11.005     0:00:52.485     24 663 kbps     37 673 kbps     01:40:43.170    32 947 kbps     01:40:39.500    28 139 kbps     01:40:11.372    102 864 bytes   384 849 bytes   01:40:29.023    
35              1:41:03.490     0:03:51.798     24 605 kbps     37 864 kbps     01:41:21.108    32 426 kbps     01:41:17.104    30 801 kbps     01:41:16.904    102 623 bytes   387 422 bytes   01:41:22.076    
36              1:44:55.289     0:01:48.508     24 471 kbps     42 683 kbps     01:45:59.853    38 165 kbps     01:45:58.218    30 253 kbps     01:45:58.352    102 063 bytes   632 156 bytes   01:46:13.333    
37              1:46:43.797     0:06:30.990     24 693 kbps     46 540 kbps     01:48:27.734    38 353 kbps     01:48:25.232    32 908 kbps     01:48:25.031    102 988 bytes   745 874 bytes   01:48:28.735    
38              1:53:14.787     0:00:56.322     24 581 kbps     36 868 kbps     01:53:56.362    31 840 kbps     01:53:55.228    30 382 kbps     01:53:55.829    102 521 bytes   318 434 bytes   01:53:43.683    
39              1:54:11.110     0:03:32.946     19 634 kbps     28 946 kbps     01:57:38.584    26 364 kbps     01:54:36.302    23 977 kbps     01:54:36.903    81 891 bytes    352 425 bytes   01:57:38.785    
40              1:57:44.057     0:02:10.130     26 422 kbps     38 788 kbps     01:57:58.704    35 212 kbps     01:57:53.900    34 972 kbps     01:57:49.695    110 203 bytes   514 472 bytes   01:57:58.104    
41              1:59:54.187     0:02:11.131     22 996 kbps     41 994 kbps     02:00:27.587    30 405 kbps     02:01:41.193    28 630 kbps     02:01:08.094    95 914 bytes    702 853 bytes   02:00:27.787    
42              2:02:05.318     0:02:25.311     22 800 kbps     42 091 kbps     02:02:32.378    36 688 kbps     02:02:30.776    34 555 kbps     02:02:27.406    95 096 bytes    593 377 bytes   02:02:33.379    
43              2:04:30.629     0:00:14.381     516 kbps        1 474 kbps      02:04:36.001    985 kbps        02:04:31.797    686 kbps        02:04:30.629    2 158 bytes     23 543 bytes    02:04:33.632    

STREAM DIAGNOSTICS:

File            PID             Type            Codec           Language                Seconds                 Bitrate                 Bytes           Packets         
----            ---             ----            -----           --------                --------------          --------------          -------------   -----           
00002.M2TS      4113 (0x1011)   0x1B            AVC                                     7470,563                23 977                  22 390 046 426  121 815 833     
00002.M2TS      4352 (0x1100)   0x80            LPCM            und (Undetermined)      7470,563                2 310                   2 157 470 292   11 952 744      
00002.M2TS      4353 (0x1101)   0x86            DTS-HD MA       und (Undetermined)      7470,563                3 927                   3 667 260 604   21 096 094      
00002.M2TS      4608 (0x1200)   0x90            PGS             ita (Italian)           7470,563                16                      14 893 824      85 465          
00002.M2TS      4609 (0x1201)   0x90            PGS             eng (English)           7470,563                18                      16 910 574      96 467          
00002.M2TS      4610 (0x1202)   0x90            PGS             deu (German)            7470,563                20                      18 384 634      104 504         
00002.M2TS      4611 (0x1203)   0x90            PGS             fra (French)            7470,563                18                      16 375 200      93 531          
00002.M2TS      4612 (0x1204)   0x90            PGS             spa (Spanish)           7470,563                17                      15 457 960      88 531          
00002.M2TS      4613 (0x1205)   0x90            PGS             jpn (Japanese)          7470,563                19                      17 813 228      101 317         
00002.M2TS      4614 (0x1206)   0x90            PGS             kor (Korean)            7470,563                18                      17 258 137      98 298          
00005.M2TS      4113 (0x1011)   0x1B            AVC                                     13,914                  532                     924 426         5 314           
00000.M2TS      4113 (0x1011)   0x1B            AVC                                     0,200                   244                     6 107           41              

<–– END FORUMS PASTE ––>

QUICK SUMMARY:

Disc Title: PERGOLESI
Disc Size: 43 756 357 061 bytes
Protection: AACS
BD-Java: No
Playlist: 00002.MPLS
Size: 29 911 474 176 bytes
Length: 2:04:45.010
Total Bitrate: 31,97 Mbps
Video: MPEG-4 AVC Video / 23932 kbps / 1080i / 29,970 fps / 16:9 / High Profile 4.1
Audio: Undetermined / LPCM Audio / 2.0 / 48 kHz / 2304 kbps / 24-bit
Audio: Undetermined / DTS-HD Master Audio / 5.1 / 48 kHz / 3920 kbps / 24-bit (DTS Core: 5.1 / 48 kHz / 1509 kbps / 24-bit)
Subtitle: Italian / 15,919 kbps
Subtitle: English / 18,074 kbps
Subtitle: German / 19,650 kbps
Subtitle: French / 17,502 kbps
Subtitle: Spanish / 16,522 kbps
Subtitle: Japanese / 19,039 kbps
Subtitle: Korean / 18,446 kbps


********************
PLAYLIST: 00007.MPLS
********************

<–- BEGIN FORUMS PASTE –->
                                                                                                                Total   Video                                             
Title                                                           Codec   Length  Movie Size      Disc Size       Bitrate Bitrate Main Audio Track                          Secondary Audio Track
-----                                                           ------  ------- --------------  --------------  ------- ------- ------------------                        ---------------------
00007.MPLS                                                      AVC     0:52:32 12 524 537 856  43 756 357 061  31,79   23,84   LPCM 2.0 2304Kbps (48kHz/24-bit)          DTS-HD Master 5.1 3829Kbps (48kHz/24-bit)


DISC INFO:

Disc Title:     PERGOLESI
Disc Size:      43 756 357 061 bytes
Protection:     AACS
BD-Java:        No
BDInfo:         0.5.8

PLAYLIST REPORT:

Name:                   00007.MPLS
Length:                 0:52:32.082 (h:m:s.ms)
Size:                   12 524 537 856 bytes
Total Bitrate:          31,79 Mbps

VIDEO:

Codec                   Bitrate             Description     
-----                   -------             -----------     
MPEG-4 AVC Video        23836 kbps          1080i / 29,970 fps / 16:9 / High Profile 4.1

AUDIO:

Codec                           Language        Bitrate         Description     
-----                           --------        -------         -----------     
LPCM Audio                      Undetermined    2304 kbps       2.0 / 48 kHz / 2304 kbps / 24-bit
DTS-HD Master Audio             Undetermined    3829 kbps       5.1 / 48 kHz / 3829 kbps / 24-bit (DTS Core: 5.1 / 48 kHz / 1509 kbps / 24-bit)

SUBTITLES:

Codec                           Language        Bitrate         Description     
-----                           --------        -------         -----------     
Presentation Graphics           Italian         17,611 kbps                     
Presentation Graphics           English         19,388 kbps                     
Presentation Graphics           German          22,757 kbps                     
Presentation Graphics           French          21,653 kbps                     
Presentation Graphics           Spanish         17,783 kbps                     
Presentation Graphics           Japanese        21,526 kbps                     
Presentation Graphics           Korean          21,296 kbps                     

FILES:

Name            Time In         Length          Size            Total Bitrate   
----            -------         ------          ----            -------------   
00003.M2TS      0:00:00.000     0:52:17.701     12 523 413 504  31 930          
00005.M2TS      0:52:17.701     0:00:14.047     1 112 064       633             
00000.M2TS      0:52:31.748     0:00:00.333     12 288          295             

CHAPTERS:

Number          Time In         Length          Avg Video Rate  Max 1-Sec Rate  Max 1-Sec Time  Max 5-Sec Rate  Max 5-Sec Time  Max 10Sec Rate  Max 10Sec Time  Avg Frame Size  Max Frame Size  Max Frame Time  
------          -------         ------          --------------  --------------  --------------  --------------  --------------  --------------  --------------  --------------  --------------  --------------  
1               0:00:00.000     0:01:51.111     19 872 kbps     33 624 kbps     00:00:53.586    31 179 kbps     00:00:49.983    29 221 kbps     00:00:11.544    82 856 bytes    436 902 bytes   00:00:44.677    
2               0:01:51.111     0:03:04.183     23 336 kbps     34 334 kbps     00:04:33.339    29 634 kbps     00:03:49.862    27 794 kbps     00:03:48.328    97 330 bytes    349 559 bytes   00:03:02.415    
3               0:04:55.294     0:04:15.588     26 316 kbps     40 103 kbps     00:05:10.043    32 701 kbps     00:05:56.089    30 466 kbps     00:05:52.151    109 760 bytes   426 530 bytes   00:07:04.157    
4            			  		  	   		  		  	 			   		  	   		  	   	 			   		  	   		 	    		      	 			   		   	  		   	  			  				    0:09:10.883     0:03:45.225     26 498 kbps     39 343 kbps     00:09:12.218    32 228 kbps     00:11:58.317    31 165 kbps     00:11:09.235    110 520 bytes   386 181 bytes   00:11:25.851    
5               0:12:56.108     0:01:42.769     24 866 kbps     33 804 kbps     00:13:51.697    29 226 kbps     00:13:47.693    28 691 kbps     00:13:42.721    103 712 bytes   346 158 bytes   00:13:40.219    
6               0:14:38.878     0:03:18.198     23 802 kbps     33 510 kbps     00:17:51.203    27 821 kbps     00:17:47.199    27 252 kbps     00:17:42.194    99 273 bytes    352 445 bytes   00:16:11.870    
7               0:17:57.076     0:02:14.267     23 789 kbps     34 299 kbps     00:19:34.173    31 089 kbps     00:19:34.173    28 920 kbps     00:19:31.403    99 218 bytes    474 605 bytes   00:19:41.413    
8               0:20:11.343     0:04:03.109     23 342 kbps     36 943 kbps     00:21:57.883    33 903 kbps     00:21:53.679    32 526 kbps     00:21:52.678    97 355 bytes    398 854 bytes   00:22:50.435    
9               0:24:14.453     0:04:35.275     21 149 kbps     37 168 kbps     00:26:18.376    27 955 kbps     00:25:45.176    24 539 kbps     00:27:33.518    88 209 bytes    418 538 bytes   00:27:01.119    
10              0:28:49.728     0:03:26.206     23 068 kbps     33 934 kbps     00:31:07.232    30 775 kbps     00:31:07.031    29 170 kbps     00:30:08.473    96 211 bytes    397 013 bytes   00:30:37.936    
11              0:32:15.934     0:02:42.762     23 953 kbps     35 354 kbps     00:33:12.924    31 402 kbps     00:33:11.789    27 807 kbps     00:33:09.988    99 902 bytes    423 377 bytes   00:33:24.335    
12              0:34:58.696     0:03:37.617     24 182 kbps     34 325 kbps     00:36:20.678    31 443 kbps     00:36:17.675    29 515 kbps     00:36:12.637    100 861 bytes   398 443 bytes   00:35:56.053    
13              0:38:36.314     0:03:44.257     24 506 kbps     36 601 kbps     00:40:01.098    30 656 kbps     00:38:40.284    29 502 kbps     00:38:36.314    102 212 bytes   390 844 bytes   00:39:20.591    
14              0:42:20.571     0:07:29.415     25 037 kbps     40 277 kbps     00:46:53.110    32 476 kbps     00:45:12.176    31 208 kbps     00:45:12.743    104 424 bytes   456 043 bytes   00:47:31.982    
15              0:49:49.987     0:02:27.714     22 323 kbps     43 034 kbps     00:50:36.433    38 450 kbps     00:50:35.632    33 456 kbps     00:50:30.627    93 104 bytes    547 033 bytes   00:50:38.235    
16              0:52:17.701     0:00:14.381     516 kbps        1 474 kbps      00:52:23.073    985 kbps        00:52:18.869    686 kbps        00:52:17.701    2 158 bytes     23 543 bytes    00:52:20.704    

STREAM DIAGNOSTICS:

File            PID             Type            Codec           Language                Seconds                 Bitrate                 Bytes           Packets         
----            ---             ----            -----           --------                --------------          --------------          -------------   -----           
00003.M2TS      4113 (0x1011)   0x1B            AVC                                     3137,635                23 944                  9 390 782 064   51 091 815      
00003.M2TS      4352 (0x1100)   0x80            LPCM            und (Undetermined)      3137,635                2 310                   906 004 588     5 019 416       
00003.M2TS      4353 (0x1101)   0x86            DTS-HD MA       und (Undetermined)      3137,635                3 846                   1 508 480 704   8 688 113       
00003.M2TS      4608 (0x1200)   0x90            PGS             ita (Italian)           3137,635                18                      6 938 943       40 218          
00003.M2TS      4609 (0x1201)   0x90            PGS             eng (English)           3137,635                19                      7 639 040       44 027          
00003.M2TS      4610 (0x1202)   0x90            PGS             deu (German)            3137,635                23                      8 966 326       51 225          
00003.M2TS      4611 (0x1203)   0x90            PGS             fra (French)            3137,635                22                      8 531 527       48 884          
00003.M2TS      4612 (0x1204)   0x90            PGS             spa (Spanish)           3137,635                18                      7 006 845       40 584          
00003.M2TS      4613 (0x1205)   0x90            PGS             jpn (Japanese)          3137,635                22                      8 481 280       48 601          
00003.M2TS      4614 (0x1206)   0x90            PGS             kor (Korean)            3137,635                21                      8 390 734       48 111          
00005.M2TS      4113 (0x1011)   0x1B            AVC                                     13,914                  532                     924 426         5 314           
00000.M2TS      4113 (0x1011)   0x1B            AVC                                     0,200                   244                     6 107           41              

<–– END FORUMS PASTE ––>

QUICK SUMMARY:

Disc Title: PERGOLESI
Disc Size: 43 756 357 061 bytes
Protection: AACS
BD-Java: No
Playlist: 00007.MPLS
Size: 12 524 537 856 bytes
Length: 0:52:32.082
Total Bitrate: 31,79 Mbps
Video: MPEG-4 AVC Video / 23836 kbps / 1080i / 29,970 fps / 16:9 / High Profile 4.1
Audio: Undetermined / LPCM Audio / 2.0 / 48 kHz / 2304 kbps / 24-bit
Audio: Undetermined / DTS-HD Master Audio / 5.1 / 48 kHz / 3829 kbps / 24-bit (DTS Core: 5.1 / 48 kHz / 1509 kbps / 24-bit)
Subtitle: Italian / 17,611 kbps
Subtitle: English / 19,388 kbps
Subtitle: German / 22,757 kbps
Subtitle: French / 21,653 kbps
Subtitle: Spanish / 17,783 kbps
Subtitle: Japanese / 21,526 kbps
Subtitle: Korean / 21,296 kbps


Pergolesi - Il prigionier superbo; La serva padrona (Corrado Rovaris)

Pergolesi - Il prigionier superbo; La serva padrona (Corrado Rovaris)

Pergolesi - Il prigionier superbo; La serva padrona (Corrado Rovaris)

Pergolesi - Il prigionier superbo; La serva padrona (Corrado Rovaris)



PIPSCR