Subcategories

Corrado Rovaris, Accademia Barocca de I Virtuosi Italiani - Pergolesi: Il Prigionier Superbo; La Serva Padrona (2012) [Blu-Ray]

Posted By: Vilboa
Corrado Rovaris, Accademia Barocca de I Virtuosi Italiani - Pergolesi: Il Prigionier Superbo; La Serva Padrona (2012) [Blu-Ray]

Corrado Rovaris, Accademia Barocca de I Virtuosi Italiani - Pergolesi: Il Prigionier Superbo & La Serva Padrona (2012) [Blu-Ray]
BluRay | BDMV | MPEG-4 AVC Video / 23932 kbps / 1080i / 29,970 fps | 177 min | 40,7 Gb
Audio1: Italian / LPCM Audio / 2.0 / 24-bit | Audio2: DTS-HD Master Audio / 5.1 / 48 kHz / 3920 kbps / 24-bit

BluRay-rip | AVC | MKV 1920x1080 / 6215 kbps / 29,970 fps | 177 min | 9,58 Gb
Audio: Italian / DTS / 6ch / 48.0 KHz / 24 bits
Classical | Arthaus Musik | Sub: Italiano, English, Deutsch, Francais, Espanol, Japanese, Korean

The Fondazione Pergolesi Spontini, which has been devoting itself to the research and performance of Pergolesi‘s music for years now, had his operas recorded live at the annual Music Festival in Jesi. Released on this BD are two productions from Jesi of one almost forgotten opera, Il prigionier superbo, and one of Pergolesi’s most popular works, La serva padrona, combined like they were at the original premiere. Il prigionier superbo tells the story of two rival kings and a princess in distress. In order to strengthen his power, Metalce imprisons his rival Sostrate. Further, he tries to obtain Rosmene’s love. Proud like her father Sostrate, she persistently thwarts the tyrant, while on the other hand she forces herself to hate her beloved Viridate. La serva padrona is the short comedy of Serpina and Uberto: the wily maidservant, hell-bent on her willing to become the mistress of the house, thinks up a plan in order to convince her master to marry her.
Both operas were directed by Henning Brockhaus, who placed Il prigionier superbo within a contemporary setting inside a cave and La serva padrona in a circus. The casts both brilliantly show their versatile voices in numerous virtuosic arias accompanied by the Baroque specialists of the Accademia Barocca de I Virtuosi Italiani, conducted by Corrado Rovaris..

Cast:
Il Prigionier Superbo:
Sostrate - Antonio Lozano
Rosmene - Marina Rodriguez Cusi
Metalce - Marina De Liso
Ericlea - Ruth Rosique
Viridate - Marina Comparato
Micisda - Giacinta Nicotra
La Serva Padrona:
Serpina - Alessandra Marianelli
Uberto - Carlo Lepore
Vespone - Jean Neningue
Accademia Barocca de I Virtuosi Italiani
Conductor - Corrado Rovaris


Disc Title: PERGOLESI
Disc Size: 43 756 357 061 bytes
Protection: AACS
BD-Java: No
Playlist: 00002.MPLS
Size: 29 911 474 176 bytes
Length: 2:04:45.010
Total Bitrate: 31,97 Mbps
Video: MPEG-4 AVC Video / 23932 kbps / 1080i / 29,970 fps / 16:9 / High Profile 4.1
Audio: Undetermined / LPCM Audio / 2.0 / 48 kHz / 2304 kbps / 24-bit
Audio: Undetermined / DTS-HD Master Audio / 5.1 / 48 kHz / 3920 kbps / 24-bit (DTS Core: 5.1 / 48 kHz / 1509 kbps / 24-bit)
Subtitle: Italian / 15,919 kbps
Subtitle: English / 18,074 kbps
Subtitle: German / 19,650 kbps
Subtitle: French / 17,502 kbps
Subtitle: Spanish / 16,522 kbps
Subtitle: Japanese / 19,039 kbps
Subtitle: Korean / 18,446 kbps


General
Unique ID : 242614600987539608599438817365360259427 (0xB685DF5C13ED680FB27169A5798E3163)
Complete name : C:\Il_prigionier_superbo.mkv
Format : Matroska
Format version : Version 2
File size : 6.75 GiB
Duration : 2h 4mn
Overall bit rate : 7 758 Kbps
Movie name : Il_prigionier_superbo
Encoded date : UTC 2018-09-05 09:37:15
Writing application : DVDFab 9.1.6.8
Writing library : libebml v0.7.8 + libmatroska v0.8.1

Video
ID : 1
Format : AVC
Format/Info : Advanced Video Codec
Format profile : High@L4.1
Format settings, CABAC : Yes
Format settings, ReFrames : 2 frames
Codec ID : V_MPEG4/ISO/AVC
Duration : 2h 4mn
Bit rate : 6 215 Kbps
Width : 1 920 pixels
Height : 1 080 pixels
Display aspect ratio : 16:9
Frame rate mode : Constant
Frame rate : 29.970 fps
Color space : YUV
Chroma subsampling : 4:2:0
Bit depth : 8 bits
Scan type : Progressive
Bits/(Pixel*Frame) : 0.100
Stream size : 5.30 GiB (79%)
Writing library : x264 core 142
Encoding settings : cabac=1 / ref=1 / deblock=1:-1:-1 / analyse=0x3:0 / me=hex / subme=5 / psy=0 / mixed_ref=0 / me_range=16 / chroma_me=1 / trellis=0 / 8x8dct=1 / cqm=0 / deadzone=21,11 / fast_pskip=1 / chroma_qp_offset=0 / threads=8 / lookahead_threads=2 / sliced_threads=0 / nr=0 / decimate=1 / interlaced=0 / bluray_compat=0 / constrained_intra=0 / bframes=2 / b_pyramid=0 / b_adapt=1 / b_bias=0 / direct=1 / weightb=1 / open_gop=0 / weightp=0 / keyint=24 / keyint_min=13 / scenecut=40 / intra_refresh=0 / rc=abr / mbtree=0 / bitrate=6215 / ratetol=1.0 / qcomp=0.60 / qpmin=0 / qpmax=69 / qpstep=4 / ip_ratio=1.40 / pb_ratio=1.30 / aq=1:1.00
Default : Yes
Forced : No
Color primaries : BT.709
Transfer characteristics : BT.709
Matrix coefficients : BT.709
Color range : Limited

Audio
ID : 2
Format : DTS
Format/Info : Digital Theater Systems
Mode : 16
Format settings, Endianness : Big
Codec ID : A_DTS
Duration : 2h 4mn
Bit rate mode : Constant
Bit rate : 1 509 Kbps
Channel(s) : 6 channels
Channel positions : Front: L C R, Side: L R, LFE
Sampling rate : 48.0 KHz
Bit depth : 24 bits
Compression mode : Lossy
Stream size : 1.31 GiB (19%)
Default : Yes
Forced : No

Text #1
ID : 3
Format : VobSub
Codec ID : S_VOBSUB
Codec ID/Info : The same subtitle format used on DVDs
Language : Italian
Default : Yes
Forced : No

Text #2
ID : 4
Format : VobSub
Codec ID : S_VOBSUB
Codec ID/Info : The same subtitle format used on DVDs
Language : English
Default : No
Forced : No

Text #3
ID : 5
Format : VobSub
Codec ID : S_VOBSUB
Codec ID/Info : The same subtitle format used on DVDs
Language : German
Default : No
Forced : No

Text #4
ID : 6
Format : VobSub
Codec ID : S_VOBSUB
Codec ID/Info : The same subtitle format used on DVDs
Language : French
Default : No
Forced : No

Text #5
ID : 7
Format : VobSub
Codec ID : S_VOBSUB
Codec ID/Info : The same subtitle format used on DVDs
Language : Spanish
Default : No
Forced : No

Text #6
ID : 8
Format : VobSub
Codec ID : S_VOBSUB
Codec ID/Info : The same subtitle format used on DVDs
Language : Japanese
Default : No
Forced : No

Text #7
ID : 9
Format : VobSub
Codec ID : S_VOBSUB
Codec ID/Info : The same subtitle format used on DVDs
Language : Korean
Default : No
Forced : No

Menu
00:00:00.000 : en:Chapter 01
00:01:39.099 : en:Chapter 02
00:07:08.327 : en:Chapter 03
00:08:04.283 : en:Chapter 04
00:10:10.610 : en:Chapter 05
00:13:56.235 : en:Chapter 06
00:15:29.295 : en:Chapter 07
00:19:17.256 : en:Chapter 08
00:21:51.310 : en:Chapter 09
00:22:57.376 : en:Chapter 10
00:27:19.504 : en:Chapter 11
00:28:52.797 : en:Chapter 12
00:31:49.908 : en:Chapter 13
00:34:06.711 : en:Chapter 14
00:37:33.150 : en:Chapter 15
00:44:13.651 : en:Chapter 16
00:47:15.265 : en:Chapter 17
00:50:08.605 : en:Chapter 18
00:51:59.616 : en:Chapter 19
00:54:44.281 : en:Chapter 20
00:56:19.576 : en:Chapter 21
00:58:47.390 : en:Chapter 22
00:59:52.455 : en:Chapter 23
01:04:04.607 : en:Chapter 24
01:07:39.855 : en:Chapter 25
01:10:21.383 : en:Chapter 26
01:12:19.001 : en:Chapter 27
01:16:17.573 : en:Chapter 28
01:18:57.399 : en:Chapter 29
01:24:11.046 : en:Chapter 30
01:29:55.390 : en:Chapter 31
01:31:56.210 : en:Chapter 32
01:34:11.579 : en:Chapter 33
01:40:10.704 : en:Chapter 34
01:41:03.190 : en:Chapter 35
01:44:55.289 : en:Chapter 36
01:46:43.663 : en:Chapter 37
01:53:14.788 : en:Chapter 38
01:54:11.110 : en:Chapter 39
01:57:44.057 : en:Chapter 40
01:59:54.187 : en:Chapter 41
02:02:05.318 : en:Chapter 42
General
Unique ID : 236284821737345770630243680008083450749 (0xB1C2CD25D9F09F95B92A029FCF05AB7D)
Complete name : C:\La_serva_padrona.mkv
Format : Matroska
Format version : Version 2
File size : 2.84 GiB
Duration : 52mn 17s
Overall bit rate : 7 767 Kbps
Movie name : La_serva_padrona
Encoded date : UTC 2018-09-05 14:28:20
Writing application : DVDFab 9.1.6.8
Writing library : libebml v0.7.8 + libmatroska v0.8.1

Video
ID : 1
Format : AVC
Format/Info : Advanced Video Codec
Format profile : High@L4.1
Format settings, CABAC : Yes
Format settings, ReFrames : 2 frames
Codec ID : V_MPEG4/ISO/AVC
Duration : 52mn 17s
Bit rate : 6 215 Kbps
Width : 1 920 pixels
Height : 1 080 pixels
Display aspect ratio : 16:9
Frame rate mode : Constant
Frame rate : 29.970 fps
Color space : YUV
Chroma subsampling : 4:2:0
Bit depth : 8 bits
Scan type : Progressive
Bits/(Pixel*Frame) : 0.100
Stream size : 2.23 GiB (79%)
Writing library : x264 core 142
Encoding settings : cabac=1 / ref=1 / deblock=1:-1:-1 / analyse=0x3:0 / me=hex / subme=5 / psy=0 / mixed_ref=0 / me_range=16 / chroma_me=1 / trellis=0 / 8x8dct=1 / cqm=0 / deadzone=21,11 / fast_pskip=1 / chroma_qp_offset=0 / threads=8 / lookahead_threads=2 / sliced_threads=0 / nr=0 / decimate=1 / interlaced=0 / bluray_compat=0 / constrained_intra=0 / bframes=2 / b_pyramid=0 / b_adapt=1 / b_bias=0 / direct=1 / weightb=1 / open_gop=0 / weightp=0 / keyint=24 / keyint_min=13 / scenecut=40 / intra_refresh=0 / rc=abr / mbtree=0 / bitrate=6215 / ratetol=1.0 / qcomp=0.60 / qpmin=0 / qpmax=69 / qpstep=4 / ip_ratio=1.40 / pb_ratio=1.30 / aq=1:1.00
Default : Yes
Forced : No
Color primaries : BT.709
Transfer characteristics : BT.709
Matrix coefficients : BT.709
Color range : Limited

Audio
ID : 2
Format : DTS
Format/Info : Digital Theater Systems
Mode : 16
Format settings, Endianness : Big
Codec ID : A_DTS
Duration : 52mn 17s
Bit rate mode : Constant
Bit rate : 1 509 Kbps
Channel(s) : 6 channels
Channel positions : Front: L C R, Side: L R, LFE
Sampling rate : 48.0 KHz
Bit depth : 24 bits
Compression mode : Lossy
Stream size : 564 MiB (19%)
Default : Yes
Forced : No

Text #1
ID : 3
Format : VobSub
Codec ID : S_VOBSUB
Codec ID/Info : The same subtitle format used on DVDs
Language : Italian
Default : Yes
Forced : No

Text #2
ID : 4
Format : VobSub
Codec ID : S_VOBSUB
Codec ID/Info : The same subtitle format used on DVDs
Language : English
Default : No
Forced : No

Text #3
ID : 5
Format : VobSub
Codec ID : S_VOBSUB
Codec ID/Info : The same subtitle format used on DVDs
Language : German
Default : No
Forced : No

Text #4
ID : 6
Format : VobSub
Codec ID : S_VOBSUB
Codec ID/Info : The same subtitle format used on DVDs
Language : French
Default : No
Forced : No

Text #5
ID : 7
Format : VobSub
Codec ID : S_VOBSUB
Codec ID/Info : The same subtitle format used on DVDs
Language : Spanish
Default : No
Forced : No

Text #6
ID : 8
Format : VobSub
Codec ID : S_VOBSUB
Codec ID/Info : The same subtitle format used on DVDs
Language : Japanese
Default : No
Forced : No

Text #7
ID : 9
Format : VobSub
Codec ID : S_VOBSUB
Codec ID/Info : The same subtitle format used on DVDs
Language : Korean
Default : No
Forced : No

Menu
00:00:00.000 : en:Chapter 01
00:01:51.111 : en:Chapter 02
00:04:55.295 : en:Chapter 03
00:09:10.683 : en:Chapter 04
00:12:56.108 : en:Chapter 05
00:14:38.577 : en:Chapter 06
00:17:57.009 : en:Chapter 07
00:20:11.243 : en:Chapter 08
00:24:14.453 : en:Chapter 09
00:28:49.728 : en:Chapter 10
00:32:15.934 : en:Chapter 11
00:34:58.696 : en:Chapter 12
00:38:36.314 : en:Chapter 13
00:42:20.571 : en:Chapter 14
00:49:49.987 : en:Chapter 15

All screenshots taken from BDRip

Corrado Rovaris, Accademia Barocca de I Virtuosi Italiani - Pergolesi: Il Prigionier Superbo; La Serva Padrona (2012) [Blu-Ray]
Corrado Rovaris, Accademia Barocca de I Virtuosi Italiani - Pergolesi: Il Prigionier Superbo; La Serva Padrona (2012) [Blu-Ray]