Subcategories

Pergolesi: Stabat Mater; Laudate Pueri - Hofstetter, Neumeyer Consort, Ensemble Barock Vokal, Mainz (2012)

Posted By: peotuvave
Pergolesi: Stabat Mater; Laudate Pueri - Hofstetter, Neumeyer Consort, Ensemble Barock Vokal, Mainz (2012)

Pergolesi: Stabat Mater; Laudate Pueri - Hofstetter, Neumeyer Consort, Ensemble Barock Vokal, Mainz (2012)
EAC Rip | Flac (Image + cue + log) | 1 CD | Full Scans | 270 MB
Genre: Classical | Label: Oehms | Catalog Number: 831

This release features Pergolesi’s Stabat Mater, performed by two countertenors for the rst time, recreating the ethereal nature of the work. “The vocal lines come to life thanks to the typical manners of the castrati” Dr. Karl Böhmer.

Composer: Giovanni Battista Pergolesi
Performer: Valer Barna-Sabadus, Terry Wey
Conductor: Michael Hofstetter
Orchestra/Ensemble: Neumeyer Consort, Mainz Ensemble Barock Vokal

Reviews: “The memory left is one of remarkable virtuosity, musical agility and skill which you will want to enjoy again and again. This release is a highly rewarding pairing of disparate repertoire with unusual solo timbres”

Tracklisting:

1. Stabat Mater by Giovanni Battista Pergolesi
Performer: Valer Barna-Sabadus (Countertenor), Terry Wey (Countertenor)
Conductor: Michael Hofstetter
Orchestra/Ensemble: Neumeyer Consort, Mainz Ensemble Barock Vokal
Period: Baroque
Written: 1736; Pozzuoli, Italy

2. Laudate pueri by Giovanni Battista Pergolesi
Performer: Valer Barna-Sabadus (Countertenor), Terry Wey (Countertenor)
Conductor: Michael Hofstetter
Orchestra/Ensemble: Neumeyer Consort, Mainz Ensemble Barock Vokal
Period: Baroque
Written: circa 1732; Naples, Italy

Exact Audio Copy V1.0 beta 3 from 29. August 2011

EAC extraction logfile from 16. July 2012, 18:48

Valer Barna-Sabadus, Terry Wey, Neumeyer Consort & Ensemble Barock Vokal Mainz, Michael Hofstetter / Pergolesi - Stabat Mater & Laudate Pueri Dominum

Used drive : Optiarc DVD RW AD-7203S Adapter: 1 ID: 0

Read mode : Secure
Utilize accurate stream : Yes
Defeat audio cache : Yes
Make use of C2 pointers : No

Read offset correction : 48
Overread into Lead-In and Lead-Out : No
Fill up missing offset samples with silence : Yes
Delete leading and trailing silent blocks : No
Null samples used in CRC calculations : Yes
Used interface : Installed external ASPI interface

Used output format : User Defined Encoder
Selected bitrate : 896 kBit/s
Quality : High
Add ID3 tag : No
Command line compressor : M:\prog\eac-1.0beta3\Flac\flac.exe
Additional command line options : -V -8 %source%


TOC of the extracted CD

Track | Start | Length | Start sector | End sector
––––––––––––––––––––––––––––-
1 | 0:00.00 | 4:33.29 | 0 | 20503
2 | 4:33.29 | 2:02.17 | 20504 | 29670
3 | 6:35.46 | 2:02.12 | 29671 | 38832
4 | 8:37.58 | 1:37.71 | 38833 | 46178
5 | 10:15.54 | 3:01.73 | 46179 | 59826
6 | 13:17.52 | 3:38.01 | 59827 | 76177
7 | 16:55.53 | 2:18.51 | 76178 | 86578
8 | 19:14.29 | 1:57.05 | 86579 | 95358
9 | 21:11.34 | 5:48.33 | 95359 | 121491
10 | 26:59.67 | 4:17.03 | 121492 | 140769
11 | 31:16.70 | 1:55.39 | 140770 | 149433
12 | 33:12.34 | 4:15.04 | 149434 | 168562
13 | 37:27.38 | 2:58.09 | 168563 | 181921
14 | 40:25.47 | 3:30.56 | 181922 | 197727
15 | 43:56.28 | 1:46.65 | 197728 | 205742
16 | 45:43.18 | 2:40.68 | 205743 | 217810
17 | 48:24.11 | 2:26.41 | 217811 | 228801
18 | 50:50.52 | 3:11.18 | 228802 | 243144
19 | 54:01.70 | 2:05.71 | 243145 | 252590


Range status and errors

Selected range

Filename N:\@Results\Pergolesi - Stabat Mater & Laudate Pueri Dominum - Michael Hofstetter.wav

Peak level 98.8 %
Extraction speed 4.1 X
Range quality 100.0 %
Test CRC DBDBB294
Copy CRC DBDBB294
Copy OK

No errors occurred

End of status report

==== Log checksum F92626D4DA9B2DFC8D8724B0187B84B0CD23BAEE52779181FF5AE3E25EB096C5 ====


Thanks to the original releaser

Download:

Filepost

Part 1 | Part 2

Uploaded

Part 1 | Part 2