Subcategories

Pet Shop Boys - Christmas (Single) 2009

Posted By: popsakov
Pet Shop Boys - Christmas (Single) 2009

Pet Shop Boys - Christmas (Single) 2009
EAC | APE, IMG+CUE, LOG | Covers | 174 MB | 3% Recovery
Genre: Pop, Synthypop, Electronic | Label: Parlophone | CDR 6784/50999 308021 2 4

Pet Shop Boys Christmas: a brand new five-track EP. Out on December 14th.
Tracklist:

1. It Doesn’t Often Snow At Christmas (New Version)
2. My Girl
3. All Over The World (New Version)
4. Viva La Vida/Domino Dancing
5. My Girl (Our House Mix)


Exact Audio Copy V0.99 prebeta 5 from 4. May 2009

Отчёт EAC об извлечении, выполненном 9. декабря 2009, 18:11

Pet Shop Boys / Christmas

Дисковод: Optiarc DVD RW AD-7200A Adapter: 0 ID: 0

Режим чтения : Достоверность
Использование точного потока : Да
Отключение кэша аудио : Да
Использование указателей C2 : Нет

Коррекция смещения при чтении : 48
Способность читать области Lead-in и Lead-out : Нет
Заполнение пропущенных сэмплов тишиной : Да
Удаление блоков с тишиной в начале и конце : Нет
При вычислениях CRC использовались нулевые сэмплы : Да
Интерфейс : Встроенный Win32-интерфейс для Win NT/2000

Выходной формат : Внутренние WAV-операции
Формат сэмплов : 44.100 Гц; 16 бит; стерео


TOC извлечённого CD

Трек | Старт | Длительность | Начальный сектор | Конечный сектор
––––––––––––––––––––––––––––––––––-
1 | 0:00.00 | 3:51.57 | 0 | 17381
2 | 3:51.57 | 3:43.04 | 17382 | 34110
3 | 7:34.61 | 3:50.05 | 34111 | 51365
4 | 11:24.66 | 5:33.38 | 51366 | 76378
5 | 16:58.29 | 5:49.52 | 76379 | 102605


Характеристики диапазона извлечения и сообщения об ошибках

Выбранный диапазон

Имя файла C:\Users\Al Bundy\Desktop\Pet Shop Boys-Christmas-2009\Pet Shop Boys - Christmas.wav

Пиковый уровень 99.9 %
Качество диапазона 99.9 %
CRC копии 8E5AC18E
Копирование… OK

Ошибок не произошло

Конец отчёта

Pet Shop Boys - Christmas (Single) 2009

Pet Shop Boys - Christmas (Single) 2009

Pet Shop Boys - Christmas (Single) 2009

Pet Shop Boys - Christmas (Single) 2009


Rapidshare:
part 1
part 2

Depositfiles:
part 1
part 2

Hotfile:
part 1
part 2

Turbobit:
part 1
part 2