Subcategories

Pete Namlook & Charles Uzzell-Edwards - Create 1-2 (1994-1996) (Repost)

Posted By: gribovar
Pete Namlook & Charles Uzzell-Edwards - Create 1-2 (1994-1996) (Repost)

Pete Namlook & Charles Uzzell-Edwards - Create 1-2 (1994-1996)
EAC Rip | FLAC (image+.cue+log) - 674 MB | MP3 CBR 320 kbps (LAME 3.93) - 323 MB | Covers - 53 MB
Genre: Electronic, Ambient | RAR 3% Rec. | Label: Fax +49-69/450464

Create (1994). Create is the second of the four collaborations between Namlook and Charles Uzzell-Edwards. It is one of those long, single-track Fax albums, conveniently indexed every five minutes or so. It starts out in a rather dark and sinister fashion, with a lot of rumbling and some extremely distorted voices just about audible in the background. It continues this way for the next fifteen minutes or so with various other clicks and static interference washing in and out of the of the left and right channels. By the time the fourth track rolls around the beginnings of some more atmospheric drones start to make themselves felt and we slowly drift off into deep space territory of the kind found on Shades of Orion 2. The transition is gradual with the darker voices slowly being overtaken by deeper and more atmospheric string sounds. From here on the listener can just let go, let their mind wander and slowly be carried along with the music. Towards the end of track 5 some echoing percussion bobs in and out of the mix for a couple of minutes until out of nowhere a huge hissing hi-hat cymbal makes its entrance just in case you were beginning to drop off. The cymbal scythes its way in and out of the strings for the next half hour or so, sometimes it drops away all together as Pete increases the intensity of the cosmic pads and our journey into outer space dips in another direction. Or sometimes they converge in a glowing mix of sound. Overall this is a really nice album that whilst not particularly challenging is a very pleasant ride nonetheless.

Pete Namlook & Charles Uzzell-Edwards - Create 1-2 (1994-1996) (Repost)

Pete Namlook & Charles Uzzell-Edwards - Create (1994)
EAC Rip | FLAC (image+.cue+log) - 385 MB | MP3 CBR 320 kbps (LAME 3.93) - 172 MB | Covers - 26 MB
Genre: Electronic, Ambient | RAR 3% Rec. | Label: Fax +49-69/450464 (PW 15)

Tracklist:
01-15. Macro Pt. 1-15

Total time: 01:13:02

Exact Audio Copy V0.99 prebeta 5 from 4. May 2009

EAC extraction logfile from 28. March 2010, 1:24

Pete Namlook & Charles Uzzell-Edwards / Create

Used drive : ASUS CRW-4816A Adapter: 2 ID: 1

Read mode : Secure
Utilize accurate stream : Yes
Defeat audio cache : Yes
Make use of C2 pointers : No

Read offset correction : 12
Overread into Lead-In and Lead-Out : No
Fill up missing offset samples with silence : Yes
Delete leading and trailing silent blocks : No
Null samples used in CRC calculations : Yes
Used interface : Installed external ASPI interface

Used output format : User Defined Encoder
Selected bitrate : 1024 kBit/s
Quality : High
Add ID3 tag : No
Command line compressor : C:\Program Files\Exact Audio Copy\FLAC\FLAC.EXE
Additional command line options : -8 -V -T "ARTIST=%a" -T "ALBUM=%g" -T "DATE=%y" -T "GENRE=%m" %s -o %d


TOC of the extracted CD

Track | Start | Length | Start sector | End sector
––––––––––––––––––––––––––––-
1 | 0:00.30 | 5:01.34 | 30 | 22638
2 | 5:01.64 | 5:00.03 | 22639 | 45141
3 | 10:01.67 | 4:59.73 | 45142 | 67639
4 | 15:01.65 | 5:00.48 | 67640 | 90187
5 | 20:02.38 | 4:59.18 | 90188 | 112630
6 | 25:01.56 | 5:00.57 | 112631 | 135187
7 | 30:02.38 | 4:59.28 | 135188 | 157640
8 | 35:01.66 | 5:00.48 | 157641 | 180188
9 | 40:02.39 | 4:59.28 | 180189 | 202641
10 | 45:01.67 | 5:00.52 | 202642 | 225193
11 | 50:02.44 | 4:59.20 | 225194 | 247638
12 | 55:01.64 | 4:59.72 | 247639 | 270135
13 | 60:01.61 | 5:00.03 | 270136 | 292638
14 | 65:01.64 | 7:53.36 | 292639 | 328149
15 | 72:55.25 | 0:06.49 | 328150 | 328648


Range status and errors

Selected range

Filename J:\temp\nnm\Pete Namlook & Charles Uzzell-Edwards - Create.wav

Peak level 99.3 %
Range quality 100.0 %
Test CRC D42F3841
Copy CRC D42F3841
Copy OK

No errors occurred


AccurateRip summary

Track 1 accurately ripped (confidence 2) [5F109A08]
Track 2 accurately ripped (confidence 2) [84F9B1AC]
Track 3 accurately ripped (confidence 2) [503EC61F]
Track 4 accurately ripped (confidence 2) [3F2A83D0]
Track 5 accurately ripped (confidence 2) [F4042D09]
Track 6 accurately ripped (confidence 2) [7C12961C]
Track 7 accurately ripped (confidence 2) [67DF55F1]
Track 8 accurately ripped (confidence 2) [AA1B4AA2]
Track 9 accurately ripped (confidence 2) [252E14D5]
Track 10 accurately ripped (confidence 2) [5AAF1F49]
Track 11 accurately ripped (confidence 2) [F34DA297]
Track 12 accurately ripped (confidence 2) [C5F0E859]
Track 13 accurately ripped (confidence 2) [39535D46]
Track 14 accurately ripped (confidence 2) [E278BAF0]
Track 15 not present in database

14 track(s) accurately ripped
1 track(s) not present in the AccurateRip database

Some tracks could not be verified as accurate

End of status report

[CUETools log; Date: 01.03.2017 15:46:56; Version: 2.1.4]
Pregap length 00:00:30.
[CTDB TOCID: xE_Rf45BcrJIevHqigiSdIusMoQ-] found.
Track | CTDB Status
1 | (7/7) Accurately ripped
2 | (7/7) Accurately ripped
3 | (7/7) Accurately ripped
4 | (7/7) Accurately ripped
5 | (7/7) Accurately ripped
6 | (7/7) Accurately ripped
7 | (7/7) Accurately ripped
8 | (7/7) Accurately ripped
9 | (7/7) Accurately ripped
10 | (7/7) Accurately ripped
11 | (7/7) Accurately ripped
12 | (7/7) Accurately ripped
13 | (7/7) Accurately ripped
14 | (7/7) Accurately ripped
15 | (7/7) Accurately ripped
[AccurateRip ID: 00294ba1-01d40377-96111d0f] found.
Track [ CRC | V2 ] Status
01 [5f109a08|e906e7e4] (5+2/7) Accurately ripped
02 [84f9b1ac|6238f4c6] (6+2/8) Accurately ripped
03 [503ec61f|ef489c2c] (6+2/8) Accurately ripped
04 [3f2a83d0|fe8dfc44] (6+2/8) Accurately ripped
05 [f4042d09|e3c05cee] (6+2/8) Accurately ripped
06 [7c12961c|6d09adc3] (6+2/8) Accurately ripped
07 [67df55f1|39a78d18] (6+2/8) Accurately ripped
08 [aa1b4aa2|11b3f625] (6+2/8) Accurately ripped
09 [252e14d5|ccf41458] (6+2/8) Accurately ripped
10 [5aaf1f49|4c7b51d6] (6+2/8) Accurately ripped
11 [f34da297|7eb44075] (6+2/8) Accurately ripped
12 [c5f0e859|c1c98036] (6+2/8) Accurately ripped
13 [39535d46|3ce4dddf] (6+2/8) Accurately ripped
14 [e278baf0|afb4793a] (6+2/8) Accurately ripped
15 [00000000|00000000] (0+0/0) Silent track

Track Peak [ CRC32 ] [W/O NULL] [ LOG ]
– 99,3 [D42F3841] [BF292EBA] CRC32
01 28,4 [2F3F29F7] [5F0795EE]
02 35,1 [7521784A] [67FD342E]
03 35,1 [FF77807D] [044B0EC1]
04 36,0 [E5669976] [B22D25C4]
05 64,0 [32E5FABE] [B666D5D8]
06 68,2 [D6FF5500] [03A05623]
07 62,7 [4591BCDC] [AB44FD90]
08 99,3 [7D630202] [24FEE715]
09 87,2 [A8B37B96] [E7200896]
10 40,6 [62A9AD14] [7A59E2F0]
11 49,6 [44EE437B] [0F030D34]
12 69,9 [C88D9571] [B536F13C]
13 67,5 [87492B58] [22AE362F]
14 27,2 [7DC7FE1B] [3190A608]
15 0,0 [ADAA83E8] [00000000]

Pete Namlook & Charles Uzzell-Edwards - Create 1-2 (1994-1996) (Repost)

Pete Namlook & Charles Uzzell-Edwards - Create 2 (1996)
EAC Rip | FLAC (image+.cue+log) - 289 MB | MP3 CBR 320 kbps (LAME 3.93) - 151 MB | Covers - 27 MB
Genre: Electronic, Ambient | RAR 3% Rec. | Label: Fax +49-69/450464 (PW 26)

Tracklist:
01. Environmental San Francisco I
02. Siddhartha
03. OM
04. Environmental San Francisco II

Total time: 01:04:23

Exact Audio Copy V0.99 prebeta 5 from 4. May 2009

EAC extraction logfile from 22. August 2009, 16:19

Pete Namlook & Charles Uzzell-Edwards / Create 2

Used drive : ASUS CRW-4816A Adapter: 3 ID: 1

Read mode : Secure
Utilize accurate stream : Yes
Defeat audio cache : Yes
Make use of C2 pointers : No

Read offset correction : 12
Overread into Lead-In and Lead-Out : No
Fill up missing offset samples with silence : Yes
Delete leading and trailing silent blocks : No
Null samples used in CRC calculations : Yes
Used interface : Installed external ASPI interface

Used output format : User Defined Encoder
Selected bitrate : 1024 kBit/s
Quality : High
Add ID3 tag : No
Command line compressor : C:\Program Files\Exact Audio Copy\Flac\flac.exe
Additional command line options : -8 -V -T "ARTIST=%a" -T "ALBUM=%g" -T "DATE=%y" -T "GENRE=%m" %s -o %d


TOC of the extracted CD

Track | Start | Length | Start sector | End sector
––––––––––––––––––––––––––––-
1 | 0:00.00 | 21:10.25 | 0 | 95274
2 | 21:10.25 | 11:26.09 | 95275 | 146733
3 | 32:36.34 | 20:54.01 | 146734 | 240784
4 | 53:30.35 | 10:52.12 | 240785 | 289696


Range status and errors

Selected range

Filename F:\temp\nnm\Pete Namlook & Charles Uzzell-Edwards - Create 2.wav

Peak level 100.0 %
Range quality 100.0 %
Test CRC 52EEEE93
Copy CRC 52EEEE93
Copy OK

No errors occurred


AccurateRip summary

Track 1 not present in database
Track 2 not present in database
Track 3 not present in database
Track 4 not present in database

None of the tracks are present in the AccurateRip database

End of status report

[CUETools log; Date: 01.03.2017 15:47:12; Version: 2.1.4]
[CTDB TOCID: ieyIwAYkj8WD3IaNnW0EpReUmaA-] found.
Track | CTDB Status
1 | (7/7) Accurately ripped
2 | (7/7) Accurately ripped
3 | (7/7) Accurately ripped
4 | (7/7) Accurately ripped
[AccurateRip ID: 000bc98b-002e6c4a-2d0f1604] found.
Track [ CRC | V2 ] Status
01 [9d9c806d|8cb5bf68] (2+3/5) Accurately ripped
02 [bec295f7|9e3ed193] (2+3/5) Accurately ripped
03 [b14792bd|e143280e] (2+3/5) Accurately ripped
04 [eecc5503|800c9ce7] (2+3/5) Accurately ripped

Track Peak [ CRC32 ] [W/O NULL] [ LOG ]
– 100,0 [52EEEE93] [78873C44] CRC32
01 100,0 [DBBA564A] [1B47D115]
02 74,5 [D9BACFD0] [CB3EE201]
03 100,0 [2F66F907] [3555B209]
04 71,4 [D4D2410D] [A7DCE399]

Thanks to _ok

See also:
Pete Namlook - Air I-V (1993-2006)
Pete Namlook & Tetsu Inoue - Shades Of Orion 1-3 (1993-1996)
Pete Namlook & Tetsu Inoue - 2350 Broadway 1-4 (1993-2007)
Pete Namlook & Dr. Atmo - Silence I-V (1992-2001)
Pete Namlook & Mixmaster Morris - Dreamfish 1-2 (1993-1995)