Subcategories

Pete Namlook & Gaudi - Re:sonate (2006)

Posted By: gribovar
Pete Namlook & Gaudi - Re:sonate (2006)

Pete Namlook & Gaudi - Re:sonate (2006)
EAC Rip | FLAC (image+.cue+log) - 324 MB | MP3 CBR 320 kbps (LAME 3.93) - 132 MB | Covers - 28 MB
Genre: Downtempo, Ambient | RAR 3% Rec. | Label: Fax +49-69/450464 (PW 49)

Melodic, meandering synths, thick bass, live down tempo drums and percussion - Re:sonate brings together the smooth analog mastery of Pete Namlook and the dubby, exploratory 'home grown' sounds of Gaudi. The result is one with an ambient aesthetic veering off on a truly unique tangent. Repetition of the dominant patterns on Re:sonate creates a hypnotic familiarity, different layers dropping in and out, echoing congas, various peripheral effects enlivening the surface.
Tracklist:
01. The 7th Spirit
02. NAFK
03. The Sun Won't Set

Total time: 56:15

Exact Audio Copy V0.99 prebeta 5 from 4. May 2009

EAC extraction logfile from 16. August 2009, 2:08

Pete Namlook & Gaudi / Re:sonate

Used drive : ASUS CRW-4816A Adapter: 3 ID: 1

Read mode : Secure
Utilize accurate stream : Yes
Defeat audio cache : Yes
Make use of C2 pointers : No

Read offset correction : 12
Overread into Lead-In and Lead-Out : No
Fill up missing offset samples with silence : Yes
Delete leading and trailing silent blocks : No
Null samples used in CRC calculations : Yes
Used interface : Installed external ASPI interface

Used output format : User Defined Encoder
Selected bitrate : 1024 kBit/s
Quality : High
Add ID3 tag : No
Command line compressor : C:\Program Files\Exact Audio Copy\Flac\flac.exe
Additional command line options : -8 -V -T "ARTIST=%a" -T "ALBUM=%g" -T "DATE=%y" -T "GENRE=%m" %s -o %d


TOC of the extracted CD

Track | Start | Length | Start sector | End sector
––––––––––––––––––––––––––––-
1 | 0:00.00 | 17:24.13 | 0 | 78312
2 | 17:24.13 | 22:51.45 | 78313 | 181182
3 | 40:15.58 | 15:58.69 | 181183 | 253101


Range status and errors

Selected range

Filename F:\temp\nnm\Pete Namlook & Gaudi - Re sonate.wav

Peak level 99.3 %
Range quality 100.0 %
Test CRC F372194E
Copy CRC F372194E
Copy OK

No errors occurred


AccurateRip summary

Track 1 accurately ripped (confidence 1) [CF274DC6]
Track 2 accurately ripped (confidence 1) [A0193E70]
Track 3 cannot be verified as accurate (confidence 1) [1636BD2D], AccurateRip returned [184E33B4]

2 track(s) accurately ripped
1 track(s) could not be verified as accurate

Some tracks could not be verified as accurate

End of status report

[CUETools log; Date: 12.01.2014 12:38:03; Version: 2.0.9]
[CTDB TOCID: jkx6LJRMomUSB1fSRsJ.qQYf6Mk-] found.
[ CTDBID ] Status
[61931804] (3/3) Accurately ripped
[AccurateRip ID: 0007d256-001a21c8-1b0d2e03] found.
Track [ CRC ] Status
01 [cf274dc6] (4/4) Accurately ripped
02 [a0193e70] (4/4) Accurately ripped
03 [1636bd2d] (3/3) Accurately ripped

Track Peak [ CRC32 ] [W/O NULL] [ LOG ]
– 99,3 [F372194E] [34372441] CRC32
01 98,9 [64298446] [2DF77407]
02 99,3 [1BFF788C] [40F1ED54]
03 98,8 [893B506F] [8529A5B2]

Thanks to _ok

More Fax +49-69/450464 releases from my blog:
Fax +49-69/450464
LOSSLESS:

Filepost.com
_______________

MP3 320 kbps:

Filepost.com
_______________

Covers:

Filepost.com