Subcategories

Peter Gabriel: Albums Collection (1977 - 2002) [Japanese Pressing] Re-up

Posted By: v3122
Peter Gabriel: Albums Collection (1977 - 2002) [Japanese Pressing] Re-up

Peter Gabriel: Albums Collection (1977 - 2002)
EAC | Flac(Image) + Cue + Log & MP3 CBR 320Kbps
10CD | Toshiba / EMI | ~ 2991 or 1194 Mb | Scans(jpg, 600dpi) -> 760 Mb
Progressive Rock

~ 7 Remasterd + 2 Original Albums on 10CDs. Japanese Pressing ~

Peter Gabriel: Albums Collection (1977 - 2002) [Japanese Pressing] Re-up

CD01: Peter Gabriel - Peter Gabriel 1 (Car) (1977)
EAC | Flac(Image) + Cue + Log & MP3 CBR 320Kbps
2003 | Toshiba-EMI, VJCP-68521 | ~ 260 or 105 Mb | Scans(jpg, 600dpi) -> 77 Mb
Progressive Rock | Remastered

Peter Gabriel tells why he left Genesis in "Solsbury Hill," the key track on his 1977 solo debut. Majestically opening with an acoustic guitar, the song finds Gabriel's talents gelling, as the words and music feed off each other, turning into true poetry. It stands out dramatically on this record, not because the music doesn't work, but because it brilliantly illustrates why Gabriel had to fly on his own. Though this is undeniably the work of the same man behind The Lamb Lies Down on Broadway, he's turned his artiness inward, making his music coiled, dense, vibrant. There is still some excess, naturally, yet it's the sound of a musician unleashed, finally able to bend the rules as he wishes. That means there are less atmospheric instrumental sections than there were on his last few records with Genesis, as the unhinged bizarreness in the arrangements, compositions, and productions, in tracks such as the opener "Moribund the Burgermeister" vividly illustrate. He also has turned sleeker, sexier, capable of turning out a surging rocker like "Modern Love." If there is any problem with Peter Gabriel, it's that Gabriel is trying too hard to show the range of his talents, thereby stumbling occasionally with the doo wop-to-cabaret "Excuse Me" or the cocktail jazz of "Waiting for the Big One" (or, the lyric "you've got me cookin'/I'm a hard-boiled egg" on "Humdrum"). Still, much of the record teems with invigorating energy (as on "Slowburn," or the orchestral-disco pulse of "Down the Dolce Vita"), and the closer "Here Comes the Flood" burns with an anthemic intensity that would later become his signature in the '80s. Yes, it's an imperfect album, but that's a byproduct of Gabriel's welcome risk-taking – the very thing that makes the album work, overall.

by Stephen Thomas Erlewine, AMG
Tracklist:

01. Moribund The Burgermeister 4:20
02. Solsbury Hill 4:22
03. Modern Love 3:38
04. Excuse Me 3:20
05. Humdrum 3:25
06. Slowburn 4:36
07. Waiting For The Big One 7:16
08. Down The Dolce Vita 5:06
09. Here Comes The Flood 5:39

Exact Audio Copy V1.0 beta 3 from 29. August 2011

EAC extraction logfile from 16. January 2014, 15:59

Peter Gabriel / Peter Gabriel 1 (Car) (VJCP-68521)

Used drive : PLEXTOR DVDR PX-891SA Adapter: 3 ID: 0

Read mode : Secure
Utilize accurate stream : Yes
Defeat audio cache : Yes
Make use of C2 pointers : No

Read offset correction : 6
Overread into Lead-In and Lead-Out : No
Fill up missing offset samples with silence : Yes
Delete leading and trailing silent blocks : No
Null samples used in CRC calculations : Yes
Used interface : Native Win32 interface for Win NT & 2000

Used output format : User Defined Encoder
Selected bitrate : 1024 kBit/s
Quality : High
Add ID3 tag : No
Command line compressor : C:\Program Files\Exact Audio Copy\Flac\flac.exe
Additional command line options : -V -8 -T "Genre=%genre%" -T "Artist=%artist%" -T "Title=%title%" -T "Album=%albumtitle%" -T "Date=%year%" -T "Tracknumber=%tracknr%" -T "Comment=%comment%" %source%


TOC of the extracted CD

Track | Start | Length | Start sector | End sector
––––––––––––––––––––––––––––-
1 | 0:00.00 | 4:20.11 | 0 | 19510
2 | 4:20.11 | 4:21.42 | 19511 | 39127
3 | 8:41.53 | 3:38.37 | 39128 | 55514
4 | 12:20.15 | 3:20.24 | 55515 | 70538
5 | 15:40.39 | 3:25.34 | 70539 | 85947
6 | 19:05.73 | 4:36.32 | 85948 | 106679
7 | 23:42.30 | 7:15.46 | 106680 | 139350
8 | 30:58.01 | 5:05.58 | 139351 | 162283
9 | 36:03.59 | 5:39.00 | 162284 | 187708


Range status and errors

Selected range

Filename H:\dafnaplus\Peter Gabriel - Peter Gabriel 1\Peter Gabriel - Peter Gabriel 1 (Car) (VJCP-68521).wav

Peak level 99.4 %
Extraction speed 8.2 X
Range quality 100.0 %
Test CRC A631DFFF
Copy CRC A631DFFF
Copy OK

No errors occurred


AccurateRip summary

Track 1 accurately ripped (confidence 2) [1CDB36FD] (AR v2)
Track 2 accurately ripped (confidence 2) [AC925626] (AR v2)
Track 3 accurately ripped (confidence 2) [CDA8D9F7] (AR v2)
Track 4 accurately ripped (confidence 2) [43039DD3] (AR v2)
Track 5 accurately ripped (confidence 2) [D3F1BC9F] (AR v2)
Track 6 accurately ripped (confidence 2) [50FECD93] (AR v2)
Track 7 accurately ripped (confidence 2) [C64FF139] (AR v2)
Track 8 accurately ripped (confidence 2) [EB362449] (AR v2)
Track 9 accurately ripped (confidence 2) [7DA25A42] (AR v2)

All tracks accurately ripped

End of status report

–––––––––-

Peter Gabriel: Albums Collection (1977 - 2002) [Japanese Pressing] Re-up

CD02: Peter Gabriel - Peter Gabriel 2 (Scratch) (1978) Repost
EAC | Flac(Image) + Cue + Log & MP3 CBR 320Kbps
2007 | EMI, VJCP-68846 | ~ 276 or 105 Mb | Scans(jpg, 600dpi) -> 60 Mb
Progressive Rock | Remastered

The pairing sounds ideal – the former front man of Genesis, as produced by the leading light of King Crimson. Unfortunately, Peter Gabriel's second album (like his first, eponymous) fails to meet those grandiose expectations, even though it seems to at first. "On the Air" and "D.I.Y." are stunning slices of modern rock circa 1978, bubbling with synths, insistent rhythms, and polished processed guitars, all enclosed in a streamlined production that nevertheless sounds as large as a stadium. Then, things begin to drift, at first in a pleasant way ("A Wonderful Day in a One-Way World" is surprisingly nimble), but by the end, it all seems a little formless. It's not that the music is overly challenging – it's that the record is unfocused. There are great moments scattered throughout the record, yet it never captivates, either through intoxicating, messy creativity (as he did on his debut) or through cohesion (the way the third Peter Gabriel album, two years later, would). Certain songs work well on their own – not just the opening numbers, but the mini-epic "White Shadow," the tight "Animal Magic," the tense yet catchy "Perspective," the reflective closer "Home Sweet Home" – yet for all the tracks that work, they never work well together. Ironically, it holds together a bit better than its predecessor, yet it never reaches the brilliant heights of that record. In short, it's a transitional effort that's well worth the time of serious listeners, even it's still somewhat unsatisfying.

by Stephen Thomas Erlewine, AMG
Tracklist:

01. On The Air 5:34
02. D.I.Y. 2:35
03. Mother Of Violence 3:26
04. A Wonderful Day In A One-Way World 3:36
05. White Shadow 5:19
06. Indigo 3:33
07. Animal Magic 3:29
08. Exposure 4:18
09. Flotsam And Jetsam 2:23
10. Perspective 3:29
11. Home Sweet Home 4:42

Exact Audio Copy V1.0 beta 3 from 29. August 2011

EAC extraction logfile from 16. January 2014, 15:25

Peter Gabriel / Peter Gabriel 2 (Scratch) (VJCP-68846)

Used drive : PLEXTOR DVDR PX-891SA Adapter: 3 ID: 0

Read mode : Secure
Utilize accurate stream : Yes
Defeat audio cache : Yes
Make use of C2 pointers : No

Read offset correction : 6
Overread into Lead-In and Lead-Out : No
Fill up missing offset samples with silence : Yes
Delete leading and trailing silent blocks : No
Null samples used in CRC calculations : Yes
Used interface : Native Win32 interface for Win NT & 2000

Used output format : User Defined Encoder
Selected bitrate : 1024 kBit/s
Quality : High
Add ID3 tag : No
Command line compressor : C:\Program Files\Exact Audio Copy\Flac\flac.exe
Additional command line options : -V -8 -T "Genre=%genre%" -T "Artist=%artist%" -T "Title=%title%" -T "Album=%albumtitle%" -T "Date=%year%" -T "Tracknumber=%tracknr%" -T "Comment=%comment%" %source%


TOC of the extracted CD

Track | Start | Length | Start sector | End sector
––––––––––––––––––––––––––––-
1 | 0:00.00 | 5:33.65 | 0 | 25039
2 | 5:33.65 | 2:34.68 | 25040 | 36657
3 | 8:08.58 | 3:26.18 | 36658 | 52125
4 | 11:35.01 | 3:36.02 | 52126 | 68327
5 | 15:11.03 | 5:19.17 | 68328 | 92269
6 | 20:30.20 | 3:32.70 | 92270 | 108239
7 | 24:03.15 | 3:29.33 | 108240 | 123947
8 | 27:32.48 | 4:18.03 | 123948 | 143300
9 | 31:50.51 | 2:22.39 | 143301 | 153989
10 | 34:13.15 | 3:29.25 | 153990 | 169689
11 | 37:42.40 | 4:42.03 | 169690 | 190842


Range status and errors

Selected range

Filename H:\dafnaplus\Peter Gabriel - Peter Gabriel 2\Peter Gabriel - Peter Gabriel 2 (Scratch) (VJCP-68846).wav

Peak level 99.5 %
Extraction speed 8.2 X
Range quality 100.0 %
Test CRC EC722806
Copy CRC EC722806
Copy OK

No errors occurred


AccurateRip summary

Track 1 accurately ripped (confidence 5) [3A41B3AE] (AR v1)
Track 2 accurately ripped (confidence 5) [2FD2A0E0] (AR v1)
Track 3 accurately ripped (confidence 5) [E157F85B] (AR v1)
Track 4 accurately ripped (confidence 5) [7505C90E] (AR v1)
Track 5 accurately ripped (confidence 5) [5B8FA4C3] (AR v1)
Track 6 accurately ripped (confidence 5) [20C1F66A] (AR v1)
Track 7 accurately ripped (confidence 5) [BCAB98B1] (AR v1)
Track 8 accurately ripped (confidence 5) [8D620234] (AR v1)
Track 9 accurately ripped (confidence 5) [B6C3C5CD] (AR v1)
Track 10 accurately ripped (confidence 5) [B4B55C17] (AR v1)
Track 11 accurately ripped (confidence 5) [97CB20DA] (AR v1)

All tracks accurately ripped

End of status report

–––––––––-

Peter Gabriel: Albums Collection (1977 - 2002) [Japanese Pressing] Re-up

CD03: Peter Gabriel - Peter Gabriel 3 (Melt) (1980)
EAC | Flac(Image) + Cue + Log & MP3 CBR 320Kbps
2007 | EMI, VJCP-68847 | ~ 264 or 107 Mb | Scans(jpg, 600dpi) -> 54 Mb
Progressive Rock | Remastered

Generally regarded as Peter Gabriel's finest record, his third eponymous album finds him coming into his own, crafting an album that's artier, stronger, more song-oriented than before. Consider its ominous opener, the controlled menace of "Intruder." He's never found such a scary sound, yet it's a sexy scare, one that is undeniably alluring, and he keeps this going throughout the record. For an album so popular, it's remarkably bleak, chilly, and dark – even radio favorites like "I Don't Remember" and "Games Without Frontiers" are hardly cheerful, spiked with paranoia and suspicion, insulated in introspection. For the first time, Gabriel has found the sound to match his themes, plus the songs to articulate his themes. Each aspect of the album works, feeding off each other, creating a romantically gloomy, appealingly arty masterpiece. It's the kind of record where you remember the details in the production as much as the hooks or the songs, which isn't to say that it's all surface – it's just that the surface means as much as the songs, since it articulates the emotions as well as Gabriel's cubist lyrics and impassioned voice. He wound up having albums that sold more, or generated bigger hits, but this third Peter Gabriel album remains his masterpiece.

by Stephen Thomas Erlewine, AMG
Tracklist:

01. Intruder 4:54
02. No Self Control 3:56
03. Start 1:21
04. I Don't Remember 4:42
05. Family Snapshot 4:29
06. And Through the Wire 5:01
07. Games Without Frontiers 4:07
08. Not One of Us 5:22
09. Lead a Normal Life 4:15
10. Biko 7:33

Exact Audio Copy V1.0 beta 3 from 29. August 2011

EAC extraction logfile from 16. January 2014, 15:44

Peter Gabriel / Peter Gabriel 3 (Melt) (VJCP-68847)

Used drive : PLEXTOR DVDR PX-891SA Adapter: 3 ID: 0

Read mode : Secure
Utilize accurate stream : Yes
Defeat audio cache : Yes
Make use of C2 pointers : No

Read offset correction : 6
Overread into Lead-In and Lead-Out : No
Fill up missing offset samples with silence : Yes
Delete leading and trailing silent blocks : No
Null samples used in CRC calculations : Yes
Used interface : Native Win32 interface for Win NT & 2000

Used output format : User Defined Encoder
Selected bitrate : 1024 kBit/s
Quality : High
Add ID3 tag : No
Command line compressor : C:\Program Files\Exact Audio Copy\Flac\flac.exe
Additional command line options : -V -8 -T "Genre=%genre%" -T "Artist=%artist%" -T "Title=%title%" -T "Album=%albumtitle%" -T "Date=%year%" -T "Tracknumber=%tracknr%" -T "Comment=%comment%" %source%


TOC of the extracted CD

Track | Start | Length | Start sector | End sector
––––––––––––––––––––––––––––-
1 | 0:00.00 | 4:54.31 | 0 | 22080
2 | 4:54.31 | 3:55.54 | 22081 | 39759
3 | 8:50.10 | 1:20.57 | 39760 | 45816
4 | 10:10.67 | 4:42.10 | 45817 | 66976
5 | 14:53.02 | 4:28.53 | 66977 | 87129
6 | 19:21.55 | 5:00.48 | 87130 | 109677
7 | 24:22.28 | 4:06.50 | 109678 | 128177
8 | 28:29.03 | 5:21.74 | 128178 | 152326
9 | 33:51.02 | 4:15.06 | 152327 | 171457
10 | 38:06.08 | 7:33.00 | 171458 | 205432


Range status and errors

Selected range

Filename H:\dafnaplus\Peter Gabriel - Peter Gabriel 3\Peter Gabriel - Peter Gabriel 3 (Melt) (VJCP-68847).wav

Peak level 99.5 %
Extraction speed 8.4 X
Range quality 100.0 %
Test CRC E44BB5C1
Copy CRC E44BB5C1
Copy OK

No errors occurred


AccurateRip summary

Track 1 accurately ripped (confidence 4) [125770C7] (AR v1)
Track 2 accurately ripped (confidence 4) [54EEDA77] (AR v1)
Track 3 accurately ripped (confidence 4) [4AA596B7] (AR v1)
Track 4 accurately ripped (confidence 4) [7198DC32] (AR v1)
Track 5 accurately ripped (confidence 4) [BBEB83C0] (AR v1)
Track 6 accurately ripped (confidence 4) [C5B8789F] (AR v1)
Track 7 accurately ripped (confidence 4) [A6196493] (AR v1)
Track 8 accurately ripped (confidence 4) [374A7C74] (AR v1)
Track 9 accurately ripped (confidence 4) [5D492B7A] (AR v1)
Track 10 accurately ripped (confidence 4) [BB0EDDE1] (AR v1)

All tracks accurately ripped

End of status report

–––––––––-

Peter Gabriel: Albums Collection (1977 - 2002) [Japanese Pressing] Re-up

CD04: Peter Gabriel - Peter Gabriel 4 (Security) (1982)
EAC | Flac(Image) + Cue + Log & MP3 CBR 320Kbps
2003 | Toshiba-EMI VJCP-68524 | ~ 259 or 109 Mb | Scans(jpg, 600dpi) -> 78 Mb
Progressive Rock | Remastered

Security – which was titled Peter Gabriel everywhere outside of the U.S. – continues where the third Gabriel album left off, sharing some of the same dense production and sense of cohesion, yet lightening the atmosphere and expanding the sonic palette somewhat. The gloom that permeates the third album has been alleviated and while this is still decidedly somber and serious music, it has a brighter feel, partially derived from Gabriel's dabbling in African and Latin rhythms. These are generally used as tonal coloring, enhancing the synthesizers that form the basic musical bed of the record, since much of this is mood music (for want of a better word). Security flows easily and enticingly, with certain songs – the eerie "San Jacinto," "I Have the Touch," "Shock the Monkey" – arising from the wash of sound. That's not to say that the rest of the album is bland easy listening – it's designed this way, to have certain songs deliver greater impact than the rest. As such, it demands close attention to appreciate tone poems like "The Family and the Fishing Net," "Lay Your Hands on Me," and "Wallflower" – and not all of them reward such intensive listening. Even with its faults, Security remains a powerful listen, one of the better records in Gabriel's catalog, proving that he is becoming a master of tone, style, and substance, and how each part of the record enhances the other.

by Stephen Thomas Erlewine, AMG
Tracklist:

01. The Rhythm Of The Heat 5:19
02. San Jacinto 6:34
03. I Have The Touch 4:36
04. The Family And The Fishing Net 7:08
05. Shock The Monkey 5:28
06. Lay Your Hands On Me 6:10
07. Wallflower 6:38
08. Kiss Of Life 4:18

Exact Audio Copy V1.0 beta 3 from 29. August 2011

EAC extraction logfile from 16. January 2014, 16:19

Peter Gabriel / Peter Gabriel 4 (Security) (VJCP-68524)

Used drive : PLEXTOR DVDR PX-891SA Adapter: 3 ID: 0

Read mode : Secure
Utilize accurate stream : Yes
Defeat audio cache : Yes
Make use of C2 pointers : No

Read offset correction : 6
Overread into Lead-In and Lead-Out : No
Fill up missing offset samples with silence : Yes
Delete leading and trailing silent blocks : No
Null samples used in CRC calculations : Yes
Used interface : Native Win32 interface for Win NT & 2000

Used output format : User Defined Encoder
Selected bitrate : 1024 kBit/s
Quality : High
Add ID3 tag : No
Command line compressor : C:\Program Files\Exact Audio Copy\Flac\flac.exe
Additional command line options : -V -8 -T "Genre=%genre%" -T "Artist=%artist%" -T "Title=%title%" -T "Album=%albumtitle%" -T "Date=%year%" -T "Tracknumber=%tracknr%" -T "Comment=%comment%" %source%


TOC of the extracted CD

Track | Start | Length | Start sector | End sector
––––––––––––––––––––––––––––-
1 | 0:00.00 | 5:19.14 | 0 | 23938
2 | 5:19.14 | 6:34.34 | 23939 | 53522
3 | 11:53.48 | 4:35.60 | 53523 | 74207
4 | 16:29.33 | 7:07.58 | 74208 | 106290
5 | 23:37.16 | 5:28.33 | 106291 | 130923
6 | 29:05.49 | 6:09.38 | 130924 | 158636
7 | 35:15.12 | 6:38.14 | 158637 | 188500
8 | 41:53.26 | 4:18.02 | 188501 | 207852


Range status and errors

Selected range

Filename H:\dafnaplus\Peter Gabriel - Peter Gabriel 4\Peter Gabriel - Peter Gabriel 4 (Security) (VJCP-68524).wav

Peak level 99.4 %
Extraction speed 8.4 X
Range quality 100.0 %
Test CRC 5FBA8460
Copy CRC 5FBA8460
Copy OK

No errors occurred


AccurateRip summary

Track 1 accurately ripped (confidence 3) [3445A68D] (AR v1)
Track 2 accurately ripped (confidence 4) [8A29C3CD] (AR v1)
Track 3 accurately ripped (confidence 4) [91180A7A] (AR v1)
Track 4 accurately ripped (confidence 4) [6572BB32] (AR v1)
Track 5 accurately ripped (confidence 4) [CDADCED4] (AR v1)
Track 6 accurately ripped (confidence 4) [1D87B2DB] (AR v1)
Track 7 accurately ripped (confidence 3) [70F28184] (AR v1)
Track 8 accurately ripped (confidence 4) [66CB9C22] (AR v1)

All tracks accurately ripped

End of status report

–––––––––-

Peter Gabriel: Albums Collection (1977 - 2002) [Japanese Pressing] Re-up

CD05: Peter Gabriel - Plays Live: Highlights (1983)
EAC | Flac(Image) + Cue + Log & MP3 CBR 320Kbps
2003 | Toshiba-EMI, VJCP-68525 | ~ 416 or 158 Mb | Scans(jpg, 600dpi) -> 85 Mb
Progressive Rock | Remastered

Although he had thrived on live performance as a member of Genesis, Peter Gabriel waited until he was four albums and six years deep into his solo career – with the hit album Security and the Top 40 "Shock the Monkey" chalked up to his credit – before he took the plunge into concert recording with this album. Released as a double-LP and two-CD set (but also later in a single CD "highlights" edition, missing four songs), this is a fine summing up of the artist's early solo years. Most of his biggest hits and key album tracks are represented in tight, inspired performances – the notes concede that some of what is here was sweetened after the fact in the studio, but the immediacy of the stage performances wasn't lost in the process, and that emotional edge and intimacy give songs such as "Solsbury Hill," "I Don't Remember," and "Shock the Monkey" a sharper, deeper resonance than their studio renditions, fine as those are. It's that side of the performance that makes this release well worth owning, for anyone enamored of Gabriel's voice or songs, even if nothing here wholly supplants the studio originals. And the band – Tony Levin (bass, stick, backing vocals), Jerry Marotta (drums, vocals), David Rhodes (guitar, vocals), and Larry Fast (keyboards) – is in excellent form as well. What is lacking is the cohesiveness that one might have gotten from a live album assembled from a single concert; derived from a multitude of shows, the individual songs are excellent unto themselves, but there's little sense (or even the illusion) from song to song of any forward momentum across the album, and that might be the one major flaw here. But this is a suitable capstone to the first phase of Gabriel's solo career, and also a peculiar one in certain respects – given the effort that obviously went into assembling the album, the packaging is almost minimalist by the standards of live albums and double albums of the era (the LP version even put both platters into a single sleeve).

by Bruce Eder, AMG
Tracklist:

01. I Have The Touch 4:47
02. Family Snapshot 4:47
03. D.I.Y. 4:06
04. The Family And The Fishing Net 7:38
05. I Go Swimming 4:54
06. San Jacinto 8:20
07. Solsbury Hill 4:42
08. No Self-Control 5:04
09. I Don't Remember 4:12
10. Shock The Monkey 7:11
11. Humdrum 4:21
12. Biko 6:56

Exact Audio Copy V1.0 beta 3 from 29. August 2011

EAC extraction logfile from 16. January 2014, 22:00

Peter Gabriel / Plays Live: Highlights (VJCP-68525)

Used drive : PLEXTOR DVDR PX-891SA Adapter: 3 ID: 0

Read mode : Secure
Utilize accurate stream : Yes
Defeat audio cache : Yes
Make use of C2 pointers : No

Read offset correction : 6
Overread into Lead-In and Lead-Out : No
Fill up missing offset samples with silence : Yes
Delete leading and trailing silent blocks : No
Null samples used in CRC calculations : Yes
Used interface : Native Win32 interface for Win NT & 2000

Used output format : User Defined Encoder
Selected bitrate : 1024 kBit/s
Quality : High
Add ID3 tag : No
Command line compressor : C:\Program Files\Exact Audio Copy\Flac\flac.exe
Additional command line options : -V -8 -T "Genre=%genre%" -T "Artist=%artist%" -T "Title=%title%" -T "Album=%albumtitle%" -T "Date=%year%" -T "Tracknumber=%tracknr%" -T "Comment=%comment%" %source%


TOC of the extracted CD

Track | Start | Length | Start sector | End sector
––––––––––––––––––––––––––––-
1 | 0:00.00 | 4:47.17 | 0 | 21541
2 | 4:47.17 | 4:47.10 | 21542 | 43076
3 | 9:34.27 | 4:05.65 | 43077 | 61516
4 | 13:40.17 | 7:38.30 | 61517 | 95896
5 | 21:18.47 | 4:54.00 | 95897 | 117946
6 | 26:12.47 | 8:19.70 | 117947 | 155441
7 | 34:32.42 | 4:42.00 | 155442 | 176591
8 | 39:14.42 | 5:03.63 | 176592 | 199379
9 | 44:18.30 | 4:12.10 | 199380 | 218289
10 | 48:30.40 | 7:11.12 | 218290 | 250626
11 | 55:41.52 | 4:20.45 | 250627 | 270171
12 | 60:02.22 | 6:55.58 | 270172 | 301354


Range status and errors

Selected range

Filename H:\dafnaplus\PG\Peter Gabriel - Plays Live Highlights\Peter Gabriel - Plays Live- Highlights (VJCP-68525).wav

Peak level 100.0 %
Extraction speed 9.5 X
Range quality 100.0 %
Test CRC 2A77E652
Copy CRC 2A77E652
Copy OK

No errors occurred


AccurateRip summary

Track 1 not present in database
Track 2 not present in database
Track 3 not present in database
Track 4 not present in database
Track 5 not present in database
Track 6 not present in database
Track 7 not present in database
Track 8 not present in database
Track 9 not present in database
Track 10 not present in database
Track 11 not present in database
Track 12 not present in database

None of the tracks are present in the AccurateRip database

End of status report

–––––––––-

Peter Gabriel: Albums Collection (1977 - 2002) [Japanese Pressing] Re-up

CD06: Peter Gabriel - So (1986)
EAC | Flac(Image) + Cue + Log & MP3 CBR 320Kbps
2006 | EMI TOCP-53821 | ~ 298 or 109 Mb | Scans(jpg, 600dpi) -> 72 Mb
Progressive Rock | Remastered

Peter Gabriel introduced his fifth studio album, So, with "Sledgehammer," an Otis Redding-inspired soul-pop raver that was easily his catchiest, happiest single to date. Needless to say, it was also his most accessible, and, in that sense it was a good introduction to So, the catchiest, happiest record he ever cut. "Sledgehammer" propelled the record toward blockbuster status, and Gabriel had enough songs with single potential to keep it there. There was "Big Time," another colorful dance number; "Don't Give Up," a moving duet with Kate Bush; "Red Rain," a stately anthem popular on album rock radio; and "In Your Eyes," Gabriel's greatest love song, which achieved genuine classic status after being featured in Cameron Crowe's classic Say Anything. These all illustrated the strengths of the album: Gabriel's increased melodicism and ability to blend African music, jangly pop, and soul into his moody art rock. Apart from these singles, plus the urgent "That Voice Again," the rest of the record is as quiet as the album tracks of Security. The difference is, the singles on that record were part of the overall fabric; here, the singles are the fabric, which can make the album seem top-heavy (a fault of many blockbuster albums, particularly those of the mid-'80s). Even so, those songs are so strong, finding Gabriel in a newfound confidence and accessibility, that it's hard not to be won over by them, even if So doesn't develop the unity of its two predecessors.

by Stephen Thomas Erlewine, AMG
Tracklist:

01. Red Rain 5:40
02. Sledgehammer 5:13
03. Don't Give Up 6:34
04. That Voice Again 4:53
05. Mercy Street 6:22
06. Big Time 4:29
07. We Do What We're Told (Milgram's 37) 3:22
08. This Is The Picture (Excellent Birds) 4:26
09. In Your Eyes 5:30

Exact Audio Copy V1.0 beta 3 from 29. August 2011

EAC extraction logfile from 16. January 2014, 17:04

Peter Gabriel / So (TOCP-53821)

Used drive : PLEXTOR DVDR PX-891SA Adapter: 3 ID: 0

Read mode : Secure
Utilize accurate stream : Yes
Defeat audio cache : Yes
Make use of C2 pointers : No

Read offset correction : 6
Overread into Lead-In and Lead-Out : No
Fill up missing offset samples with silence : Yes
Delete leading and trailing silent blocks : No
Null samples used in CRC calculations : Yes
Used interface : Native Win32 interface for Win NT & 2000

Used output format : User Defined Encoder
Selected bitrate : 1024 kBit/s
Quality : High
Add ID3 tag : No
Command line compressor : C:\Program Files\Exact Audio Copy\Flac\flac.exe
Additional command line options : -V -8 -T "Genre=%genre%" -T "Artist=%artist%" -T "Title=%title%" -T "Album=%albumtitle%" -T "Date=%year%" -T "Tracknumber=%tracknr%" -T "Comment=%comment%" %source%


TOC of the extracted CD

Track | Start | Length | Start sector | End sector
––––––––––––––––––––––––––––-
1 | 0:00.00 | 5:40.28 | 0 | 25527
2 | 5:40.28 | 5:12.52 | 25528 | 48979
3 | 10:53.05 | 6:33.41 | 48980 | 78495
4 | 17:26.46 | 4:53.00 | 78496 | 100470
5 | 22:19.46 | 6:22.35 | 100471 | 129155
6 | 28:42.06 | 4:28.74 | 129156 | 149329
7 | 33:11.05 | 3:22.22 | 149330 | 164501
8 | 36:33.27 | 4:25.40 | 164502 | 184416
9 | 40:58.67 | 5:29.38 | 184417 | 209129


Range status and errors

Selected range

Filename H:\dafnaplus\PG\Peter Gabriel - So\Peter Gabriel - So (TOCP-53821).wav

Peak level 100.0 %
Extraction speed 8.4 X
Range quality 100.0 %
Test CRC B7F9A644
Copy CRC B7F9A644
Copy OK

No errors occurred


AccurateRip summary

Track 1 accurately ripped (confidence 2) [505E77B4] (AR v2)
Track 2 accurately ripped (confidence 2) [FE83DA6C] (AR v2)
Track 3 accurately ripped (confidence 2) [F0DE578B] (AR v2)
Track 4 accurately ripped (confidence 2) [702ABA22] (AR v2)
Track 5 accurately ripped (confidence 2) [0C7DDEC1] (AR v2)
Track 6 accurately ripped (confidence 2) [32E3D268] (AR v2)
Track 7 accurately ripped (confidence 2) [A5CCCB8D] (AR v2)
Track 8 accurately ripped (confidence 2) [ABA2EB52] (AR v2)
Track 9 accurately ripped (confidence 2) [86E7FB49] (AR v2)

All tracks accurately ripped

End of status report

–––––––––-

Peter Gabriel: Albums Collection (1977 - 2002) [Japanese Pressing] Re-up

CD07: Peter Gabriel - Passion (1989)
EAC | Flac(Image) + Cue + Log & MP3 CBR 320Kbps
2003 | Toshiba-EMI, VJCP-68528 | ~ 364 or 158 Mb | Scans(jpg, 600dpi) -> 82 Mb
Progressive Rock | Remastered

Passion is in actuality Peter Gabriel's soundtrack to the Martin Scorsese film The Last Temptation of Christ, retitled as a result of legal barriers; regardless of its name, however, there's no mistaking the record's stirring power. Like much of Gabriel's solo work, the album is a product of his continuing fascination with world music, which he employs here to create an exceptionally beautiful and atmospheric tapestry of sound perfectly evocative of the film's resonant spiritual drama; inspired by field recordings collected in areas as diverse as Turkey, Senegal, and Egypt, Passion achieves a cumulative effect clearly Middle Eastern in origin, yet its brilliant fusion of ancient and modern musics ultimately transcends both geography and time. Remarkably dramatic, even visual, it is not only Gabriel's best film work but deserving of serious consideration as his finest music of any kind; equally worthwhile is Passion – Sources, which assembles the original native recordings which served as his creative launching pad.

by Jason Ankeny, AMG
Tracklist:

01. The Feeling Begins 4:01
02. Gethsemane 1:25
03. Of These, Hope 3:56
04. Lazarus Raised 1:25
05. Of These, Hope - Reprise 2:44
06. In Doubt 1:32
07. A Different Drum 4:41
08. Zaar 4:53
09. Troubled 2:54
10. Open 3:30
11. Before Night Falls 2:20
12. With This Love 3:39
13. Sandstorm 3:02
14. Stigmata 2:28
15. Passion 7:39
16. With This Love - Choir 3:21
17. Wall of Breath 2:29
18. The Promise of Shadows 2:11
19. Disturbed 3:38
20. It Is Accomplished 2:55
21. Bread And Wine 2:21

Exact Audio Copy V1.0 beta 3 from 29. August 2011

EAC extraction logfile from 16. January 2014, 20:19

Peter Gabriel / Passion (VJCP-68528)

Used drive : PLEXTOR DVDR PX-891SA Adapter: 3 ID: 0

Read mode : Secure
Utilize accurate stream : Yes
Defeat audio cache : Yes
Make use of C2 pointers : No

Read offset correction : 6
Overread into Lead-In and Lead-Out : No
Fill up missing offset samples with silence : Yes
Delete leading and trailing silent blocks : No
Null samples used in CRC calculations : Yes
Used interface : Native Win32 interface for Win NT & 2000

Used output format : User Defined Encoder
Selected bitrate : 1024 kBit/s
Quality : High
Add ID3 tag : No
Command line compressor : C:\Program Files\Exact Audio Copy\Flac\flac.exe
Additional command line options : -V -8 -T "Genre=%genre%" -T "Artist=%artist%" -T "Title=%title%" -T "Album=%albumtitle%" -T "Date=%year%" -T "Tracknumber=%tracknr%" -T "Comment=%comment%" %source%


TOC of the extracted CD

Track | Start | Length | Start sector | End sector
––––––––––––––––––––––––––––-
1 | 0:00.00 | 4:00.69 | 0 | 18068
2 | 4:00.69 | 1:24.69 | 18069 | 24437
3 | 5:25.63 | 3:56.01 | 24438 | 42138
4 | 9:21.64 | 1:25.27 | 42139 | 48540
5 | 10:47.16 | 2:44.35 | 48541 | 60875
6 | 13:31.51 | 1:31.73 | 60876 | 67773
7 | 15:03.49 | 4:40.62 | 67774 | 88835
8 | 19:44.36 | 4:52.43 | 88836 | 110778
9 | 24:37.04 | 2:54.10 | 110779 | 123838
10 | 27:31.14 | 3:29.53 | 123839 | 139566
11 | 31:00.67 | 2:20.05 | 139567 | 150071
12 | 33:20.72 | 3:38.41 | 150072 | 166462
13 | 36:59.38 | 3:02.04 | 166463 | 180116
14 | 40:01.42 | 2:28.29 | 180117 | 191245
15 | 42:29.71 | 7:38.57 | 191246 | 225652
16 | 50:08.53 | 3:21.04 | 225653 | 240731
17 | 53:29.57 | 2:28.62 | 240732 | 251893
18 | 55:58.44 | 2:11.21 | 251894 | 261739
19 | 58:09.65 | 3:37.48 | 261740 | 278062
20 | 61:47.38 | 2:55.28 | 278063 | 291215
21 | 64:42.66 | 2:21.33 | 291216 | 301823


Range status and errors

Selected range

Filename H:\dafnaplus\PG\Peter Gabriel - Passion\Peter Gabriel - Passion (VJCP-68528).wav

Peak level 100.0 %
Extraction speed 9.5 X
Range quality 100.0 %
Test CRC 8B0DBF06
Copy CRC 8B0DBF06
Copy OK

No errors occurred


AccurateRip summary

Track 1 cannot be verified as accurate (confidence 70) [999CB4F7], AccurateRip returned [1004AE9F] (AR v2)
Track 2 cannot be verified as accurate (confidence 70) [1AB426E4], AccurateRip returned [EF455B46] (AR v2)
Track 3 cannot be verified as accurate (confidence 71) [9F35D1E6], AccurateRip returned [A36A42F4] (AR v2)
Track 4 cannot be verified as accurate (confidence 70) [92C84A2B], AccurateRip returned [9FC9B306] (AR v2)
Track 5 cannot be verified as accurate (confidence 69) [37C3BCDD], AccurateRip returned [096D82F6] (AR v2)
Track 6 cannot be verified as accurate (confidence 69) [F1E02466], AccurateRip returned [C6964D5F] (AR v2)
Track 7 cannot be verified as accurate (confidence 70) [F3A90DB9], AccurateRip returned [54C5F2C6] (AR v2)
Track 8 cannot be verified as accurate (confidence 70) [DE9C1D42], AccurateRip returned [B5886B95] (AR v2)
Track 9 cannot be verified as accurate (confidence 69) [2176FE25], AccurateRip returned [55EA0B45] (AR v2)
Track 10 cannot be verified as accurate (confidence 70) [5C8EDE75], AccurateRip returned [6D4D050A] (AR v2)
Track 11 cannot be verified as accurate (confidence 70) [7C8BF350], AccurateRip returned [ACB562CD] (AR v2)
Track 12 cannot be verified as accurate (confidence 70) [2E0EC959], AccurateRip returned [FF3903EE] (AR v2)
Track 13 cannot be verified as accurate (confidence 69) [A2439330], AccurateRip returned [DDBD2F31] (AR v2)
Track 14 cannot be verified as accurate (confidence 67) [DC59551C], AccurateRip returned [72233740] (AR v2)
Track 15 cannot be verified as accurate (confidence 70) [D848CC53], AccurateRip returned [EB0B9CFD] (AR v2)
Track 16 cannot be verified as accurate (confidence 72) [C5DC3FB0], AccurateRip returned [CA6520A6] (AR v2)
Track 17 cannot be verified as accurate (confidence 71) [E690D185], AccurateRip returned [509A91FE] (AR v2)
Track 18 cannot be verified as accurate (confidence 71) [9B3271C3], AccurateRip returned [D76F6555] (AR v2)
Track 19 cannot be verified as accurate (confidence 70) [1C8AF0CC], AccurateRip returned [4C7B48E5] (AR v2)
Track 20 cannot be verified as accurate (confidence 70) [ADB0C6C6], AccurateRip returned [7118B6EE] (AR v2)
Track 21 cannot be verified as accurate (confidence 68) [6C35DCAE], AccurateRip returned [D3C4518D] (AR v2)

No tracks could be verified as accurate
You may have a different pressing from the one(s) in the database

End of status report

–––––––––-

Peter Gabriel: Albums Collection (1977 - 2002) [Japanese Pressing] Re-up

CD08: Peter Gabriel - OVO (2000)
EAC | Flac(Image) + Cue + Log & MP3 CBR 320Kbps
Toshiba-EMI, VJCP-68231 | ~ 353 or 146 Mb | Scans(jpg, 600dpi) -> 139 Mb
Progressive Rock

In 1997, Peter Gabriel was asked to pilot a visual project for London's Millennium Dome. OVO is a work based on the intersecting problems of race relations, environmental concerns, family issues, and fairy tales as allegories, violence, and more. And keep in mind that this was to be a visual piece. Gabriel, to meet the challenge for CD, added a ton of multimedia to the musical soundtrack: there is a drawn storybook, The Story of OVO, a view of the installation itself from every angle, and many stopgap notes, drawings, and the like. For the soundtrack, he enlisted the help of collaborators such as Elizabeth Fraser, Neneh Cherry (whatever happened to her third record, the one she did with Tricky?), Richie Havens, the Black Dyke Mills Band, the Electra Strings, Paul Buchanan (of Blue Nile), Adzido, the Dhol Foundation drummers, and Iarla Ó Lionáird from the Afro-Celt Sound System. Needless to say, the music is all over the map, from a rap version of the "Story of Ovo" to an Irish jig to Gabriel's percussive culture plundering soundscapes and new songs (including a truly dull rework of "Digging in the Dirt") to Eno-like ambiences to folk songs and new songs with Havens and Ó Lionáird singing like the opposite ends of a heavenly choir and Liz Fraser soaring over the Dhol Foundation drummers. It sounds awesome doesn't it? It should be. But it's not. OVO sounds labored, choppy, and pasted together, like it is the soundtrack to a visual installation, and feels incomplete without it. This is not a project like Passion was or even Birdy; it's a pastiche that attempts to be as ambitious as the installation project. And it is ambitious. Unfortunately, musically it isn't consistent enough to sustain the listener's interest for the entire length of the recording. It is a curious project with moments, but is most likely for hardcore fans only.

by Thom Jurek, AMG
Tracklist:

01. The Story Of OVO 5:22
02. Low Light 6:38
03. The Time Of The Turning 5:06
04. The Hand That Sold Shadows 4:15
05. The Weavers Reel 5:37
06. Father, Son 4:56
07. The Tower That Ate People 4:50
08. Revenge 1:30
09. White Ashes 2:35
10. Downside-Up 6:03
11. The Nest That Sailed The Sky 5:07
12. Make Tomorrow 10:03

Exact Audio Copy V1.0 beta 3 from 29. August 2011

EAC extraction logfile from 16. January 2014, 21:38

Peter Gabriel / OVO (VJCP-68231)

Used drive : PLEXTOR DVDR PX-891SA Adapter: 3 ID: 0

Read mode : Secure
Utilize accurate stream : Yes
Defeat audio cache : Yes
Make use of C2 pointers : No

Read offset correction : 6
Overread into Lead-In and Lead-Out : No
Fill up missing offset samples with silence : Yes
Delete leading and trailing silent blocks : No
Null samples used in CRC calculations : Yes
Used interface : Native Win32 interface for Win NT & 2000

Used output format : User Defined Encoder
Selected bitrate : 1024 kBit/s
Quality : High
Add ID3 tag : No
Command line compressor : C:\Program Files\Exact Audio Copy\Flac\flac.exe
Additional command line options : -V -8 -T "Genre=%genre%" -T "Artist=%artist%" -T "Title=%title%" -T "Album=%albumtitle%" -T "Date=%year%" -T "Tracknumber=%tracknr%" -T "Comment=%comment%" %source%


TOC of the extracted CD

Track | Start | Length | Start sector | End sector
––––––––––––––––––––––––––––-
1 | 0:00.00 | 5:21.50 | 0 | 24124
2 | 5:21.50 | 6:37.50 | 24125 | 53949
3 | 11:59.25 | 5:05.67 | 53950 | 76891
4 | 17:05.17 | 4:14.68 | 76892 | 96009
5 | 21:20.10 | 5:37.10 | 96010 | 121294
6 | 26:57.20 | 4:55.67 | 121295 | 143486
7 | 31:53.12 | 4:49.38 | 143487 | 165199
8 | 36:42.50 | 1:30.00 | 165200 | 171949
9 | 38:12.50 | 2:34.55 | 171950 | 183554
10 | 40:47.30 | 6:03.27 | 183555 | 210806
11 | 46:50.57 | 5:06.73 | 210807 | 233829
12 | 51:57.55 | 10:02.70 | 233830 | 279049
13 | 64:32.50 | 9:51.52 | 290450 | 334826


Range status and errors

Selected range

Filename H:\dafnaplus\PG\Peter Gabriel - OVO\Peter Gabriel - OVO (VJCP-68231).wav

Peak level 99.9 %
Extraction speed 9.7 X
Range quality 100.0 %
Test CRC 6ECBE309
Copy CRC 6ECBE309
Copy OK

No errors occurred


AccurateRip summary

Track 1 accurately ripped (confidence 2) [3262951E] (AR v2)
Track 2 accurately ripped (confidence 2) [DDE530E1] (AR v2)
Track 3 accurately ripped (confidence 2) [F520F6E7] (AR v2)
Track 4 accurately ripped (confidence 2) [E338DD85] (AR v2)
Track 5 accurately ripped (confidence 2) [D63E35A3] (AR v2)
Track 6 accurately ripped (confidence 2) [82F24D08] (AR v2)
Track 7 accurately ripped (confidence 2) [F66E7942] (AR v2)
Track 8 accurately ripped (confidence 2) [A400863B] (AR v2)
Track 9 accurately ripped (confidence 2) [645B3848] (AR v2)
Track 10 accurately ripped (confidence 2) [7670C1F8] (AR v2)
Track 11 accurately ripped (confidence 2) [30230021] (AR v2)
Track 12 accurately ripped (confidence 2) [3CEBC862] (AR v2)

All tracks accurately ripped

End of status report

–––––––––-

Peter Gabriel: Albums Collection (1977 - 2002) [Japanese Pressing] Re-up

CD09-10: Peter Gabriel - Up (2002)
EAC | Flac(Image) + Cue + Log & MP3 CBR 320Kbps
2CD | Toshiba-EMI, VJCP-68450-51 | ~ 501 or 197 Mb | Scans(jpg, 600dpi) -> 113 Mb
Progressive Rock

Ten years is a long time, especially in pop music, but waiting ten years to deliver an album is a clear sign that you're not all that interested in the pop game anyway. Such is the case with Peter Gabriel, who delivered Up in 2002, a decade after Us and four years after he announced its title. Perhaps appropriately, Up sounds like an album that was ten years in the making, revealing not just its pleasures but its intent very, very slowly. This is not an accessible record, nor is it easy to warm up to, which means that many may dismiss it upon a single listen or two, never giving it the time it demands in order to be understood (it does not help matters that the one attempt at a single is the ham-fisted, wrong-headed trash-TV "satire" "The Barry Williams Show," which feels utterly forced and out of place here, as if Geffen was pleading for anything resembling a single to add to the album). Really, there is no other choice for an artist as somber and ambitious as Gabriel to craft an album as dense as Up; those who have waited diligently for ten years would be disappointed with anything less and, frankly, they're the only audience that matters after a decade. And they're not likely to be disappointed, since this album grows stronger, revealing more with each listen. Initially, it seems to simply carry on the calmer, darker recesses of Us, but this is an uncompromising affair, which is to its advantage, since Gabriel delves deeper into darkness, grief, and meditation. It may take a while for him to emerge from the darkness – there is little of the comfort of a "Come Talk to Me" or "Blood of Eden," which are immediately soothing on Us – but there are glimmers of hope throughout the album, even in its darkest moments. Again, it takes awhile to sort all this out – to unlock the form of the songs, then their meanings – and it's such a somber, hushed, insular affair that some dedicated listeners may not bother to spin it the appropriate number of times. But those serious fans who want to spend time with this will find that it does pay back many rewards.

by Stephen Thomas Erlewine, AMG
Tracklist CD1:

01. Darkness 6:52
02. Growing Up 7:34
03. Sky Blue 6:38
04. No Way Out 7:54
05. I Grieve 7:25
06. The Barry Williams Show 7:16
07. My Head Sounds Like That 6:29
08. More Than This 6:02
09. Signal To Noise 7:36
10. The Drop 3:00

Exact Audio Copy V1.0 beta 3 from 29. August 2011

EAC extraction logfile from 16. January 2014, 22:53

Peter Gabriel / Up (Disc 1) (VJCP-68450)

Used drive : PLEXTOR DVDR PX-891SA Adapter: 3 ID: 0

Read mode : Secure
Utilize accurate stream : Yes
Defeat audio cache : Yes
Make use of C2 pointers : No

Read offset correction : 6
Overread into Lead-In and Lead-Out : No
Fill up missing offset samples with silence : Yes
Delete leading and trailing silent blocks : No
Null samples used in CRC calculations : Yes
Used interface : Native Win32 interface for Win NT & 2000

Used output format : User Defined Encoder
Selected bitrate : 1024 kBit/s
Quality : High
Add ID3 tag : No
Command line compressor : C:\Program Files\Exact Audio Copy\Flac\flac.exe
Additional command line options : -V -8 -T "Genre=%genre%" -T "Artist=%artist%" -T "Title=%title%" -T "Album=%albumtitle%" -T "Date=%year%" -T "Tracknumber=%tracknr%" -T "Comment=%comment%" %source%


TOC of the extracted CD

Track | Start | Length | Start sector | End sector
––––––––––––––––––––––––––––-
1 | 0:00.00 | 6:51.57 | 0 | 30881
2 | 6:51.57 | 7:33.40 | 30882 | 64896
3 | 14:25.22 | 6:37.48 | 64897 | 94719
4 | 21:02.70 | 7:53.50 | 94720 | 130244
5 | 28:56.45 | 7:24.45 | 130245 | 163589
6 | 36:21.15 | 7:16.32 | 163590 | 196321
7 | 43:37.47 | 6:28.53 | 196322 | 225474
8 | 50:06.25 | 6:02.30 | 225475 | 252654
9 | 56:08.55 | 7:36.10 | 252655 | 286864
10 | 63:44.65 | 2:59.57 | 286865 | 300346
11 | 69:16.47 | 0:54.56 | 311747 | 315852


Range status and errors

Selected range

Filename H:\dafnaplus\PG\Peter Gabriel - Up\Disc 1\Peter Gabriel - Up (Disc 1) (VJCP-68450).wav

Peak level 100.0 %
Extraction speed 3.7 X
Range quality 100.0 %
Test CRC 3AF5FEE4
Copy CRC 3AF5FEE4
Copy OK

No errors occurred


AccurateRip summary

Track 1 accurately ripped (confidence 7) [F1526F05] (AR v2)
Track 2 accurately ripped (confidence 7) [E0406A63] (AR v2)
Track 3 accurately ripped (confidence 7) [93CED6BC] (AR v2)
Track 4 accurately ripped (confidence 7) [7F68C371] (AR v2)
Track 5 accurately ripped (confidence 7) [2CD0DA2D] (AR v2)
Track 6 accurately ripped (confidence 7) [1BF3BF55] (AR v2)
Track 7 accurately ripped (confidence 7) [4458DEA7] (AR v2)
Track 8 accurately ripped (confidence 7) [D1E9BD52] (AR v2)
Track 9 accurately ripped (confidence 7) [3806011F] (AR v2)
Track 10 accurately ripped (confidence 7) [198745A6] (AR v2)

All tracks accurately ripped

End of status report

Tracklist CD2:

01. The Barry Williams Show (Unadulterated Radio Edit) 4:44
02. My Head Sounds Like That (Royksopp Remix) 8:22
03. Cloudless (Radio Edit) 4:08

Exact Audio Copy V1.0 beta 3 from 29. August 2011

EAC extraction logfile from 17. January 2014, 23:12

Peter Gabriel / Up (Disc 2) (VJCP-68451)

Used drive : PLEXTOR DVDR PX-891SA Adapter: 3 ID: 0

Read mode : Secure
Utilize accurate stream : Yes
Defeat audio cache : Yes
Make use of C2 pointers : No

Read offset correction : 6
Overread into Lead-In and Lead-Out : No
Fill up missing offset samples with silence : Yes
Delete leading and trailing silent blocks : No
Null samples used in CRC calculations : Yes
Used interface : Native Win32 interface for Win NT & 2000

Used output format : User Defined Encoder
Selected bitrate : 1024 kBit/s
Quality : High
Add ID3 tag : No
Command line compressor : C:\Program Files\Exact Audio Copy\Flac\flac.exe
Additional command line options : -V -8 -T "Genre=%genre%" -T "Artist=%artist%" -T "Title=%title%" -T "Album=%albumtitle%" -T "Date=%year%" -T "Tracknumber=%tracknr%" -T "Comment=%comment%" %source%


TOC of the extracted CD

Track | Start | Length | Start sector | End sector
––––––––––––––––––––––––––––-
1 | 0:00.00 | 4:44.05 | 0 | 21304
2 | 4:44.05 | 8:22.36 | 21305 | 58990
3 | 13:06.41 | 4:08.23 | 58991 | 77613


Range status and errors

Selected range

Filename H:\dafnaplus\1977 - 2002 Peter Gabriel\2002 Up\Disc 2\Peter Gabriel - Up (Disc 2) (VJCP-68451).wav

Peak level 99.4 %
Extraction speed 6.5 X
Range quality 99.9 %
Test CRC B573A87D
Copy CRC B573A87D
Copy OK

No errors occurred


AccurateRip summary

Track 1 accurately ripped (confidence 5) [CB62E00A] (AR v2)
Track 2 accurately ripped (confidence 5) [192EDAB3] (AR v2)
Track 3 accurately ripped (confidence 5) [580DEAD6] (AR v2)

All tracks accurately ripped

End of status report

All thanks go to dafnaplus

Peter Gabriel in my Blog

Download Peter Gabriel: Albums Collection (1977 - 2002) [Japanese Pressing]: