Subcategories

Peter Gabriel - More Than This (2002)

Posted By: Oksana_m
Peter Gabriel - More Than This (2002)

Peter Gabriel - More Than This (2002)
EAC | Flac(Image) + Cue + Log > 95 Mb | Mp3 CBR 320Kpbs > 35 Mb
Prog Rock, Electronica | TT - 14:47 | Label: Virgin/Realworld | Cat. # PGSCD 14 | EU
Scans (Jpg) > 18 Mb | NitroFlare, FileFactory

More Than This will not jump out at you from Gabriel's latest CD, Up. It will, however, grow on you unlike any other. The last time I felt this way about a single track–like it, but can't put my finger exactly on what it is that compels me to listen to it over and over again–was in the mid-'80s when In Your Eyes was released as part of the CD So.
Yes, folks, it's that good.
More Than This will more than likely receive the same level of appreciation and admiration as In Your Eyes.
Listen to it. Then listen to it again. Then again. Once more. See if it doesn't grow on you. More telling, see if you don't find yourself humming a part of the melody unconsciously.

By William L. Wilson, amazon.com

*********


Peter Gabriel - More Than This (2002)

Tracklist:

1. More Than This (Radio Edit) 4:30
2. More Than This (The Polyphonic Spree Mix) 5:06
3. More Than This (Elbow Mix) 5:03

Exact Audio Copy V1.0 beta 3 from 29. August 2011

EAC extraction logfile from 6. January 2012, 14:32

Peter Gabriel / More Than This (Single)

Used drive : MATSHITABD-MLT UJ240ES Adapter: 0 ID: 1

Read mode : Secure
Utilize accurate stream : Yes
Defeat audio cache : Yes
Make use of C2 pointers : No

Read offset correction : 103
Overread into Lead-In and Lead-Out : No
Fill up missing offset samples with silence : Yes
Delete leading and trailing silent blocks : No
Null samples used in CRC calculations : Yes
Used interface : Native Win32 interface for Win NT & 2000

Used output format : User Defined Encoder
Selected bitrate : 768 kBit/s
Quality : High
Add ID3 tag : No
Command line compressor : C:\Program Files (x86)\Exact Audio Copy\FLAC\FLAC.EXE
Additional command line options : -V -8 %source%


TOC of the extracted CD

Track | Start | Length | Start sector | End sector
––––––––––––––––––––––––––––-
1 | 0:00.00 | 4:33.61 | 0 | 20535
2 | 4:33.61 | 5:08.17 | 20536 | 43652
3 | 9:42.03 | 5:05.31 | 43653 | 66558


Range status and errors

Selected range

Filename C:\Peter Gabriel - More Than This (CDS) - 2032 - [Virgin, PGSCD 14]\Peter Gabriel - More Than This (Single).wav

Peak level 100.0 %
Extraction speed 3.1 X
Range quality 99.9 %
Test CRC 72A5D94B
Copy CRC 72A5D94B
Copy OK

No errors occurred


AccurateRip summary

Track 1 accurately ripped (confidence 6) [E1F6F4C5] (AR v1)
Track 2 accurately ripped (confidence 7) [E807CF3F] (AR v1)
Track 3 accurately ripped (confidence 8) [C2060561] (AR v1)

All tracks accurately ripped

End of status report

==== Log checksum A15678D52F871B2A35C36A63038BF3DA6C86720CBF2A71EDB2B63B31271D80C2 ====

foobar2000 1.2.9 / Dynamic Range Meter 1.1.1
log date: 2016-11-02 09:39:49

––––––––––––––––––––––––––––––––––––––––
Analyzed: Peter Gabriel / More Than This (Single)
––––––––––––––––––––––––––––––––––––––––

DR Peak RMS Duration Track
––––––––––––––––––––––––––––––––––––––––
DR7 -0.01 dB -9.80 dB 4:34 01-More Than This (Radio Edit mixed by Tchad Blake)
DR5 0.00 dB -7.94 dB 5:08 02-More Than This (The Polyphonic Spree Mix)
DR8 -0.05 dB -9.29 dB 5:05 03-More Than This (Elbow Mix)
––––––––––––––––––––––––––––––––––––––––

Number of tracks: 3
Official DR value: DR6

Samplerate: 44100 Hz
Channels: 2
Bits per sample: 16
Bitrate: 877 kbps
Codec: FLAC

Peter Gabriel - More Than This (2002)

All thanks go to original releaser Olaf der Weisse