Subcategories

Peter Gabriel - The Barry Williams Show

Posted By: Oksana_m
Peter Gabriel - The Barry Williams Show

Pink Floyd - One Slip (1987)
EAC | Flac(Image) + Cue + Log > Mb | Mp3 CBR 320Kpbs > Mb
Prog Rock, Classic Rock | TT - 18:44 | Label: | Cat. # | UK
Scans (Jpg) Included | NitroFlare, FileJoker

The first single from Up is a strange one. The lyrics are dated (about the evils of exploitative talk shows), and the vocals are a bit stilted, but the music is cool and funky. The radio edit does a good job of tightening it up, though. Then there's the b-sides: the instrumental "Cloudless" from the "Rabbit-Proof Fence" soundtrack, which is lovely and expands the sound of Peter's "Sky Blue." And there's Royksopp's remix of "My Head Sounds Like That," which is a fantastic drum-and-bass piece! I loved the dark introspection of Up, but maybe Peter should borrow a bit from the boys of Royksopp on his next album and look into the depth and energy of breakbeat and drum-and-bass.

by djlanda, rateyourmusic.com

*********


Peter Gabriel - The Barry Williams Show

Tracklist:

1. The Barry Williams Show (Unadulterated Radio Edit) 4:44
2. The Barry Williams Show (Album Version) 7:18
3. My Head Sounds Like That (Remix By Röyksopp) 8:22
4. Cloudless (Radio Edit) 4:08

Exact Audio Copy V1.0 beta 3 from 29. August 2011

EAC extraction logfile from 6. January 2012, 14:53

Peter Gabriel / The Barry Williams Show (Single)

Used drive : MATSHITABD-MLT UJ240ES Adapter: 0 ID: 1

Read mode : Secure
Utilize accurate stream : Yes
Defeat audio cache : Yes
Make use of C2 pointers : No

Read offset correction : 103
Overread into Lead-In and Lead-Out : No
Fill up missing offset samples with silence : Yes
Delete leading and trailing silent blocks : No
Null samples used in CRC calculations : Yes
Used interface : Native Win32 interface for Win NT & 2000

Used output format : User Defined Encoder
Selected bitrate : 768 kBit/s
Quality : High
Add ID3 tag : No
Command line compressor : C:\Program Files (x86)\Exact Audio Copy\FLAC\FLAC.EXE
Additional command line options : -V -8 %source%


TOC of the extracted CD

Track | Start | Length | Start sector | End sector
––––––––––––––––––––––––––––-
1 | 0:00.00 | 4:44.07 | 0 | 21306
2 | 4:44.07 | 7:18.10 | 21307 | 54166
3 | 12:02.17 | 8:22.36 | 54167 | 91852
4 | 20:24.53 | 4:08.21 | 91853 | 110473


Range status and errors

Selected range

Filename C:\Peter Gabriel - The Barry Williams Show (CDS) - 2002 - [Virgin, PGSCD 13]\Peter Gabriel - The Barry Williams Show (Single).wav

Peak level 99.4 %
Extraction speed 3.5 X
Range quality 100.0 %
Test CRC A63AE8B6
Copy CRC A63AE8B6
Copy OK

No errors occurred


AccurateRip summary

Track 1 accurately ripped (confidence 2) [9E01D40D] (AR v2)
Track 2 accurately ripped (confidence 2) [19004DBF] (AR v2)
Track 3 accurately ripped (confidence 2) [E3E4D051] (AR v2)
Track 4 accurately ripped (confidence 2) [DD64A4A9] (AR v2)

All tracks accurately ripped

End of status report

==== Log checksum C71F24D833080B75F48C736FDB96CCD24215E3DF6D5A0879CBA7C9923F9B1FF5 ====

foobar2000 1.2.9 / Dynamic Range Meter 1.1.1
log date: 2016-11-02 09:39:31

––––––––––––––––––––––––––––––––––––––––
Analyzed: Peter Gabriel / The Barry Williams Show (Single)
––––––––––––––––––––––––––––––––––––––––

DR Peak RMS Duration Track
––––––––––––––––––––––––––––––––––––––––
DR7 -0.05 dB -8.91 dB 4:44 01-The Barry Williams Show (Unadulterated Radio Edit)
DR6 -0.05 dB -8.64 dB 7:18 02-The Barry Williams Show (Album Version)
DR9 -0.05 dB -11.95 dB 8:22 03-My Head Sounds Like That (Remix by Royskopp)
DR9 -0.65 dB -11.76 dB 4:08 04-Cloudless (Radio Edit)
––––––––––––––––––––––––––––––––––––––––

Number of tracks: 4
Official DR value: DR8

Samplerate: 44100 Hz
Channels: 2
Bits per sample: 16
Bitrate: 896 kbps
Codec: FLAC

Peter Gabriel - The Barry Williams Show

All thanks go to original releaser