Subcategories
Tags
Language
Tags

Peter Gabriel - Up (2002) Re-Up

Posted By: popsakov
Peter Gabriel - Up (2002) Re-Up

Peter Gabriel - Up (2002)
EAC Rip | FLAC (Img) + Cue + Log ~ 415 Mb | MP3 CBR320 ~ 181 Mb
Full Scans | 01:06:47 | RAR 5% Recovery
Real World Records #PGCD11 / Virgin #7243 813062 08
Art Rock, Progressive Rock

Ten years is a long time, especially in pop music, but waiting ten years to deliver an album is a clear sign that you're not all that interested in the pop game anyway. Such is the case with Peter Gabriel, who delivered Up in 2002, a decade after Us and four years after he announced its title. Perhaps appropriately, Up sounds like an album that was ten years in the making, revealing not just its pleasures but its intent very, very slowly. This is not an accessible record, nor is it easy to warm up to, which means that many may dismiss it upon a single listen or two, never giving it the time it demands in order to be understood (it does not help matters that the one attempt at a single is the ham-fisted, wrong-headed trash-TV "satire" "The Barry Williams Show," which feels utterly forced and out of place here, as if Geffen was pleading for anything resembling a single to add to the album). Really, there is no other choice for an artist as somber and ambitious as Gabriel to craft an album as dense as Up; those who have waited diligently for ten years would be disappointed with anything less and, frankly, they're the only audience that matters after a decade. And they're not likely to be disappointed, since this album grows stronger, revealing more with each listen. Initially, it seems to simply carry on the calmer, darker recesses of Us, but this is an uncompromising affair, which is to its advantage, since Gabriel delves deeper into darkness, grief, and meditation. It may take a while for him to emerge from the darkness – there is little of the comfort of a "Come Talk to Me" or "Blood of Eden," which are immediately soothing on Us – but there are glimmers of hope throughout the album, even in its darkest moments. Again, it takes awhile to sort all this out – to unlock the form of the songs, then their meanings – and it's such a somber, hushed, insular affair that some dedicated listeners may not bother to spin it the appropriate number of times. But those serious fans who want to spend time with this will find that it does pay back many rewards.

~ Stephen Thomas Erlewine, All Music

***************

Peter Gabriel - Up (2002) Re-Up

Track List:

01. Darkness [0:06:51.69]
02. Growing Up [0:07:33.28]
03. Sky Blue [0:06:37.66]
04. No Way Out [0:07:53.50]
05. I Grieve [0:07:24.46]
06. The Barry Williams Show [0:07:16.00]
07. My Head Sounds Like That [0:06:29.08]
08. More Than This [0:06:02.02]
09. Signal To Noise [0:07:36.38]
10. The Drop [0:03:01.34]

Exact Audio Copy V1.3 from 2. September 2016

EAC extraction logfile from 16. April 2019, 16:21

Peter Gabriel / Up [PGCD11]

Used drive : HL-DT-STBD-RE BH10LS38 Adapter: 1 ID: 0

Read mode : Secure
Utilize accurate stream : Yes
Defeat audio cache : Yes
Make use of C2 pointers : No

Read offset correction : 667
Overread into Lead-In and Lead-Out : No
Fill up missing offset samples with silence : Yes
Delete leading and trailing silent blocks : No
Null samples used in CRC calculations : Yes
Used interface : Native Win32 interface for Win NT & 2000

Used output format : User Defined Encoder
Selected bitrate : 128 kBit/s
Quality : High
Add ID3 tag : No
Command line compressor : C:\Program Files (x86)\Exact Audio Copy\Flac\flac.exe
Additional command line options : -V -8 -T "Date=%year%" -T "Genre=%genre%" %source%


TOC of the extracted CD

Track | Start | Length | Start sector | End sector
––––––––––––––––––––––––––––-
1 | 0:00.00 | 6:51.69 | 0 | 30893
2 | 6:51.69 | 7:33.28 | 30894 | 64896
3 | 14:25.22 | 6:37.66 | 64897 | 94737
4 | 21:03.13 | 7:53.50 | 94738 | 130262
5 | 28:56.63 | 7:24.46 | 130263 | 163608
6 | 36:21.34 | 7:16.00 | 163609 | 196308
7 | 43:37.34 | 6:29.08 | 196309 | 225491
8 | 50:06.42 | 6:02.02 | 225492 | 252643
9 | 56:08.44 | 7:36.38 | 252644 | 286881
10 | 63:45.07 | 3:01.34 | 286882 | 300490


Range status and errors

Selected range

Filename D:\Rips by Alder\Peter Gabriel - Up [PGCD11].wav

Peak level 100.0 %
Extraction speed 5.1 X
Range quality 100.0 %
Test CRC C47F692E
Copy CRC C47F692E
Copy OK

No errors occurred


AccurateRip summary

Track 1 cannot be verified as accurate (confidence 101) [713A197A], AccurateRip returned [ED2E7D0C] (AR v2)
Track 2 cannot be verified as accurate (confidence 102) [D04AF04F], AccurateRip returned [05ABD6FF] (AR v2)
Track 3 cannot be verified as accurate (confidence 101) [9355AA62], AccurateRip returned [3452CB88] (AR v2)
Track 4 cannot be verified as accurate (confidence 100) [78DA3336], AccurateRip returned [602EA342] (AR v2)
Track 5 cannot be verified as accurate (confidence 101) [AAF8C25B], AccurateRip returned [AB3B96C2] (AR v2)
Track 6 cannot be verified as accurate (confidence 102) [00B2D5BC], AccurateRip returned [DC975F8B] (AR v2)
Track 7 cannot be verified as accurate (confidence 101) [AF22D655], AccurateRip returned [DA503528] (AR v2)
Track 8 cannot be verified as accurate (confidence 102) [4642338A], AccurateRip returned [7116AE4D] (AR v2)
Track 9 cannot be verified as accurate (confidence 101) [E6F45AA5], AccurateRip returned [995570A2] (AR v2)
Track 10 cannot be verified as accurate (confidence 101) [37A81CE3], AccurateRip returned [BACAFD04] (AR v2)

No tracks could be verified as accurate
You may have a different pressing from the one(s) in the database

End of status report

–– CUETools DB Plugin V2.1.6

[CTDB TOCID: vJc0ksWbObf8sa2xenI8vXauMCM-] found
Submit result: vJc0ksWbObf8sa2xenI8vXauMCM- has been confirmed
Track | CTDB Status
1 | (1553/1797) Accurately ripped, or (1/1797) differs in 2093 samples @03:11:20-03:11:45,03:11:53-03:11:61,03:11:68-03:12:06,03:12:20,03:12:61-03:12:62, or (1/1797) differs in 46 samples @06:51:68-06:51:69, or (1/1797) differs in 42 samples @06:51:68
2 | (1566/1797) Accurately ripped, or (1/1797) differs in 41 samples @00:00:00
3 | (1560/1797) Accurately ripped, or (1/1797) differs in 5347 samples @06:36:11-06:36:17
4 | (1560/1797) Accurately ripped, or (1/1797) differs in 1076 samples @00:12:47-00:12:48, or (1/1797) differs in 38 samples @07:53:49-07:53:50, or (1/1797) differs in 42 samples @07:53:49
5 | (1557/1797) Accurately ripped, or (1/1797) differs in 1176 samples @03:20:14-03:20:15, or (1/1797) differs in 80 samples @00:00:00,07:24:45-07:24:46, or (1/1797) differs in 40 samples @05:22:33,07:24:45
6 | (1558/1797) Accurately ripped, or (1/1797) differs in 88 samples @00:00:00,07:15:74-07:16:00, or (1/1797) differs in 44 samples @07:15:74
7 | (1542/1797) Accurately ripped, or (1/1797) differs in 3988 samples @06:28:56-06:28:60, or (1/1797) differs in 42 samples @00:00:00
8 | (1554/1797) Accurately ripped, or (1/1797) differs in 3296 samples @06:01:12-06:01:16
9 | (1546/1797) Accurately ripped, or (1/1797) differs in 48 samples @02:53:45
10 | (1559/1797) Accurately ripped


==== Log checksum 25C26B8C5D0A18BEE03EC99101C99FF3EA0FFF034D992843287E046072D956DD ====

Peter Gabriel - Up (2002) Re-Up


All thanks go to Alder

>>> Peter Gabriel in my Blog <<<

DOWNLOAD: