Subcategories

Peter Mulvey - The Trouble With Poets (2000)

Posted By: popsakov
Peter Mulvey - The Trouble With Poets (2000)

Peter Mulvey - The Trouble With Poets (2000)
EAC Rip | FLAC (Tracks) + Cue + m3u8 + Log ~ 253 Mb | MP3 CBR320 ~ 96 Mb
Full Scans ~ 72 Mb | 00:39:51 | RAR 5% Recovery
Folk Rock / Folk Rock / Contemporary Singer-Songwriter
Black Walnut Records / Signature Sounds #SIG1258

For sheer musicianship, it is difficult to think of many contemporary guitar playing singer-songwriters who can claim superiority to Peter Mulvey. His third studio album, The Trouble with Poets demonstrates once again the originality and technical proficiency of his guitarwork, incorporating echoes of accomplished fretsmiths like Leo Kottke and Ani DiFranco into a style that is distinctly his own (on "Wings of the Ragman," he even manages an effective impression of the Sundays' David Gavurin). The Trouble with Poets is also more satisfying as a thematic whole than his previous efforts, realizing to a new extent Mulvey's considerable promise as a lyricist. The album opens by defining the poet as one who can "see poetry everywhere." From that point on, Mulvey proves that he fits the definition through an illuminating excavation of metaphysical realities lurking beneath the surface of everyday events. Mulvey sees poetry in a rope slapping against a flagpole, a child sneaking outside late at night, a man waiting for the train in the morning. "It's all around you now," he says in one song. "Still you don't see." Unfortunately, for all his skill as a guitarist, Mulvey's musical compositions only fitfully match the brilliance of his lyrics. Melody has never been his strongest suit, and he is somewhat limited as a singer. But despite the inconsistencies, it doesn't take a poet to see poetry in The Trouble with Poets.

~ Evan Cater, All Music

***************

Peter Mulvey - The Trouble With Poets (2000)

Track List:

01. The Trouble with Poets [3:39]
02. Words Too Small to Say [3:56]
03. Check Me Out (Hey Hey Hey) [3:46]
04. Every Word Except Goodbye [3:48]
05. Wings of the Ragman [3:43]
06. You Meet the Nicest People in Your Dreams [2:02]
07. Eyes Front ( See Through You) [3:55]
08. All the Way Home [3:00]
09. Bright Idea [4:44]
10. Tender Blindspot [4:22]
11. Home [2:57]

Personnel:
Peter Mulvey - vocals, guitar
David "Goody" Goodrich - guitar, mandolin, bass guitar
Mike Piehl - drums
Jennifer Kimball - vocals

Exact Audio Copy V1.3 from 2. September 2016

EAC extraction logfile from 7. November 2019, 15:20

Peter Mulvey / The Trouble with Poets

Used drive : ASUS BW-12D1S-U Adapter: 1 ID: 1

Read mode : Secure
Utilize accurate stream : Yes
Defeat audio cache : Yes
Make use of C2 pointers : No

Read offset correction : 667
Overread into Lead-In and Lead-Out : No
Fill up missing offset samples with silence : Yes
Delete leading and trailing silent blocks : No
Null samples used in CRC calculations : Yes
Used interface : Native Win32 interface for Win NT & 2000
Gap handling : Appended to previous track

Used output format : User Defined Encoder
Selected bitrate : 1024 kBit/s
Quality : High
Add ID3 tag : No
Command line compressor : C:\Program Files (x86)\Exact Audio Copy\FLAC\FLAC.EXE
Additional command line options : -V -8 -T "Genre=%genre%" -T "Artist=%artist%" -T "Title=%title%" -T "Album=%albumtitle%" -T "Date=%year%" -T "Tracknumber=%tracknr%" -T "Comment=%comment%" %source%


TOC of the extracted CD

Track | Start | Length | Start sector | End sector
––––––––––––––––––––––––––––-
1 | 0:00.00 | 3:40.12 | 0 | 16511
2 | 3:40.12 | 3:57.53 | 16512 | 34339
3 | 7:37.65 | 3:47.60 | 34340 | 51424
4 | 11:25.50 | 3:49.12 | 51425 | 68611
5 | 15:14.62 | 3:47.25 | 68612 | 85661
6 | 19:02.12 | 2:06.45 | 85662 | 95156
7 | 21:08.57 | 3:55.35 | 95157 | 112816
8 | 25:04.17 | 3:00.20 | 112817 | 126336
9 | 28:04.37 | 4:43.68 | 126337 | 147629
10 | 32:48.30 | 4:23.20 | 147630 | 167374
11 | 37:11.50 | 2:56.47 | 167375 | 180621


Track 1

Filename F:\Torrents of Autumn\Mulvey, Peter [2000] The Trouble with Poets\01. The Trouble with Poets.wav

Pre-gap length 0:00:02.00

Peak level 99.4 %
Extraction speed 4.3 X
Track quality 100.0 %
Test CRC 8FFCEA32
Copy CRC 8FFCEA32
Accurately ripped (confidence 2) [F7E70055] (AR v2)
Copy OK

Track 2

Filename F:\Torrents of Autumn\Mulvey, Peter [2000] The Trouble with Poets\02. Words Too Small to Say.wav

Pre-gap length 0:00:01.42

Peak level 100.0 %
Extraction speed 4.2 X
Track quality 99.9 %
Test CRC 7111199E
Copy CRC 7111199E
Accurately ripped (confidence 2) [E91FC9FE] (AR v2)
Copy OK

Track 3

Filename F:\Torrents of Autumn\Mulvey, Peter [2000] The Trouble with Poets\03. Check Me Out (Hey Hey Hey).wav

Pre-gap length 0:00:01.38

Peak level 99.4 %
Extraction speed 5.1 X
Track quality 100.0 %
Test CRC 4A7D9113
Copy CRC 4A7D9113
Accurately ripped (confidence 2) [3610BF3A] (AR v2)
Copy OK

Track 4

Filename F:\Torrents of Autumn\Mulvey, Peter [2000] The Trouble with Poets\04. Every Word Except Goodbye.wav

Pre-gap length 0:00:01.40

Peak level 99.4 %
Extraction speed 5.4 X
Track quality 100.0 %
Test CRC C7819F2C
Copy CRC C7819F2C
Accurately ripped (confidence 2) [5EAE2A1B] (AR v2)
Copy OK

Track 5

Filename F:\Torrents of Autumn\Mulvey, Peter [2000] The Trouble with Poets\05. Wings of the Ragman.wav

Pre-gap length 0:00:01.45

Peak level 99.4 %
Extraction speed 5.7 X
Track quality 100.0 %
Test CRC A4F6F35B
Copy CRC A4F6F35B
Accurately ripped (confidence 2) [213FCE16] (AR v2)
Copy OK

Track 6

Filename F:\Torrents of Autumn\Mulvey, Peter [2000] The Trouble with Poets\06. You Meet the Nicest People in Your Dreams.wav

Pre-gap length 0:00:04.42

Peak level 96.5 %
Extraction speed 5.4 X
Track quality 100.0 %
Test CRC 6FC42166
Copy CRC 6FC42166
Accurately ripped (confidence 2) [3B1B4AAC] (AR v2)
Copy OK

Track 7

Filename F:\Torrents of Autumn\Mulvey, Peter [2000] The Trouble with Poets\07. Eyes Front ( See Through You).wav

Pre-gap length 0:00:04.42

Peak level 99.4 %
Extraction speed 6.2 X
Track quality 100.0 %
Test CRC 7A3C017E
Copy CRC 7A3C017E
Accurately ripped (confidence 2) [31A363C6] (AR v2)
Copy OK

Track 8

Filename F:\Torrents of Autumn\Mulvey, Peter [2000] The Trouble with Poets\08. All the Way Home.wav

Peak level 99.4 %
Extraction speed 5.4 X
Track quality 99.9 %
Test CRC 79356D57
Copy CRC 79356D57
Accurately ripped (confidence 2) [0EF6CEC8] (AR v2)
Copy OK

Track 9

Filename F:\Torrents of Autumn\Mulvey, Peter [2000] The Trouble with Poets\09. Bright Idea.wav

Peak level 99.2 %
Extraction speed 7.0 X
Track quality 100.0 %
Test CRC 3CCBD059
Copy CRC 3CCBD059
Accurately ripped (confidence 2) [863A7340] (AR v2)
Copy OK

Track 10

Filename F:\Torrents of Autumn\Mulvey, Peter [2000] The Trouble with Poets\10. Tender Blindspot.wav

Peak level 99.4 %
Extraction speed 6.5 X
Track quality 99.9 %
Test CRC 97EA4621
Copy CRC 97EA4621
Accurately ripped (confidence 2) [962E39B0] (AR v2)
Copy OK

Track 11

Filename F:\Torrents of Autumn\Mulvey, Peter [2000] The Trouble with Poets\11. Home.wav

Pre-gap length 0:00:01.40

Peak level 99.4 %
Extraction speed 5.9 X
Track quality 99.9 %
Test CRC 5B5A96DF
Copy CRC 5B5A96DF
Accurately ripped (confidence 2) [129A571D] (AR v2)
Copy OK


All tracks accurately ripped

No errors occurred

End of status report

–– CUETools DB Plugin V2.1.6

[CTDB TOCID: 7E0zTRyxA8HOtHJo_8PtrPfldgk-] found
Submit result: 7E0zTRyxA8HOtHJo_8PtrPfldgk- has been confirmed
Track | CTDB Status
1 | (19/19) Accurately ripped
2 | (18/19) Accurately ripped
3 | (19/19) Accurately ripped
4 | (19/19) Accurately ripped
5 | (19/19) Accurately ripped
6 | (19/19) Accurately ripped
7 | (19/19) Accurately ripped
8 | (19/19) Accurately ripped
9 | (19/19) Accurately ripped
10 | (18/19) Accurately ripped
11 | (19/19) Accurately ripped


==== Log checksum 8923DEF9E58FD11B9F3DF4286B8E77A5DD16F597DB6CD4770FF31F5D4CCE1753 ====

Peter Mulvey - The Trouble With Poets (2000)


All thanks go to DoobieBro

>>> My Blog <<<

DOWNLOAD: