Subcategories

Peter White - Playin' Favorites (2006)

Posted By: popsakov
Peter White - Playin' Favorites (2006)

Peter White - Playin' Favorites (2006)
EAC Rip | FLAC (Img) + Cue + Log ~ 292 Mb | MP3 CBR320 ~ 108 Mb
Full Scans (PNG, 400 dpi) ~ 121 Mb | RAR 5% Recovery
Smooth Jazz, Crossover Jazz | Columbia / Legacy #82796 94992 2

For his tenth full-length album, Playin' Favourites, British smooth jazz giant Peter White decided to, as the title suggests, turn to some of his favorite tracks from the '60s, '70s, and '80s, giving each of them his own interpretation (he did a similar thing in 1994's Reflections). Working with longtime producer Paul Brown, as well as musicians Boney James, Rick Braun, and Dave Camp, among others, White successfully turns the 11 songs on Playin' Favourites into instant crossover jazz hits. Mainly this means adding horns and keyboards to the background while the guitarist lithely moves around from the melody into lush improvisationally based solos, rendering them much slicker and smoother than they were before (although granted, he didn't have to do much to turn Bacharach's James Bond classic "The Look of Love" into something so adult contemporary). For many of the songs White chooses, the arrangements, albeit a bit sugary, transfer well, and create very soothing, clean pieces of music that could be used in any setting where being inoffensively unmemorable is a priority. But for his version of "Hit the Road Jack," though he uses just his guitar, an upright bass, some finger-snapping, and a male vocal quartet in an attempt to sound bluesy, he still loses a lot of the urgency and instinct that made Ray Charles' rendition so affecting and great. By moving from the soul and emotion of the late pianist and singer towards something more universally "palatable," White ends up not properly respecting the contributions and innovations Ray Charles brought to music, which is unfortunate, because honoring his idols was most assuredly his purpose in making this album. The record's not a failure by any stretch: there's still plenty of smooth jazz to carry the audience through the quiet hours of the day, but because Playin' Favourites is a cover album, and it doesn't do all of the songs included on it quite enough justice, it ends up falling a little short.
~ Marisa Brown, All Music

***************

Peter White - Playin' Favorites (2006)

Track List:

01. What Does It Take (To Win Your Love) [4:02]
02. The Look of Love [4:19]
03. Deja Vu [4:30]
04. Mister Magic [3:40]
05. Lovely Day [4:15]
06. Crazy Love [3:44]
07. Sunny [4:04]
08. For the Love of You [5:11]
09. Hit the Road Jack [2:33]
10. You Are Everything [4:22]
11. One on One [4:15]

Exact Audio Copy V1.0 beta 3 from 29. August 2011

EAC extraction logfile from 10. December 2017, 1:37

Peter White / Playin' Favorites

Used drive : PIONEER BD-RW BDR-TD03 Adapter: 0 ID: 1

Read mode : Secure
Utilize accurate stream : Yes
Defeat audio cache : Yes
Make use of C2 pointers : No

Read offset correction : 667
Overread into Lead-In and Lead-Out : No
Fill up missing offset samples with silence : Yes
Delete leading and trailing silent blocks : No
Null samples used in CRC calculations : Yes
Used interface : Native Win32 interface for Win NT & 2000

Used output format : User Defined Encoder
Selected bitrate : 768 kBit/s
Quality : High
Add ID3 tag : No
Command line compressor : C:\Program Files (x86)\Exact Audio Copy\FLAC\FLAC.EXE
Additional command line options : -6 -V -T "ARTIST=%artist%" -T "TITLE=%title%" -T "ALBUM=%albumtitle%" -T "DATE=%year%" -T "TRACKNUMBER=%tracknr%" -T "GENRE=%genre%" -T "COMMENT=%comment%" -T "BAND=%albuminterpret%" -T "ALBUMARTIST=%albuminterpret%" -T "COMPOSER=%composer%" %haslyrics%–tag-from-file=LYRICS="%lyricsfile%"%haslyrics% -T "DISCNUMBER=%cdnumber%" -T "TOTALDISCS=%totalcds%" -T "TOTALTRACKS=%numtracks%" %hascover%–picture="%coverfile%"%hascover% %source% -o %dest%


TOC of the extracted CD

Track | Start | Length | Start sector | End sector
––––––––––––––––––––––––––––-
1 | 0:00.00 | 4:02.31 | 0 | 18180
2 | 4:02.31 | 4:18.40 | 18181 | 37570
3 | 8:20.71 | 4:29.60 | 37571 | 57805
4 | 12:50.56 | 3:39.65 | 57806 | 74295
5 | 16:30.46 | 4:14.51 | 74296 | 93396
6 | 20:45.22 | 3:44.34 | 93397 | 110230
7 | 24:29.56 | 4:03.53 | 110231 | 128508
8 | 28:33.34 | 5:11.03 | 128509 | 151836
9 | 33:44.37 | 2:33.08 | 151837 | 163319
10 | 36:17.45 | 4:22.05 | 163320 | 182974
11 | 40:39.50 | 4:14.48 | 182975 | 202072


Range status and errors

Selected range

Filename C:\Users\Deris\Desktop\Piwhite06\Peter White - Playin' Favorites.wav

Peak level 99.8 %
Extraction speed 4.5 X
Range quality 100.0 %
Test CRC 3785DEDC
Copy CRC 3785DEDC
Copy OK

No errors occurred


AccurateRip summary

Track 1 accurately ripped (confidence 32) [92FB44F1] (AR v2)
Track 2 accurately ripped (confidence 31) [240FA82B] (AR v2)
Track 3 accurately ripped (confidence 30) [B6AE9037] (AR v2)
Track 4 accurately ripped (confidence 31) [EDB71725] (AR v2)
Track 5 accurately ripped (confidence 31) [E9F21BDC] (AR v2)
Track 6 accurately ripped (confidence 31) [84A24221] (AR v2)
Track 7 accurately ripped (confidence 31) [7D7AA39A] (AR v2)
Track 8 accurately ripped (confidence 31) [9CB7C2F5] (AR v2)
Track 9 accurately ripped (confidence 31) [5C73C705] (AR v2)
Track 10 accurately ripped (confidence 31) [3D527C26] (AR v2)
Track 11 accurately ripped (confidence 31) [65B225BD] (AR v2)

All tracks accurately ripped

End of status report

–– CUETools DB Plugin V2.1.3

[CTDB TOCID: 2qanlOqjk0ejpea3SVl2u976cTs-] found, Submit result: 2qanlOqjk0ejpea3SVl2u976cTs- has been confirmed
[350410e2] (84/89) Accurately ripped
[847babc1] (01/89) No match
[be3e1f9a] (01/89) No match
[cc1f1e37] (01/89) No match
[c1b38b2b] (01/89) No match
[a4408e7c] (01/89) No match


==== Log checksum 92945BE5EEFBD07A817964E880D5B9C5BC3B135BA01CF47661492ED65949D0B0 ====

foobar2000 1.3.16 / Dynamic Range Meter 1.1.1
log date: 2017-12-15 23:14:56

––––––––––––––––––––––––––––––––––––––––
Analyzed: Peter White / Playin' Favorites
––––––––––––––––––––––––––––––––––––––––

DR Peak RMS Duration Track
––––––––––––––––––––––––––––––––––––––––
DR6 -0.10 dB -7.81 dB 4:02 01-What Does It Take (To Win Your Love)
DR8 -0.01 dB -9.83 dB 4:19 02-The Look of Love
DR9 -0.10 dB -10.28 dB 4:30 03-Deja Vu
DR8 -0.10 dB -10.15 dB 3:40 04-Mister Magic
DR8 -0.10 dB -10.17 dB 4:15 05-Lovely Day
DR10 -0.10 dB -11.00 dB 3:44 06-Crazy Love
DR7 -0.02 dB -7.77 dB 4:04 07-Sunny
DR7 -0.10 dB -8.69 dB 5:11 08-For the Love of You
DR8 -0.10 dB -8.95 dB 2:33 09-Hit the Road Jack
DR7 -0.10 dB -9.25 dB 4:22 10-You Are Everything
DR9 -0.10 dB -10.23 dB 4:15 11-One on One
––––––––––––––––––––––––––––––––––––––––

Number of tracks: 11
Official DR value: DR8

Samplerate: 44100 Hz
Channels: 2
Bits per sample: 16
Bitrate: 865 kbps
Codec: FLAC
================================================================================

[CUETools log; Date: 15.12.2017 23:14:58; Version: 2.1.5]
[CTDB TOCID: 2qanlOqjk0ejpea3SVl2u976cTs-] found.
Track | CTDB Status
1 | (88/90) Accurately ripped
2 | (89/90) Accurately ripped
3 | (90/90) Accurately ripped
4 | (88/90) Accurately ripped
5 | (88/90) Accurately ripped
6 | (87/90) Accurately ripped
7 | (87/90) Accurately ripped
8 | (88/90) Accurately ripped
9 | (89/90) Accurately ripped
10 | (88/90) Accurately ripped
11 | (89/90) Accurately ripped
[AccurateRip ID: 00129e64-00a0f7c1-880a860b] found.
Track [ CRC | V2 ] Status
01 [7bd88142|92fb44f1] (19+32/87) Accurately ripped
02 [04b8dbfb|240fa82b] (20+31/87) Accurately ripped
03 [b43f66f2|b6ae9037] (19+30/85) Accurately ripped
04 [61947eef|edb71725] (18+31/84) Accurately ripped
05 [8ece8f38|e9f21bdc] (19+31/86) Accurately ripped
06 [db94e967|84a24221] (20+31/87) Accurately ripped
07 [f9f5a7a2|7d7aa39a] (19+31/86) Accurately ripped
08 [322b9ff4|9cb7c2f5] (19+31/86) Accurately ripped
09 [34a62ef8|5c73c705] (18+31/84) Accurately ripped
10 [b6ebac48|3d527c26] (19+31/86) Accurately ripped
11 [618046de|65b225bd] (18+31/85) Accurately ripped
Offsetted by -664:
01 [3ed2560d] (06/87) Accurately ripped
02 [43bd487b] (06/87) Accurately ripped
03 [09298f9a] (06/85) Accurately ripped
04 [2382ba9f] (06/84) Accurately ripped
05 [304c0a60] (06/86) Accurately ripped
06 [971d40cf] (06/87) Accurately ripped
07 [47a50db2] (06/86) Accurately ripped
08 [69c98d9c] (06/86) Accurately ripped
09 [52f43770] (05/84) Accurately ripped
10 [22c34fb0] (06/86) Accurately ripped
11 [fd813cee] (06/85) Accurately ripped
Offsetted by 682:
01 [46d729ea] (03/87) Accurately ripped
02 [214c381b] (03/87) Accurately ripped
03 [9c428eec] (03/85) Accurately ripped
04 [290afc3b] (03/84) Accurately ripped
05 [8a1878d2] (03/86) Accurately ripped
06 [bb59d691] (03/87) Accurately ripped
07 [0c18a246] (03/86) Accurately ripped
08 [5a33d32e] (03/86) Accurately ripped
09 [07a4af86] (03/84) Accurately ripped
10 [ddbec472] (03/86) Accurately ripped
11 [2647c582] (03/85) Accurately ripped

Track Peak [ CRC32 ] [W/O NULL] [ LOG ]
– 99,8 [3785DEDC] [9AC4C6E3] CRC32
01 98,8 [64301880] [664A2BB6]
02 99,8 [8D9CF44C] [49EC71D3]
03 98,8 [EABB91A6] [E37E3CD2]
04 98,8 [1A3D1727] [B7BB3731]
05 98,8 [8799307D] [F4A4D1A8]
06 98,8 [44EEC077] [1192C0B3]
07 99,7 [616DC331] [3A7E97E4]
08 98,8 [5B182035] [CAFC7110]
09 98,8 [E555EA23] [A8115181]
10 98,8 [E8F71640] [94F1A194]
11 98,8 [28B52D58] [4FBC4F34]

Peter White - Playin' Favorites (2006)

See also:
Peter White - Caravan Of Dreams (1996) [US, Columbia CK 67730]

All thanks go to Boris1

>>> My Blog <<<

Download from icerbox.com: