Tags
Language
Tags

Peter & Gordon - A World Without Love (1964) & I Don't Want To See You Again (1964) [Reissue 1998]

Posted By: gribovar
Peter & Gordon - A World Without Love (1964) & I Don't Want To See You Again (1964) [Reissue 1998]

Peter & Gordon - A World Without Love (1964) & I Don't Want To See You Again (1964) [Reissue 1998]
EAC Rip | WavPack (image+.cue+log) - 383 MB | MP3 CBR 320 kbps (LAME 3.93) - 134 MB | Covers - 20 MB
Genre: Rock, Beat, Pop | RAR 3% Rec. | Label: Collectables (COL 2117)

These two LPs combined on one CD (with one bonus track) show off the duo's strong and weak points at once. Peter & Gordon did good Beatlesque songs, although they couldn't really compete with the real article without the occasional outside song like "A World Without Love" or "I Go to Pieces" coming their way. And they did all right, if not exceptionally well by folk-style numbers such as "Pretty Mary" and "Willow Garden," on which they compare favorably with the Everly Brothers. But when they do blues ("My Babe," "Trouble in Mind"), they sound plain silly, and pretty lightweight when they cover songs like "Lucille" as well. Additionally, they do the occasional over-orchestrated number that breaks the spell altogether. Basically, they couldn't make up their minds whether they wanted to be the acoustic duo following the footsteps of the Beatles, the mid-'60s answer to the Everly Brothers, or the successors to the Springfields (without anything resembling Dusty's big voice).
At its best, their stuff made for pleasant memories on the radio, but more typically it was pretty predictable pop/rock, with guitar solos that varied not a sixteenth note from what one expected to hear. That said, this 23-song set is not bad music, it's just not terribly important music; P&G were far bigger and more successful in America (where being British was a valuable commodity right into the end of 1965) than England. The sound on this collection is good, with crisp stereo separation on the tracks and finely delineated playing. The notes are good, if not exceptional.
Tracklist:

A World Without Love (1964):
01. Lucille
02. 500 Miles
03. If I Were You
04. Pretty Mary
05. Trouble In Mind
06. A World Without Love
07. Tell Me How
08. You Don't Have To Tell Me
09. Leave My Woman Alone
10. All My Trials
11. Last Night

I Don't Want To See You Again (1964):
12. I Don't Want To See You Again
13. Nobody I Know
14. My Babe
15. Willow Garden
16. Two Little Love Birds
17. Land Of Oden
18. Freight Train
19. Love Me, Baby
20. Soft As The Dawn
21. Leave Me Alone
22. Lonely Avenue
23. To Show I Love You (Bonus track)

Total time: 57:07

Exact Audio Copy V1.3 from 2. September 2016

EAC extraction logfile from 4. February 2020, 10:11

Peter & Gordon / A World Without Love & I Don't Want To See You Again

Used drive : PLEXTOR DVDR PX-L890SA Adapter: 1 ID: 0

Read mode : Secure
Utilize accurate stream : Yes
Defeat audio cache : Yes
Make use of C2 pointers : No

Read offset correction : 6
Overread into Lead-In and Lead-Out : No
Fill up missing offset samples with silence : Yes
Delete leading and trailing silent blocks : No
Null samples used in CRC calculations : Yes
Used interface : Native Win32 interface for Win NT & 2000

Used output format : User Defined Encoder
Selected bitrate : 1024 kBit/s
Quality : High
Add ID3 tag : No
Command line compressor : C:\Program Files (x86)\Exact Audio Copy\wavpack.exe
Additional command line options : -lm %source%


TOC of the extracted CD

Track | Start | Length | Start sector | End sector
––––––––––––––––––––––––––––-
1 | 0:00.00 | 2:08.57 | 0 | 9656
2 | 2:08.57 | 3:15.05 | 9657 | 24286
3 | 5:23.62 | 2:30.65 | 24287 | 35601
4 | 7:54.52 | 2:16.03 | 35602 | 45804
5 | 10:10.55 | 2:19.47 | 45805 | 56276
6 | 12:30.27 | 2:41.05 | 56277 | 68356
7 | 15:11.32 | 2:19.30 | 68357 | 78811
8 | 17:30.62 | 2:36.38 | 78812 | 90549
9 | 20:07.25 | 1:54.35 | 90550 | 99134
10 | 22:01.60 | 2:33.22 | 99135 | 110631
11 | 24:35.07 | 2:45.60 | 110632 | 123066
12 | 27:20.67 | 2:02.15 | 123067 | 132231
13 | 29:23.07 | 2:30.55 | 132232 | 143536
14 | 31:53.62 | 2:24.73 | 143537 | 154409
15 | 34:18.60 | 3:04.02 | 154410 | 168211
16 | 37:22.62 | 2:11.48 | 168212 | 178084
17 | 39:34.35 | 2:58.12 | 178085 | 191446
18 | 42:32.47 | 2:05.63 | 191447 | 200884
19 | 44:38.35 | 2:16.40 | 200885 | 211124
20 | 46:55.00 | 2:43.65 | 211125 | 223414
21 | 49:38.65 | 2:04.60 | 223415 | 232774
22 | 51:43.50 | 3:00.07 | 232775 | 246281
23 | 54:43.57 | 2:23.45 | 246282 | 257051


Range status and errors

Selected range

Filename D:\wwphil\Peter & Gordon - A World Without Love & I Don't Want To See You Again (1998)\Peter & Gordon - A World Without Love & I Don't Want To See You Again.wav

Peak level 100.0 %
Extraction speed 9.1 X
Range quality 100.0 %
Test CRC B81D64AE
Copy CRC B81D64AE
Copy OK

No errors occurred


AccurateRip summary

Track 1 accurately ripped (confidence 3) [10F799B7] (AR v2)
Track 2 accurately ripped (confidence 3) [2251144B] (AR v2)
Track 3 accurately ripped (confidence 4) [E1B674ED] (AR v2)
Track 4 accurately ripped (confidence 3) [9A5F0A01] (AR v2)
Track 5 accurately ripped (confidence 3) [01DFD9F2] (AR v2)
Track 6 accurately ripped (confidence 3) [5288A611] (AR v2)
Track 7 accurately ripped (confidence 3) [4ECBE58F] (AR v2)
Track 8 accurately ripped (confidence 3) [B1F66DB5] (AR v2)
Track 9 accurately ripped (confidence 4) [1BB757CE] (AR v2)
Track 10 accurately ripped (confidence 3) [905A5660] (AR v2)
Track 11 accurately ripped (confidence 3) [8E717580] (AR v2)
Track 12 accurately ripped (confidence 4) [3DE95D03] (AR v2)
Track 13 accurately ripped (confidence 3) [0926E8C6] (AR v2)
Track 14 accurately ripped (confidence 3) [8CA955D9] (AR v2)
Track 15 accurately ripped (confidence 3) [CF42BC1A] (AR v2)
Track 16 accurately ripped (confidence 3) [6EFB2004] (AR v2)
Track 17 accurately ripped (confidence 3) [2F8517CC] (AR v2)
Track 18 accurately ripped (confidence 3) [C9AAD935] (AR v2)
Track 19 accurately ripped (confidence 3) [2E762644] (AR v2)
Track 20 accurately ripped (confidence 3) [5388162D] (AR v2)
Track 21 accurately ripped (confidence 3) [641F3F3F] (AR v2)
Track 22 accurately ripped (confidence 3) [EDE0A91E] (AR v2)
Track 23 accurately ripped (confidence 4) [3D5BA89C] (AR v2)

All tracks accurately ripped

End of status report

==== Log checksum 88A32AE8AEF5AAC676863436B9A0D95689CEBEFE590C4019A365B42524226EEA ====

[CUETools log; Date: 17.08.2020 15:49:51; Version: 2.1.4]
[CTDB TOCID: 8vZAMiw7LyDbYpeTNrHPFJJDq4g-] found.
Track | CTDB Status
1 | (9/9) Accurately ripped
2 | (9/9) Accurately ripped
3 | (9/9) Accurately ripped
4 | (9/9) Accurately ripped
5 | (9/9) Accurately ripped
6 | (9/9) Accurately ripped
7 | (9/9) Accurately ripped
8 | (9/9) Accurately ripped
9 | (9/9) Accurately ripped
10 | (9/9) Accurately ripped
11 | (9/9) Accurately ripped
12 | (9/9) Accurately ripped
13 | (9/9) Accurately ripped
14 | (9/9) Accurately ripped
15 | (9/9) Accurately ripped
16 | (9/9) Accurately ripped
17 | (9/9) Accurately ripped
18 | (9/9) Accurately ripped
19 | (9/9) Accurately ripped
20 | (9/9) Accurately ripped
21 | (9/9) Accurately ripped
22 | (9/9) Accurately ripped
23 | (9/9) Accurately ripped
[AccurateRip ID: 002f05a6-030edce7-2c0d6317] found.
Track [ CRC | V2 ] Status
01 [fb3edbab|10f799b7] (0+4/6) Accurately ripped
02 [bc405f3b|2251144b] (0+4/7) Accurately ripped
03 [38ba5a7a|e1b674ed] (0+5/8) Accurately ripped
04 [aef1b70b|9a5f0a01] (0+4/7) Accurately ripped
05 [3959c19d|01dfd9f2] (0+4/7) Accurately ripped
06 [b3c58f23|5288a611] (0+4/7) Accurately ripped
07 [ee503d79|4ecbe58f] (0+4/6) Accurately ripped
08 [9fd59101|b1f66db5] (0+4/7) Accurately ripped
09 [db54d87a|1bb757ce] (0+5/7) Accurately ripped
10 [6d9d00eb|905a5660] (0+4/7) Accurately ripped
11 [0d9b38cf|8e717580] (0+4/7) Accurately ripped
12 [39f0cdfc|3de95d03] (0+5/8) Accurately ripped
13 [4517b687|0926e8c6] (0+4/7) Accurately ripped
14 [14ac5a45|8ca955d9] (0+4/7) Accurately ripped
15 [b2da1f70|cf42bc1a] (0+4/7) Accurately ripped
16 [059c41b2|6efb2004] (0+4/7) Accurately ripped
17 [df9f81b5|2f8517cc] (0+4/7) Accurately ripped
18 [7ee9325c|c9aad935] (0+4/7) Accurately ripped
19 [2c48169f|2e762644] (0+4/7) Accurately ripped
20 [3b8f6f29|5388162d] (0+4/7) Accurately ripped
21 [aec6488a|641f3f3f] (0+4/7) Accurately ripped
22 [0951e027|ede0a91e] (0+4/6) Accurately ripped
23 [5975c889|3d5ba89c] (0+5/8) Accurately ripped
Offsetted by -1404:
01 [1abd56c7] (2/6) Accurately ripped
02 [3e8862ab] (3/7) Accurately ripped
03 [3cf915a2] (3/8) Accurately ripped
04 [59b278b3] (3/7) Accurately ripped
05 [5ecbfa11] (3/7) Accurately ripped
06 [4a2043eb] (3/7) Accurately ripped
07 [47f88989] (2/6) Accurately ripped
08 [b32aeacd] (3/7) Accurately ripped
09 [b144e2ee] (2/7) Accurately ripped
10 [ca4d9b8f] (3/7) Accurately ripped
11 [00e94c87] (3/7) Accurately ripped
12 [d4be019c] (3/8) Accurately ripped
13 [22e0dd53] (3/7) Accurately ripped
14 [5681d801] (3/7) Accurately ripped
15 [e9d1968c] (3/7) Accurately ripped
16 [6b66c30e] (3/7) Accurately ripped
17 [a4146a49] (3/7) Accurately ripped
18 [96d1ee88] (3/7) Accurately ripped
19 [d24c3297] (3/7) Accurately ripped
20 [98a8a619] (3/7) Accurately ripped
21 [6a79a976] (3/7) Accurately ripped
22 [62fdc8bb] (2/6) Accurately ripped
23 [80cdb491] (0/8) No match (V2 was not tested)

Track Peak [ CRC32 ] [W/O NULL] [ LOG ]
– 100,0 [B81D64AE] [650BC34E] CRC32
01 100,0 [120A7571] [E4C25B59]
02 93,6 [71282D8A] [77D7135D]
03 94,3 [27D80990] [72E838FA]
04 91,6 [41291CE3] [E3F8EA8D]
05 100,0 [99A5590D] [8ACBA13A]
06 95,5 [8C24414F] [B0E6CBDE]
07 97,7 [E3BEAC70] [9442800E]
08 89,8 [F46B4367] [6D790908]
09 93,7 [DFE50D7B] [A3313A3E]
10 88,3 [2CD0706E] [ACCBDA0A]
11 94,4 [096E7C5E] [74C80637]
12 75,9 [D458AF38] [03AE7D8F]
13 76,6 [361D3AF1] [F027B81C]
14 85,1 [34BE5AAD] [3E7B0BF4]
15 86,7 [7E495F30] [EBA83D55]
16 94,1 [AA41BE0D] [60FDACC2]
17 85,1 [034FA25E] [3F165C20]
18 88,6 [6193D926] [B5F4D848]
19 95,1 [9A4E3341] [56054FC3]
20 95,5 [7108B0DC] [0D65ADA2]
21 91,0 [3DC41616] [12B55B7D]
22 97,7 [C3D26191] [ACF11C82]
23 100,0 [4EBC4064] [6B399779]

Thanks to wwf

See also:
Peter & Gordon - I Go to P...ove Ways (1965) [Reissue 1998]