Peterson / Pass / Pedersen - The Trio (1973) {1998, Remastered}

Posted By: popsakov
Peterson / Pass / Pedersen - The Trio (1973) {1998, Remastered}

Peterson / Pass / Pedersen - The Trio (1973) {1998, Remastered}
EAC Rip | FLAC (Tracks) + Cue + Log + m3u ~ 208 Mb | MP3 CBR320 ~ 106 Mb
Scans Included (JPG, 600 dpi) | RAR 5% Recovery
Original Jazz Classics / Pablo Records / Universal Music #00025218699228
Jazz / Hard Bop / Bop

The Trio is a 1973 live album by Oscar Peterson, Joe Pass and Niels-Henning Ørsted Pedersen. At the Grammy Awards of 1975, The Trio won the Grammy Award for Best Jazz Performance by a Group. In his Allmusic review, critic Scott Yanow complimented the playing of Pass and Pedersen, but wrote "the reason to acquire this set is for the remarkable Oscar Peterson. The pianist brilliantly investigates several jazz styles… Peterson really flourished during his years with Norman Granz's Pablo label, and this was one of his finest recordings of the period."

***************

Peterson / Pass / Pedersen - The Trio (1973) {1998, Remastered}

Peterson / Pass / Pedersen - The Trio (1973) {1998, Remastered}

Track List:

01. Blues Etude [0:05:31.69]
02. Chicago Blues [0:13:54.73]
03. Easy Listening Blues [0:07:53.58]
04. Come Sunday [0:03:46.50]
05. Secret Love [0:07:15.65]

Personnel:
Oscar Peterson - piano
Joe Pass - guitar
Niels-Henning Ørsted Pedersen - bass

Exact Audio Copy V1.0 beta 3 from 29. August 2011

EAC extraction logfile from 9. August 2013, 11:54

Oscar Peterson, Joe Pass, Niels-Henning Pedersen / Peterson / Pass / Pedersen - The Trio

Used drive : ATAPI iHAS124 D Adapter: 0 ID: 2

Read mode : Secure
Utilize accurate stream : Yes
Defeat audio cache : Yes
Make use of C2 pointers : No

Read offset correction : 6
Overread into Lead-In and Lead-Out : No
Fill up missing offset samples with silence : Yes
Delete leading and trailing silent blocks : No
Null samples used in CRC calculations : Yes
Used interface : Installed external ASPI interface
Gap handling : Appended to previous track

Used output format : User Defined Encoder
Selected bitrate : 1024 kBit/s
Quality : High
Add ID3 tag : No
Command line compressor : C:\Program Files (x86)\Exact Audio Copy\FLAC\FLAC.EXE
Additional command line options : -6 -V -T "ARTIST=%artist%" -T "TITLE=%title%" -T "ALBUM=%albumtitle%" -T "DATE=%year%" -T "TRACKNUMBER=%tracknr%" -T "GENRE=%genre%" -T "COMMENT=%comment%" -T "BAND=%albuminterpret%" -T "ALBUMARTIST=%albuminterpret%" -T "COMPOSER=%composer%" %haslyrics%–tag-from-file=LYRICS="%lyricsfile%"%haslyrics% -T "DISCNUMBER=%cdnumber%" -T "TOTALDISCS=%totalcds%" -T "TOTALTRACKS=%numtracks%" %hascover%–picture="%coverfile%"%hascover% %source% -o %dest%


TOC of the extracted CD

Track | Start | Length | Start sector | End sector
––––––––––––––––––––––––––––-
1 | 0:00.00 | 5:31.69 | 0 | 24893
2 | 5:31.69 | 13:54.73 | 24894 | 87516
3 | 19:26.67 | 7:53.58 | 87517 | 123049
4 | 27:20.50 | 3:46.50 | 123050 | 140049
5 | 31:07.25 | 7:15.65 | 140050 | 172739


Track 1

Filename C:\mm\Oscar Peterson\1973(1998) - Peterson, Pass, Pedersen - The Trio\01 - Blues Etude.wav

Pre-gap length 0:00:02.00

Peak level 99.8 %
Extraction speed 5.9 X
Track quality 100.0 %
Test CRC 860AC465
Copy CRC 860AC465
Accurately ripped (confidence 5) [B8F00E45] (AR v2)
Copy OK

Track 2

Filename C:\mm\Oscar Peterson\1973(1998) - Peterson, Pass, Pedersen - The Trio\02 - Chicago Blues.wav

Peak level 99.6 %
Extraction speed 7.2 X
Track quality 99.9 %
Test CRC 834DA3EA
Copy CRC 834DA3EA
Accurately ripped (confidence 5) [31768ACB] (AR v2)
Copy OK

Track 3

Filename C:\mm\Oscar Peterson\1973(1998) - Peterson, Pass, Pedersen - The Trio\03 - Easy Listening Blues.wav

Pre-gap length 0:00:02.10

Peak level 94.5 %
Extraction speed 7.9 X
Track quality 99.9 %
Test CRC B2E024AF
Copy CRC B2E024AF
Accurately ripped (confidence 5) [C37B5358] (AR v2)
Copy OK

Track 4

Filename C:\mm\Oscar Peterson\1973(1998) - Peterson, Pass, Pedersen - The Trio\04 - Come Sunday.wav

Peak level 82.9 %
Extraction speed 8.6 X
Track quality 100.0 %
Test CRC E7C2CAD5
Copy CRC E7C2CAD5
Accurately ripped (confidence 5) [1543EEFA] (AR v2)
Copy OK

Track 5

Filename C:\mm\Oscar Peterson\1973(1998) - Peterson, Pass, Pedersen - The Trio\05 - Secret Love.wav

Peak level 99.6 %
Extraction speed 9.7 X
Track quality 100.0 %
Test CRC 899CF0A0
Copy CRC 899CF0A0
Accurately ripped (confidence 5) [DD9153F4] (AR v2)
Copy OK


All tracks accurately ripped

No errors occurred

End of status report

–– CUETools DB Plugin V2.1.3

[CTDB TOCID: IXDM9sNCht2YHtLsWQezm9FSc.c-] found, Submit result: IXDM9sNCht2YHtLsWQezm9FSc.c- has been confirmed
[a2d79b79] (7/7) Accurately ripped

foobar2000 1.2.6 / Dynamic Range Meter 1.1.1
log date: 2017-08-18 23:18:41

––––––––––––––––––––––––––––––––––––––––
Analyzed: Oscar Peterson, Joe Pass, Niels-Henning Pedersen / Peterson / Pass / Pedersen - The Trio
––––––––––––––––––––––––––––––––––––––––

DR Peak RMS Duration Track
––––––––––––––––––––––––––––––––––––––––
DR12 -0.02 dB -15.85 dB 5:32 01-Blues Etude
DR12 -0.03 dB -16.02 dB 13:55 02-Chicago Blues
DR12 -0.49 dB -14.92 dB 7:54 03-Easy Listening Blues
DR15 -1.62 dB -22.93 dB 3:47 04-Come Sunday
DR12 -0.03 dB -15.85 dB 7:16 05-Secret Love
––––––––––––––––––––––––––––––––––––––––

Number of tracks: 5
Official DR value: DR13

Samplerate: 44100 Hz
Channels: 2
Bits per sample: 16
Bitrate: 674 kbps
Codec: FLAC
================================================================================

[CUETools log; Date: 18.08.2017 23:26:29; Version: 2.1.5]
[CTDB TOCID: IXDM9sNCht2YHtLsWQezm9FSc.c-] found.
Track | CTDB Status
1 | (40/40) Accurately ripped
2 | (40/40) Accurately ripped
3 | (40/40) Accurately ripped
4 | (40/40) Accurately ripped
5 | (39/40) Accurately ripped
[AccurateRip ID: 00085d9b-0026c6ae-4008ff05] found.
Track [ CRC | V2 ] Status
01 [31f2f91d|b8f00e45] (02+16/55) Accurately ripped
02 [86c80284|31768acb] (02+16/54) Accurately ripped
03 [a1c56aab|c37b5358] (02+16/55) Accurately ripped
04 [017e1ee7|1543eefa] (02+16/55) Accurately ripped
05 [251f6a1f|dd9153f4] (02+16/54) Accurately ripped
Offsetted by 382:
01 [630fa50c] (02/55) Accurately ripped
02 [a7fdcbaf] (02/54) Accurately ripped
03 [9258dc39] (02/55) Accurately ripped
04 [319fbdd4] (02/55) Accurately ripped
05 [85227a82] (02/54) Accurately ripped
Offsetted by 664:
01 [5d7c1e16] (10/55) Accurately ripped
02 [678cece3] (09/54) Accurately ripped
03 [31c573aa] (10/55) Accurately ripped
04 [d50acac6] (10/55) Accurately ripped
05 [ed9d8915] (10/54) Accurately ripped
Offsetted by -287:
01 [44218566] (00/55) No match (V2 was not tested)
02 [378c740a] (00/54) No match (V2 was not tested)
03 [bfe644d6] (00/55) No match (V2 was not tested)
04 [bcaa974d] (00/55) No match (V2 was not tested)
05 [36118157] (00/54) No match (V2 was not tested)

Track Peak [ CRC32 ] [W/O NULL] [ LOG ]
– 99,8 [186E6F3B] [73C30740]
01 99,8 [860AC465] [F7FA3E93] CRC32
02 99,6 [834DA3EA] [CD913078] CRC32
03 94,5 [B2E024AF] [E44BC7D1] CRC32
04 82,9 [E7C2CAD5] [6DD550AE] CRC32
05 99,6 [899CF0A0] [BC2675E7] CRC32

Peterson / Pass / Pedersen - The Trio (1973) {1998, Remastered}

All thanks go to sergych

>>> Oscar Peterson in my Blog <<<

Download from icerbox.com: