Subcategories

Petite Meller - Lil Empire (2016)

Posted By: Pisulik
Petite Meller - Lil Empire (2016)

Petite Meller - Lil Empire (2016)
EAC Rip | FLAC (Tracks) +cue, log - 290 MB | MP3 CBR 320 kbps - 98 MB | 00:42:30
Synth-Pop, Europop, Electronic | Label: Island Records / Universal Music | Release Year: 2016

Lil Empire is the debut solo album from French singer-songwrite Petite Meller and was surprise released under Island Records on 9th September, 2016, following her show at the ICA in London the night before.


TRACKLIST

01 The Flute
02 Hawaii
03 Milk Bath
04 Baby Love
05 America
06 Lil' Love
07 Power
08 Backpack
09 Barbaric
10 Argentina
11 Grace
12 Geez

Exact Audio Copy V1.3 from 2. September 2016

EAC extraction logfile from 8. February 2017, 17:49

Petite Meller / Lil Empire

Used drive : PLEXTOR DVDR PX-L890SA Adapter: 1 ID: 1

Read mode : Secure
Utilize accurate stream : Yes
Defeat audio cache : Yes
Make use of C2 pointers : No

Read offset correction : 6
Overread into Lead-In and Lead-Out : No
Fill up missing offset samples with silence : Yes
Delete leading and trailing silent blocks : No
Null samples used in CRC calculations : Yes
Used interface : Native Win32 interface for Win NT & 2000
Gap handling : Appended to previous track

Used output format : User Defined Encoder
Selected bitrate : 1024 kBit/s
Quality : High
Add ID3 tag : No
Command line compressor : C:\Program Files (x86)\FLAC Frontend\tools\flac.exe
Additional command line options : -8 -e -p -V -T "ARTIST=%artist%" -T "TITLE=%title%" -T "ALBUM=%albumtitle%" -T "DATE=%year%" -T "TRACKNUMBER=%tracknr%" -T "GENRE=%genre%" -T "PERFORMER=%albuminterpret%" -T "COMPOSER=%composer%" %haslyrics%–tag-from-file=LYRICS="%lyricsfile%"%haslyrics% -T "ALBUMARTIST=%albumartist%" -T "DISCNUMBER=%cdnumber%" -T "TOTALDISCS=%totalcds%" -T "TOTALTRACKS=%numtracks%" -T "COMMENT=%comment%" %source% -o %dest%


TOC of the extracted CD

Track | Start | Length | Start sector | End sector
––––––––––––––––––––––––––––-
1 | 0:00.00 | 3:05.21 | 0 | 13895
2 | 3:05.21 | 3:14.60 | 13896 | 28505
3 | 6:20.06 | 3:19.36 | 28506 | 43466
4 | 9:39.42 | 3:42.42 | 43467 | 60158
5 | 13:22.09 | 3:24.27 | 60159 | 75485
6 | 16:46.36 | 3:32.74 | 75486 | 91459
7 | 20:19.35 | 3:48.53 | 91460 | 108612
8 | 24:08.13 | 3:12.64 | 108613 | 123076
9 | 27:21.02 | 4:03.28 | 123077 | 141329
10 | 31:24.30 | 3:26.04 | 141330 | 156783
11 | 34:50.34 | 3:46.54 | 156784 | 173787
12 | 38:37.13 | 3:52.66 | 173788 | 191253


Track 1

Filename C:\heirloom rips\Petite Meller\2017 Lil Empire [5734720]\01 The Flute.wav

Pre-gap length 0:00:02.00

Peak level 97.0 %
Extraction speed 3.9 X
Track quality 99.9 %
Test CRC 8DF31B1C
Copy CRC 8DF31B1C
Track not present in AccurateRip database
Copy OK

Track 2

Filename C:\heirloom rips\Petite Meller\2017 Lil Empire [5734720]\02 Hawaii.wav

Peak level 97.0 %
Extraction speed 5.2 X
Track quality 100.0 %
Test CRC 8BE3D3EB
Copy CRC 8BE3D3EB
Track not present in AccurateRip database
Copy OK

Track 3

Filename C:\heirloom rips\Petite Meller\2017 Lil Empire [5734720]\03 Milk Bath.wav

Pre-gap length 0:00:00.78

Peak level 99.2 %
Extraction speed 5.7 X
Track quality 100.0 %
Test CRC 05EF3032
Copy CRC 05EF3032
Track not present in AccurateRip database
Copy OK

Track 4

Filename C:\heirloom rips\Petite Meller\2017 Lil Empire [5734720]\04 Baby Love.wav

Pre-gap length 0:00:01.14

Peak level 96.0 %
Extraction speed 6.2 X
Track quality 100.0 %
Test CRC F42464F4
Copy CRC F42464F4
Track not present in AccurateRip database
Copy OK

Track 5

Filename C:\heirloom rips\Petite Meller\2017 Lil Empire [5734720]\05 America.wav

Pre-gap length 0:00:01.00

Peak level 97.0 %
Extraction speed 6.4 X
Track quality 100.0 %
Test CRC 9CB9736C
Copy CRC 9CB9736C
Track not present in AccurateRip database
Copy OK

Track 6

Filename C:\heirloom rips\Petite Meller\2017 Lil Empire [5734720]\06 Lil' Love (feat. Pnau).wav

Pre-gap length 0:00:00.13

Peak level 97.0 %
Extraction speed 6.8 X
Track quality 100.0 %
Test CRC 8EEE4257
Copy CRC 8EEE4257
Track not present in AccurateRip database
Copy OK

Track 7

Filename C:\heirloom rips\Petite Meller\2017 Lil Empire [5734720]\07 Power.wav

Pre-gap length 0:00:00.45

Peak level 97.0 %
Extraction speed 6.0 X
Track quality 99.9 %
Test CRC 3CC4BE14
Copy CRC 3CC4BE14
Track not present in AccurateRip database
Copy OK

Track 8

Filename C:\heirloom rips\Petite Meller\2017 Lil Empire [5734720]\08 Backpack.wav

Peak level 97.0 %
Extraction speed 7.4 X
Track quality 100.0 %
Test CRC D6108DC7
Copy CRC D6108DC7
Track not present in AccurateRip database
Copy OK

Track 9

Filename C:\heirloom rips\Petite Meller\2017 Lil Empire [5734720]\09 Barbaric.wav

Pre-gap length 0:00:00.48

Peak level 97.0 %
Extraction speed 6.7 X
Track quality 99.9 %
Test CRC C47530BA
Copy CRC C47530BA
Track not present in AccurateRip database
Copy OK

Track 10

Filename C:\heirloom rips\Petite Meller\2017 Lil Empire [5734720]\10 Argentina.wav

Pre-gap length 0:00:00.64

Peak level 97.0 %
Extraction speed 8.1 X
Track quality 100.0 %
Test CRC ACB8E015
Copy CRC ACB8E015
Track not present in AccurateRip database
Copy OK

Track 11

Filename C:\heirloom rips\Petite Meller\2017 Lil Empire [5734720]\11 Grace.wav

Peak level 96.1 %
Extraction speed 6.9 X
Track quality 99.9 %
Test CRC BFC79C74
Copy CRC BFC79C74
Track not present in AccurateRip database
Copy OK

Track 12

Filename C:\heirloom rips\Petite Meller\2017 Lil Empire [5734720]\12 Geez.wav

Pre-gap length 0:00:01.76

Peak level 97.0 %
Extraction speed 8.7 X
Track quality 100.0 %
Test CRC D24859DB
Copy CRC D24859DB
Track not present in AccurateRip database
Copy OK


None of the tracks are present in the AccurateRip database

No errors occurred

End of status report

–– CUETools DB Plugin V2.1.6

[CTDB TOCID: c3D5raDuYl23w3qvHbHmHIDRxrE-] disk not present in database
Submit result: c3D5raDuYl23w3qvHbHmHIDRxrE- has been uploaded


==== Log checksum A46D48E15B9DDF31FC1E36665E924D7B099F636951BAACBECD915FF28BB6C644 ====


All thanks go to the original releaser