Pharoah Sanders - Message From Home (1996) {Verve}

Posted By: tiburon
Pharoah Sanders - Message From Home (1996) {Verve}

Pharoah Sanders - Message From Home (1996) {Verve}
EAC 0.95b4 | FLAC tracks level 8 | Cue+Log+M3U | Full Scans 300dpi | 300MB + 5% Recovery
MP3 CBR 320 Kbps | 120MB + 5% Recovery
Genre: Jazz, Fusion, Ethnic Fusion

The world music-minded producer Bill Laswell gets a hold of Pharoah Sanders here and lo, the sleeping volcano erupts with one of his most fulfilling albums in many a year. Message From Home is rooted in, but not exclusively devoted to, African idioms, as the overpowering hip-hop groove of "Our Roots (Began In Africa)" points out. But the record really develops into something special when Sanders pits his mighty tenor sound against the pan-African beats, like the ecstatically joyful rhythms of "Tomoki" and the poised, percolating fusion of American country & western drums and Nigerian juju guitar riffs on "Country Mile." In addition, "Nozipho" is a concentrated dose of the old Pharoah, heavily spiritual and painfully passionate, with a generous supply of the tenor player's famous screeching rhetoric, and kora virtuoso Foday Musa Suso shows up on "Kumba" with a touch of village Gambian music. This resurrection will quicken the pulse of many an old Pharoah fan.
Track List
01. Our Roots (Began In Africa) (10:21)
02. Nozipho (9:43)
03. Tomoki (6:26)
04. Ocean Song (8:49)
05. Kumba (7:50) Written-By - F. M. Suso*
06. Country Mile (6:03)

musicians
Pharoah Sanders - tenor and soprano saxophones, flutes, bells, vocals, singing bowls
Charnett Moffett - acoustic bass
Steve Neil - bass
Hamid Drake - drums, tabla, frame drums, vocals
Dominic Kanza - guitar
Fanta Mangasuba, Fatumata Sako, Mariama Suso, Salie Suso - backing vocals
William Henderson - electric piano, piano, vocals
Jeff Bova - keyboards
Bernie Worrell - keyboards, vocals
Foday Musa Suso - kora, dousongonni, vocals
Aiyb Dieng - percussion (chatan), congas, bells, gong, vocals
Michael White - violin on 2

Produced by Bill Laswell


EAC extraction logfile from 29. August 2007, 20:25 for CD
Pharoah Sanders / Message From Home

Used drive : TOSHIBA DVD-ROM SD-M1612 Adapter: 1 ID: 0
Read mode : Secure with NO C2, accurate stream, disable cache
Read offset correction : -472
Overread into Lead-In and Lead-Out : No

Used output format : C:\Program Files\Exact Audio Copy\flac.exe (User Defined Encoder)
224 kBit/s
Additional command line options : -8 -V -T "artist=%a" -T "title=%t" -T "album=%g" -T "date=%y" -T "tracknumber=%n" -T "genre=%m" %s

Other options :
Fill up missing offset samples with silence : Yes
Delete leading and trailing silent blocks : No
Native Win32 interface for Win NT & 2000


Track 1
Filename C:\Seed\Pharoah Sanders - Message From Home\01 - Our Roots (Began in Africa).wav

Pre-gap length 0:00:02.32

Peak level 98.5 %
Track quality 99.9 %
Test CRC CE29BADE
Copy CRC CE29BADE
Copy OK

Track 2
Filename C:\Seed\Pharoah Sanders - Message From Home\02 - Nozipho.wav

Peak level 97.3 %
Track quality 99.9 %
Test CRC 3D66CBB6
Copy CRC FEFD571D
Copy OK

Track 3
Filename C:\Seed\Pharoah Sanders - Message From Home\03 - Tomoki.wav

Peak level 98.7 %
Track quality 100.0 %
Test CRC 49EBDAEE
Copy CRC 49EBDAEE
Copy OK

Track 4
Filename C:\Seed\Pharoah Sanders - Message From Home\04 - Ocean Song.wav

Peak level 80.3 %
Track quality 100.0 %
Test CRC 1243CFBE
Copy CRC 1243CFBE
Copy OK

Track 5
Filename C:\Seed\Pharoah Sanders - Message From Home\05 - Kumba.wav

Pre-gap length 0:00:00.01

Peak level 98.8 %
Track quality 99.9 %
Test CRC 58017753
Copy CRC 58017753
Copy OK

Track 6
Filename C:\Seed\Pharoah Sanders - Message From Home\06 - Country Mile.wav

Pre-gap length 0:00:00.01

Peak level 88.9 %
Track quality 100.0 %
Test CRC 86B04627
Copy CRC 86B04627
Copy OK

No errors occured


End of status report


––––––––––––––––––––––––––––––––––––––––
Analyzed: Pharoah Sanders / Message From Home
––––––––––––––––––––––––––––––––––––––––

DR Peak RMS Duration Track
––––––––––––––––––––––––––––––––––––––––
DR13 -0.13 dB -14.76 dB 10:21 01-Our Roots (Began in Africa)
DR12 -0.23 dB -14.47 dB 9:43 02-Nozipho
DR13 -0.11 dB -14.03 dB 6:26 03-Tomoki
DR12 -1.90 dB -18.59 dB 8:49 04-Ocean Song
DR14 -0.10 dB -15.99 dB 7:50 05-Kumba
DR12 -1.02 dB -14.85 dB 6:03 06-Country Mile
––––––––––––––––––––––––––––––––––––––––

Number of tracks: 6
Official DR value: DR12

Samplerate: 44100 Hz
Channels: 2
Bits per sample: 16
Bitrate: 832 kbps
Codec: FLAC
================================================================================

Pharoah Sanders - Message From Home (1996) {Verve}
Pharoah Sanders - Message From Home (1996) {Verve}
Pharoah Sanders - Message From Home (1996) {Verve}


Thanks to the original ripper