Subcategories

Phil Keaggy Band - Emerging (1977) [2000 Re-issued as Re-Emerging]

Posted By: Andi_Deris
Phil Keaggy Band - Emerging (1977) [2000 Re-issued as Re-Emerging]

Phil Keaggy Band - Emerging (1977) [2000 Re-issued as Re-Emerging]
EAC Rip | FLAC: Tracks+Cue+Log | 363 Mb | MP3 CBR 320 kbps | 147 Mb | Scans | 120 Mb | Time: 50:18
Canis Major | 0007-2
Soft Rock, Jazz-Rock, Contemporary Christian

Re-Emerging, Keaggy's first album of the new millennium, came out in April 2000. The disc was a reunion of the Phil Keaggy Band in which they updated their classic 1977 album, Emerging. With the exception of "Gentle Eyes", Re-Emerging retained the material from the original album and also introduced four brand new tracks: "My Auburn Lady", "Mighty Lord", "You're My Hero", and "Amelia Earhart's Last Flight".

Phil Keaggy Band - Emerging (1977) [2000 Re-issued as Re-Emerging]




Track Listing

01. Theme (01:27)
02. Where Is My Maker (03:53)
03. Another Try (04:59)
04. Ryan's Song (03:10)
05. Struck By The Love (05:46)
06. Turned On The Light (04:58)
07. Sorry (04:13)
08. Take A Look Around (05:21)
09. My Auburn Lady * (04:26)
10. Mighty Lord * (04:44)
11. You're My Hero * (04:05)
12. Amelia Earhart's Last Flight * (03:17)

Produced by Peter K. Hopper with Phil Keaggy

The Band

• Dan Cunningham - bass, vocals (CD reissue only)
• Lynn Nichols - vocals, electric guitar, acoustic guitar (lead on "Struck by the Love"), classical guitar
• Phil Keaggy - vocals, lead electric and acoustic guitar
• Phil Madeira - vocals, piano, Hammond organ, Fender Rhodes, Micromoog and Polymoog synths
• Terry Andersen - drums, vocals (CD reissue only)

Additional musicians
• Karl Fruh - Cello on "Another Try"
• Ray Papai - Sax on "Sorry"

Notes

* New Tracks
Remastered By John August Schroeter*, Paul Schwotzer


Exact Audio Copy V0.99 prebeta 5 from 4. May 2009

EAC extraction logfile from 15. April 2011, 13:38

Phil Keaggy Band / Re-Emerging (US Canis Major 0007-2)

Used drive : ATAPI DVD D DH16D2S Adapter: 3 ID: 0

Read mode : Secure
Utilize accurate stream : Yes
Defeat audio cache : Yes
Make use of C2 pointers : No

Read offset correction : 6
Overread into Lead-In and Lead-Out : No
Fill up missing offset samples with silence : Yes
Delete leading and trailing silent blocks : No
Null samples used in CRC calculations : Yes
Used interface : Native Win32 interface for Win NT & 2000
Gap handling : Appended to previous track

Used output format : User Defined Encoder
Selected bitrate : 1024 kBit/s
Quality : High
Add ID3 tag : No
Command line compressor : C:\Program Files\Exact Audio Copy\FLAC\FLAC.EXE
Additional command line options : -8 -V -T "ARTIST=%a" -T "TITLE=%t" -T "ALBUM=%g" -T "DATE=%y" -T "TRACKNUMBER=%n" -T "GENRE=%m" -T "COMMENT=%e" %s -o %d


TOC of the extracted CD

Track | Start | Length | Start sector | End sector
––––––––––––––––––––––––––––-
1 | 0:00.00 | 1:27.20 | 0 | 6544
2 | 1:27.20 | 3:52.52 | 6545 | 23996
3 | 5:19.72 | 4:58.52 | 23997 | 46398
4 | 10:18.49 | 3:10.07 | 46399 | 60655
5 | 13:28.56 | 5:45.38 | 60656 | 86568
6 | 19:14.19 | 4:57.57 | 86569 | 108900
7 | 24:12.01 | 4:12.36 | 108901 | 127836
8 | 28:24.37 | 5:20.42 | 127837 | 151878
9 | 33:45.04 | 4:26.03 | 151879 | 171831
10 | 38:11.07 | 4:43.65 | 171832 | 193121
11 | 42:54.72 | 4:04.73 | 193122 | 211494
12 | 46:59.70 | 3:17.19 | 211495 | 226288


Track 1

Filename D:\Y\y\01 Theme.wav

Pre-gap length 0:00:02.00

Peak level 96.6 %
Track quality 100.0 %
Test CRC 66A97CF3
Copy CRC 66A97CF3
Copy OK

Track 2

Filename D:\Y\y\02 Where Is My Maker.wav

Peak level 96.6 %
Track quality 100.0 %
Test CRC 7BE6AE49
Copy CRC 7BE6AE49
Copy OK

Track 3

Filename D:\Y\y\03 Another Try.wav

Peak level 96.6 %
Track quality 100.0 %
Test CRC CED354EB
Copy CRC CED354EB
Copy OK

Track 4

Filename D:\Y\y\04 Ryan's Song.wav

Peak level 86.8 %
Track quality 100.0 %
Test CRC 1A1447FF
Copy CRC 1A1447FF
Copy OK

Track 5

Filename D:\Y\y\05 Struck By The Love.wav

Peak level 96.6 %
Track quality 100.0 %
Test CRC 76A2489D
Copy CRC 76A2489D
Copy OK

Track 6

Filename D:\Y\y\06 Turned On The Light.wav

Peak level 96.6 %
Track quality 100.0 %
Test CRC 8305FECC
Copy CRC 8305FECC
Copy OK

Track 7

Filename D:\Y\y\07 Sorry.wav

Peak level 96.6 %
Track quality 100.0 %
Test CRC B9383BF4
Copy CRC B9383BF4
Copy OK

Track 8

Filename D:\Y\y\08 Take A Look Around.wav

Peak level 96.6 %
Track quality 100.0 %
Test CRC D9FF7E2B
Copy CRC D9FF7E2B
Copy OK

Track 9

Filename D:\Y\y\09 My Auburn Lady.wav

Peak level 54.3 %
Track quality 100.0 %
Test CRC FE200E98
Copy CRC FE200E98
Copy OK

Track 10

Filename D:\Y\y\10 Mighty Lord.wav

Peak level 86.1 %
Track quality 100.0 %
Test CRC 1E928F06
Copy CRC 1E928F06
Copy OK

Track 11

Filename D:\Y\y\11 You're My Hero.wav

Peak level 76.7 %
Track quality 100.0 %
Test CRC 27D1FD71
Copy CRC 27D1FD71
Copy OK

Track 12

Filename D:\Y\y\12 Amelia Earhart's Last Flight.wav

Peak level 60.2 %
Track quality 99.9 %
Test CRC E9C547D9
Copy CRC E9C547D9
Copy OK

No errors occurred

End of status report


Many thanks to the original uploader: neytiri_navi




Glass Harp 1970 Glass Harp [Remastered, 2005]
Glass Harp 1971 Synergy [Remastered, 2005]
Glass Harp 1972 It Makes Me Glad [Remastered, 2005]
Glass Harp 1997 Live! At Carnegie Hall
Glass Harp 2001 Strings Attached [Live] 2CD
Glass Harp 2003 Hourglass
Glass Harp 2004 Stark Raving Jams [Live] 3CD
Glass Harp 2010 Live At The Beachland Ballroom 11.01.08

Greg X. Volz 1986 The River Is Rising
Greg X. Volz 1988 Come Out Fighting
Greg X. Volz 1989 No Room In The Middle
Greg X. Volz 1991 The Exodus

Halo 1990 Halo / 1991 Heaven Calling

John Elefante - Discography (1995-2013)

John Schlitt 1995 Shake
John Schlitt 2012 The Greater Cause

Mastedon - Discography (1989-2009)

Petra 1974 Petra [Reissue 1992]
Petra 1977 Come And Join Us [Reissue 1995]
Petra 1979 Washes Whiter Than / 1981 Never Say Die [Reissue 1988]
Petra 1982 More Power To Ya
Petra 1983 Not Of This World
Petra 1984 Beat The System
Petra 1986 Captured In Time And Space (Live)
Petra 1986 Captured In Time And Space (Live) [DVD]
Petra 1986 Back To The Street
Petra 1987 This Means War!
Petra 1988 On Fire!
Petra 1989 Petra Means Rock [Compilation]
Petra 1989 Petra Praise… The Rock Cries Out
Petra 1990 Beyond Belief
Petra 1990 Beyond Belief [DVD]
Petra 1991 Unseen Power
Petra 1993 Wake-Up Call
Petra 1995 No Doubt
Petra 1997 Petra Praise 2: We Need Jesus
Petra 1998 God Fixation
Petra 2000 Double Take
Petra 2001 Revival
Petra 2003 Jekyll & Hyde
Petra 2003 The Power Of Praise [Compilation]
Petra 2006 Farewell [DVD]
II Guys From Petra 2007 Vertical Expressions
Classic Petra 2010 Back To The Rock

V.A. 1996 Never Say Dinosaur - Tribute To Petra




Password: pass