Subcategories

Phil Keaggy - Getting Closer (1985) [Reissue 1998]

Posted By: Andi_Deris
Phil Keaggy - Getting Closer (1985) [Reissue 1998]

Phil Keaggy - Getting Closer (1985) [Reissue 1998]
EAC Rip | FLAC: Tracks+Cue+Log | 392 Mb | MP3 CBR 320 kbps | 145 Mb | Scans | 87 Mb | Time: 52:24
Canis Major | 0004-2
Soft Rock, Contemporary Christian, Guitar Virtuoso

Phil Keaggy's Getting Closer, released after his first Private Collection installment, is a disunified piece of work; it is musically adventurous in places and reminiscent of great guitarists (notably Pat Metheny). "Sounds" showcases Keaggy's guitar work and includes a reference to Glass Harp's "Can You See Me." Other highlights include "Passport" and the quirky title track. "Where Has Our Love Gone" critiques the American consciousness as uncompassionate and slips a pro-life jab in there as well. "Riverton" features some interesting off-center guitar work, but is backed up by a very dated drum machine which to contemporary ears is abrasive at best. Also recorded here is the original version of "I Will Be There" (later recorded for his Crimson & Blue album); this version is less anthemic and more emotive, and unlike the newer version is in 7/4 time. Frankly, the great moments on this record – which comprise 90 percent of it – are absolutely amazing and make it definitely worth the cost of admission.

Phil Keaggy - Getting Closer (1985) [Reissue 1998]




Track Listing

01. Look Deep Inside (05:56)
02. Where Has Our Love Gone (03:15)
03. Movie (05:02)
04. Like An Island (03:53)
05. Riverton (03:58)
06. Sounds (06:09)
07. Get Up And Go (bonus track) (02:46)
08. Passport (04:17)
09. Getting Closer (04:12)
10. Sunrise (bonus track) (03:20)
11. I Will Be There (05:05)
12. Reaching Out (04:33)

Produced by Smitty Price and Phil Keaggy

Personnel

• Phil Keaggy - guitars, bass, E-mu Drumulator programming and vocals
• Smitty Price - keyboards and LinnDrum programming
• John Patitucci - bass guitar on "Sounds", "Passport", and "I Will Be There"
• Dave Spurr - drums on "Sounds", "Passport", and "I Will Be There"
• Richard Souther - keyboards on "Riverton"
• Rhett Lawrence - Fairlight synthesizer programming
• John Mehler - background vocals on "Movie"
• Jim Keltner - drums on "Sunrise" (CD reissue only)
• Bernadette Keaggy - spoken voice on "Get Up and Go" (CD reissue only)

Notes

1998 CD Reissue Of 1985 Nissi LP (EMR 4605) With Different Cover Art (Colorized Version Of Photo On Original Album Insert), Re-arranged Song Order And Two Otherwise Unreleased Bonus Tracks ("Get Up And Go" and "Sunrise") From The Same Era.

Exact Audio Copy V0.99 prebeta 5 from 4. May 2009

EAC extraction logfile from 24. February 2011, 17:37

Phil Keaggy / Getting Closer (2000 US Canis Major 0004-2)

Used drive : ATAPI DVD D DH16D2S Adapter: 3 ID: 0

Read mode : Secure
Utilize accurate stream : Yes
Defeat audio cache : Yes
Make use of C2 pointers : No

Read offset correction : 6
Overread into Lead-In and Lead-Out : No
Fill up missing offset samples with silence : Yes
Delete leading and trailing silent blocks : No
Null samples used in CRC calculations : Yes
Used interface : Native Win32 interface for Win NT & 2000
Gap handling : Appended to previous track

Used output format : User Defined Encoder
Selected bitrate : 1024 kBit/s
Quality : High
Add ID3 tag : No
Command line compressor : C:\Program Files\Exact Audio Copy\FLAC\FLAC.EXE
Additional command line options : -8 -V -T "ARTIST=%a" -T "TITLE=%t" -T "ALBUM=%g" -T "DATE=%y" -T "TRACKNUMBER=%n" -T "GENRE=%m" -T "COMMENT=%e" %s -o %d


TOC of the extracted CD

Track | Start | Length | Start sector | End sector
––––––––––––––––––––––––––––-
1 | 0:00.00 | 5:56.32 | 0 | 26731
2 | 5:56.32 | 3:14.69 | 26732 | 41350
3 | 9:11.26 | 5:01.44 | 41351 | 63969
4 | 14:12.70 | 3:52.36 | 63970 | 81405
5 | 18:05.31 | 3:57.41 | 81406 | 99221
6 | 22:02.72 | 6:08.42 | 99222 | 126863
7 | 28:11.39 | 2:46.02 | 126864 | 139315
8 | 30:57.41 | 4:16.51 | 139316 | 158566
9 | 35:14.17 | 4:11.36 | 158567 | 177427
10 | 39:25.53 | 3:19.63 | 177428 | 192415
11 | 42:45.41 | 5:04.70 | 192416 | 215285
12 | 47:50.36 | 4:32.71 | 215286 | 235756


Track 1

Filename D:\Y\y\01 Look Deep Inside.wav

Pre-gap length 0:00:02.00

Peak level 96.6 %
Track quality 100.0 %
Test CRC 81B42814
Copy CRC 81B42814
Copy OK

Track 2

Filename D:\Y\y\02 Where Has Our Love Gone.wav

Pre-gap length 0:00:01.45

Peak level 96.6 %
Track quality 99.9 %
Test CRC 116FC731
Copy CRC 116FC731
Copy OK

Track 3

Filename D:\Y\y\03 Movie.wav

Pre-gap length 0:00:00.44

Peak level 96.6 %
Track quality 100.0 %
Test CRC 201F3DC4
Copy CRC 201F3DC4
Copy OK

Track 4

Filename D:\Y\y\04 Like An Island.wav

Pre-gap length 0:00:00.45

Peak level 76.7 %
Track quality 100.0 %
Test CRC 2CF56BAC
Copy CRC 2CF56BAC
Copy OK

Track 5

Filename D:\Y\y\05 Riverton.wav

Pre-gap length 0:00:01.45

Peak level 96.6 %
Track quality 100.0 %
Test CRC E876CEC0
Copy CRC E876CEC0
Copy OK

Track 6

Filename D:\Y\y\06 Sounds.wav

Pre-gap length 0:00:00.45

Peak level 76.7 %
Track quality 100.0 %
Test CRC E91102D9
Copy CRC E91102D9
Copy OK

Track 7

Filename D:\Y\y\07 Get Up And Go (bonus track).wav

Pre-gap length 0:00:01.45

Peak level 96.6 %
Track quality 99.9 %
Test CRC 55FF9858
Copy CRC 55FF9858
Copy OK

Track 8

Filename D:\Y\y\08 Passport.wav

Pre-gap length 0:00:01.45

Peak level 96.6 %
Track quality 99.9 %
Test CRC EFA4B0DB
Copy CRC EFA4B0DB
Copy OK

Track 9

Filename D:\Y\y\09 Getting Closer.wav

Pre-gap length 0:00:01.45

Peak level 96.6 %
Track quality 100.0 %
Test CRC 163B3E25
Copy CRC 163B3E25
Copy OK

Track 10

Filename D:\Y\y\10 Sunrise (bonus track).wav

Pre-gap length 0:00:01.45

Peak level 96.6 %
Track quality 100.0 %
Test CRC A5C4FDEA
Copy CRC A5C4FDEA
Copy OK

Track 11

Filename D:\Y\y\11 I Will Be There.wav

Pre-gap length 0:00:01.44

Peak level 96.6 %
Track quality 100.0 %
Test CRC DDAD9BBE
Copy CRC DDAD9BBE
Copy OK

Track 12

Filename D:\Y\y\12 Reaching Out.wav

Pre-gap length 0:00:03.45

Peak level 86.8 %
Track quality 99.9 %
Test CRC 990FE28B
Copy CRC 990FE28B
Copy OK

No errors occurred

End of status report


Many thanks to the original uploader: neytiri_navi



Glass Harp 1970 Glass Harp [Remastered, 2005]
Glass Harp 1971 Synergy [Remastered, 2005]
Glass Harp 1972 It Makes Me Glad [Remastered, 2005]
Glass Harp 1997 Live! At Carnegie Hall
Glass Harp 2001 Strings Attached [Live] 2CD
Glass Harp 2003 Hourglass
Glass Harp 2004 Stark Raving Jams [Live] 3CD
Glass Harp 2010 Live At The Beachland Ballroom 11.01.08

Greg X. Volz 1986 The River Is Rising
Greg X. Volz 1988 Come Out Fighting
Greg X. Volz 1989 No Room In The Middle
Greg X. Volz 1991 The Exodus

Halo 1990 Halo / 1991 Heaven Calling

John Elefante - Discography (1995-2013)

John Schlitt 1995 Shake
John Schlitt 2012 The Greater Cause

Mastedon - Discography (1989-2009)

Petra 1974 Petra [Reissue 1992]
Petra 1977 Come And Join Us [Reissue 1995]
Petra 1979 Washes Whiter Than / 1981 Never Say Die [Reissue 1988]
Petra 1982 More Power To Ya
Petra 1983 Not Of This World
Petra 1984 Beat The System
Petra 1986 Captured In Time And Space (Live)
Petra 1986 Captured In Time And Space (Live) [DVD]
Petra 1986 Back To The Street
Petra 1987 This Means War!
Petra 1988 On Fire!
Petra 1989 Petra Means Rock [Compilation]
Petra 1989 Petra Praise… The Rock Cries Out
Petra 1990 Beyond Belief
Petra 1990 Beyond Belief [DVD]
Petra 1991 Unseen Power
Petra 1993 Wake-Up Call
Petra 1995 No Doubt
Petra 1997 Petra Praise 2: We Need Jesus
Petra 1998 God Fixation
Petra 2000 Double Take
Petra 2001 Revival
Petra 2003 Jekyll & Hyde
Petra 2003 The Power Of Praise [Compilation]
Petra 2006 Farewell [DVD]
II Guys From Petra 2007 Vertical Expressions
Classic Petra 2010 Back To The Rock

V.A. 1996 Never Say Dinosaur - Tribute To Petra




Password: pass