Subcategories

Phil Keaggy - The Master And The Musician (1978) [30th Anniversary Ed. 2007] 2CD

Posted By: Andi_Deris
Phil Keaggy - The Master And The Musician (1978) [30th Anniversary Ed. 2007] 2CD

Phil Keaggy - The Master And The Musician (1978) [30th Anniversary Ed. 2007] 2CD
EAC Rip | FLAC: Tracks+Cue+Log | 618 Mb | MP3 CBR 320 kbps | 328 Mb | Scans | 120 Mb | TTime: 02:07:46
Strobie Records | 897641001134
Chamber Folk, Contemporary Christian, Guitar Virtuoso

The Master and the Musician is the title of the first entirely instrumental album by guitarist Phil Keaggy, released in 1978, on NewSong Records. It was later reissued, with a bonus track, on Myrrh Records in 1989. Phil Keaggy's first instrumental album is a groundbreaking piece of work for him as an artist, for the Christian music genre, and for instrumental guitar music in general. Full of emotional twists, meditative sounds, and world-influenced tonalities, The Master & the Musician stands as an oasis in an otherwise barren field of Christian instrumental music. Pieces like "Jungle Pleasures" and "Follow Me Up" are great works in their own right, Christian or otherwise. An excellent work from an excellent musician. Strobie's 2007, 30th Anniversary Edition included a 29-track bonus disc.

Phil Keaggy - The Master And The Musician (1978) [30th Anniversary Ed. 2007] 2CD




Phil Keaggy - The Master And The Musician (1978) [30th Anniversary Ed. 2007] 2CD


Disc 1
48:53

01. Piligrim's Flight (02:23)
02. Agora (The Marketplace) (03:29)
03. The Castle's Call (00:48)
04. Wedding In The Cuontry Manor (03:21)
05. Suite-Of Reflections (05:47)
06. Golden Halls (05:09)
07. Mouthpiece (01:17)
08. Follow Me Up (04:05)
09. Jungle Pleasures (00:59)
10. Deep Calls Unto Deep (03:55)
11. Medley: Evensong / Twilight / Forever Joy (07:07)
12. The High And Exalted One (01:50)
13. Epilogue / Amazing Grace (08:41)

Phil Keaggy - The Master And The Musician (1978) [30th Anniversary Ed. 2007] 2CD


Disc 2
01:18:56

01. Piligrim's Flight-outtake (01:48)
02. Commentary On Master and The Musician (01:57)
03. Commentary On Master and The Musician (02:02)
04. Commentary On Master and The Musician (00:42)
05. Commentary On Master and The Musician (02:31)
06. Commentary On Master and The Musician (02:22)
07. Commentary On Master and The Musician (01:51)
08. Commentary On Master and The Musician (01:06)
09. Commentary On Master and The Musician (01:57)
10. Commentary On Master and The Musician (00:49)
11. Commentary On Master and The Musician (02:55)
12. Commentary On Master and The Musician (02:04)
13. Commentary On Master and The Musician (01:50)
14. Commentary On Master and The Musician (03:37)
15. Is It Running, Bro? (01:21)
16. Blue Likes Jazz (00:44)
17. The King's Eye (01:58)
18. Deepness (02:47)
19. Deeper Still (01:39)
20. Finding A Moment (03:32)
21. A Samber Note (04:19)
22. Rise Up O Muso (00:36)
23. Interview with Gary Hedden (07:46)
24. Suite Of Reflections: front L-R mix (05:55)
25. Suite Of Reflections: rear L-R mix (05:55)
26. Forever Joy: front L-R mix (02:15)
27. Forever Joy: rear L-R mix (02:15)
28. Deep Calls Unto Deep: front L-R mix (05:12)
29. Deep Calls Unto Deep: rear L-R mix (05:10)

Produced by Phil Keaggy

Personnel

• Phil Keaggy: all guitars, bass, ARP bass synth, drums, percussion and voices
• Bernadette Keaggy: voices
• Tom Baker: bass on "Agora (The Marketplace)"
• Nick Kircher: recorders and oboe on "Deep Calls Unto Deep"
• Philip Kimbrough: recorders on "Medley"
• Peter Pfiefer: percussion on "Epilogue"
• Jim Issacs: oboe on "Epilogue"
• Tom Fryer: keyboards on "Agora", "Suite", "Golden Halls", and "The High and Exalted One"
• Susan Kircher: flute on "The Castle's Call", and "Wedding in the Country Manor"

Notes

Reissue, Remastered, Special Edition, Digipak

Tracks 1-12 & all bonus tracks written by Phil Keaggy ℗ & © 2007 Sebastian Boy Music (ASCAP)
recorded at Hedden West Studio, Schaumburg, IL June-August 1978
engineered by Gary Hedden and Mal Davis
Track 13 arranged by Phil Keaggy ℗ & © 2007 Sebastian Boy Music (ASCAP)
recorded at The Mixing Lab, Garden Grove, CA Feb 1989
engineered by Dave Jahnsen
Disc 2 commentary by Phil Keaggy. Interview with Gary Hedden-Engineer

Analog to digital transfers on Disc 1 at Master mix by Gary Hedden
Analog to digital transfers on Disc 2 outtakes by Steve Thomas
Digital mastering by Gary Hedden
Original photography by Chris Maggio © 1978
Additional photography Ian Keaggy © 2007


Exact Audio Copy V1.0 beta 2 from 29. April 2011

EAC extraction logfile from 20. July 2011, 10:07

Phil Keaggy / The Master And The Musician (30th Anniversary Edition)

Used drive : ATAPI DVD D DH16D2S Adapter: 3 ID: 0

Read mode : Secure
Utilize accurate stream : Yes
Defeat audio cache : Yes
Make use of C2 pointers : No

Read offset correction : 6
Overread into Lead-In and Lead-Out : No
Fill up missing offset samples with silence : Yes
Delete leading and trailing silent blocks : No
Null samples used in CRC calculations : Yes
Used interface : Native Win32 interface for Win NT & 2000
Gap handling : Appended to previous track

Used output format : User Defined Encoder
Selected bitrate : 768 kBit/s
Quality : High
Add ID3 tag : No
Command line compressor : C:\Program Files\Exact Audio Copy\FLAC\FLAC.EXE
Additional command line options : -8 -V -T "ARTIST=%artist%" -T "TITLE=%title%" -T "ALBUM=%albumtitle%" -T "DATE=%year%" -T "TRACKNUMBER=%tracknr%" -T "GENRE=%genre%" -T "COMMENT=%comment%" -T "BAND=%albuminterpret%" -T "COMPOSER=%composer%" %haslyrics%–ta


TOC of the extracted CD

Track | Start | Length | Start sector | End sector
––––––––––––––––––––––––––––-
1 | 0:00.00 | 2:22.62 | 0 | 10711
2 | 2:22.62 | 3:28.74 | 10712 | 26385
3 | 5:51.61 | 0:48.05 | 26386 | 29990
4 | 6:39.66 | 3:20.74 | 29991 | 45064
5 | 10:00.65 | 5:47.10 | 45065 | 71099
6 | 15:48.00 | 5:08.65 | 71100 | 94264
7 | 20:56.65 | 1:17.25 | 94265 | 100064
8 | 22:14.15 | 4:05.13 | 100065 | 118452
9 | 26:19.28 | 0:58.65 | 118453 | 122867
10 | 27:18.18 | 3:55.08 | 122868 | 140500
11 | 31:13.26 | 7:07.22 | 140501 | 172547
12 | 38:20.48 | 1:50.13 | 172548 | 180810
13 | 40:10.61 | 8:41.29 | 180811 | 219914


Track 1

Filename C:\mp3\01 Piligrim's Flight.wav

Pre-gap length 0:00:02.00

Peak level 66.4 %
Extraction speed 4.6 X
Track quality 100.0 %
Test CRC 83EB2521
Copy CRC 83EB2521
Copy OK

Track 2

Filename C:\mp3\02 Agora (The Marketplace).wav

Peak level 82.7 %
Extraction speed 5.3 X
Track quality 100.0 %
Test CRC 49B72329
Copy CRC 49B72329
Copy OK

Track 3

Filename C:\mp3\03 The Castle's Call.wav

Peak level 37.0 %
Extraction speed 3.6 X
Track quality 100.0 %
Test CRC 7AAA317E
Copy CRC 7AAA317E
Copy OK

Track 4

Filename C:\mp3\04 Wedding In The Cuontry Manor.wav

Peak level 69.7 %
Extraction speed 5.8 X
Track quality 100.0 %
Test CRC 9327B9BC
Copy CRC 9327B9BC
Copy OK

Track 5

Filename C:\mp3\05 Suite-Of Reflections.wav

Peak level 80.5 %
Extraction speed 6.8 X
Track quality 100.0 %
Test CRC C6F3AECF
Copy CRC C6F3AECF
Copy OK

Track 6

Filename C:\mp3\06 Golden Halls.wav

Peak level 92.1 %
Extraction speed 7.4 X
Track quality 100.0 %
Test CRC C68EB271
Copy CRC C68EB271
Copy OK

Track 7

Filename C:\mp3\07 Mouthpiece.wav

Peak level 63.7 %
Extraction speed 4.0 X
Track quality 99.8 %
Test CRC D9AE9A55
Copy CRC D9AE9A55
Copy OK

Track 8

Filename C:\mp3\08 Follow Me Up.wav

Peak level 90.4 %
Extraction speed 7.8 X
Track quality 100.0 %
Test CRC 7FB3148F
Copy CRC 7FB3148F
Copy OK

Track 9

Filename C:\mp3\09 Jungle Pleasures.wav

Peak level 78.3 %
Extraction speed 5.6 X
Track quality 100.0 %
Test CRC 05AC034D
Copy CRC 05AC034D
Copy OK

Track 10

Filename C:\mp3\10 Deep Calls Unto Deep.wav

Peak level 83.6 %
Extraction speed 8.2 X
Track quality 100.0 %
Test CRC CE600816
Copy CRC CE600816
Copy OK

Track 11

Filename C:\mp3\11 Medley- Evensong , Twilight , Forever Joy.wav

Peak level 99.5 %
Extraction speed 8.4 X
Track quality 99.9 %
Test CRC 0B078AF3
Copy CRC 0B078AF3
Copy OK

Track 12

Filename C:\mp3\12 The High And Exalted One.wav

Peak level 73.7 %
Extraction speed 7.7 X
Track quality 100.0 %
Test CRC 6A3295C6
Copy CRC 6A3295C6
Copy OK

Track 13

Filename C:\mp3\13 Epilogue , Amazing Grace.wav

Peak level 52.1 %
Extraction speed 10.2 X
Track quality 100.0 %
Test CRC 665A01B1
Copy CRC 665A01B1
Copy OK

No errors occurred

End of status report

==== Log checksum BC0F68A412DAEE1FD0E141ABA63A05C8F70EC5F02B9F232C87076A532335BD28 ====

Exact Audio Copy V1.0 beta 2 from 29. April 2011

EAC extraction logfile from 20. July 2011, 11:58

Phil Keaggy / The Master And The Musician (30th Anniversary Edition)

Used drive : ATAPI DVD D DH16D2S Adapter: 3 ID: 0

Read mode : Secure
Utilize accurate stream : Yes
Defeat audio cache : Yes
Make use of C2 pointers : No

Read offset correction : 6
Overread into Lead-In and Lead-Out : No
Fill up missing offset samples with silence : Yes
Delete leading and trailing silent blocks : No
Null samples used in CRC calculations : Yes
Used interface : Native Win32 interface for Win NT & 2000
Gap handling : Appended to previous track

Used output format : User Defined Encoder
Selected bitrate : 768 kBit/s
Quality : High
Add ID3 tag : No
Command line compressor : C:\Program Files\Exact Audio Copy\FLAC\FLAC.EXE
Additional command line options : -8 -V -T "ARTIST=%artist%" -T "TITLE=%title%" -T "ALBUM=%albumtitle%" -T "DATE=%year%" -T "TRACKNUMBER=%tracknr%" -T "GENRE=%genre%" -T "COMMENT=%comment%" -T "BAND=%albuminterpret%" -T "COMPOSER=%composer%" %haslyrics%–ta


TOC of the extracted CD

Track | Start | Length | Start sector | End sector
––––––––––––––––––––––––––––-
1 | 0:00.00 | 1:47.57 | 0 | 8081
2 | 1:47.57 | 1:56.70 | 8082 | 16851
3 | 3:44.52 | 2:01.73 | 16852 | 25999
4 | 5:46.50 | 0:41.37 | 26000 | 29111
5 | 6:28.12 | 2:30.56 | 29112 | 40417
6 | 8:58.68 | 2:22.22 | 40418 | 51089
7 | 11:21.15 | 1:51.05 | 51090 | 59419
8 | 13:12.20 | 1:05.63 | 59420 | 64357
9 | 14:18.08 | 1:56.40 | 64358 | 73097
10 | 16:14.48 | 0:48.64 | 73098 | 76761
11 | 17:03.37 | 2:55.06 | 76762 | 89892
12 | 19:58.43 | 2:03.70 | 89893 | 99187
13 | 22:02.38 | 1:50.08 | 99188 | 107445
14 | 23:52.46 | 3:37.28 | 107446 | 123748
15 | 27:29.74 | 1:20.40 | 123749 | 129788
16 | 28:50.39 | 0:43.68 | 129789 | 133081
17 | 29:34.32 | 1:58.26 | 133082 | 141957
18 | 31:32.58 | 2:47.28 | 141958 | 154510
19 | 34:20.11 | 1:38.48 | 154511 | 161908
20 | 35:58.59 | 3:31.64 | 161909 | 177797
21 | 39:30.48 | 4:19.06 | 177798 | 197228
22 | 43:49.54 | 0:36.15 | 197229 | 199943
23 | 44:25.69 | 7:45.62 | 199944 | 234880
24 | 52:11.56 | 5:54.71 | 234881 | 261501
25 | 58:06.52 | 5:54.70 | 261502 | 288121
26 | 64:01.47 | 2:15.20 | 288122 | 298266
27 | 66:16.67 | 2:15.20 | 298267 | 308411
28 | 68:32.12 | 5:11.64 | 308412 | 331800
29 | 73:44.01 | 5:09.68 | 331801 | 355043


Track 1

Filename C:\mp3\01 Piligrim's Flight-outtake.wav

Pre-gap length 0:00:02.00

Peak level 97.7 %
Extraction speed 1.7 X
Track quality 100.0 %
Test CRC 8821BD2D
Copy CRC 8821BD2D
Copy OK

Track 2

Filename C:\mp3\02 Commentary On Master and The Musician.wav

Peak level 43.1 %
Extraction speed 1.8 X
Track quality 100.0 %
Test CRC 0DCF5B2A
Copy CRC 0DCF5B2A
Copy OK

Track 3

Filename C:\mp3\03 Commentary On Master and The Musician.wav

Peak level 56.1 %
Extraction speed 1.9 X
Track quality 100.0 %
Test CRC 977F563A
Copy CRC 977F563A
Copy OK

Track 4

Filename C:\mp3\04 Commentary On Master and The Musician.wav

Peak level 38.8 %
Extraction speed 0.9 X
Track quality 99.7 %
Test CRC E979AD94
Copy CRC E979AD94
Copy OK

Track 5

Filename C:\mp3\05 Commentary On Master and The Musician.wav

Peak level 55.5 %
Extraction speed 1.8 X
Track quality 99.9 %
Test CRC 063E1055
Copy CRC 063E1055
Copy OK

Track 6

Filename C:\mp3\06 Commentary On Master and The Musician.wav

Peak level 57.1 %
Extraction speed 2.2 X
Track quality 100.0 %
Test CRC 2BE76465
Copy CRC 2BE76465
Copy OK

Track 7

Filename C:\mp3\07 Commentary On Master and The Musician.wav

Peak level 55.7 %
Extraction speed 2.2 X
Track quality 100.0 %
Test CRC CEA8478C
Copy CRC CEA8478C
Copy OK

Track 8

Filename C:\mp3\08 Commentary On Master and The Musician.wav

Peak level 84.7 %
Extraction speed 1.9 X
Track quality 100.0 %
Test CRC 2E18ADCE
Copy CRC 2E18ADCE
Copy OK

Track 9

Filename C:\mp3\09 Commentary On Master and The Musician.wav

Peak level 55.5 %
Extraction speed 1.9 X
Track quality 99.9 %
Test CRC E38DCADC
Copy CRC E38DCADC
Copy OK

Track 10

Filename C:\mp3\10 Commentary On Master and The Musician.wav

Peak level 57.0 %
Extraction speed 1.7 X
Track quality 100.0 %
Test CRC F9F43649
Copy CRC F9F43649
Copy OK

Track 11

Filename C:\mp3\11 Commentary On Master and The Musician.wav

Peak level 44.5 %
Extraction speed 2.6 X
Track quality 100.0 %
Test CRC 9DD63D1B
Copy CRC 9DD63D1B
Copy OK

Track 12

Filename C:\mp3\12 Commentary On Master and The Musician.wav

Peak level 54.4 %
Extraction speed 2.5 X
Track quality 100.0 %
Test CRC 4F1CB0ED
Copy CRC 4F1CB0ED
Copy OK

Track 13

Filename C:\mp3\13 Commentary On Master and The Musician.wav

Peak level 51.2 %
Extraction speed 2.5 X
Track quality 100.0 %
Test CRC E4B1254C
Copy CRC E4B1254C
Copy OK

Track 14

Filename C:\mp3\14 Commentary On Master and The Musician.wav

Peak level 51.7 %
Extraction speed 3.0 X
Track quality 100.0 %
Test CRC EBB66B8D
Copy CRC EBB66B8D
Copy OK

Track 15

Filename C:\mp3\15 Is It Running, Bro.wav

Peak level 97.7 %
Extraction speed 2.4 X
Track quality 100.0 %
Test CRC FDEC4A0B
Copy CRC FDEC4A0B
Copy OK

Track 16

Filename C:\mp3\16 Blue Likes Jazz.wav

Peak level 97.7 %
Extraction speed 1.9 X
Track quality 100.0 %
Test CRC 85AA364D
Copy CRC 85AA364D
Copy OK

Track 17

Filename C:\mp3\17 The King's Eye.wav

Peak level 78.0 %
Extraction speed 2.8 X
Track quality 100.0 %
Test CRC CDCF3AC7
Copy CRC CDCF3AC7
Copy OK

Track 18

Filename C:\mp3\18 Deepness.wav

Peak level 97.7 %
Extraction speed 3.0 X
Track quality 100.0 %
Test CRC BCDC2174
Copy CRC BCDC2174
Copy OK

Track 19

Filename C:\mp3\19 Deeper Still.wav

Peak level 97.7 %
Extraction speed 2.7 X
Track quality 100.0 %
Test CRC 3CD55CA5
Copy CRC 3CD55CA5
Copy OK

Track 20

Filename C:\mp3\20 Finding A Moment.wav

Peak level 97.7 %
Extraction speed 3.3 X
Track quality 100.0 %
Test CRC 7CA053FE
Copy CRC 7CA053FE
Copy OK

Track 21

Filename C:\mp3\21 A Samber Note.wav

Peak level 80.9 %
Extraction speed 3.6 X
Track quality 100.0 %
Test CRC 384A44C3
Copy CRC 384A44C3
Copy OK

Track 22

Filename C:\mp3\22 Rise Up O Muso.wav

Peak level 76.6 %
Extraction speed 1.3 X
Track quality 99.7 %
Test CRC 1580AAFA
Copy CRC 1580AAFA
Copy OK

Track 23

Filename C:\mp3\23 Interview with Gary Hedden.wav

Peak level 57.1 %
Extraction speed 4.0 X
Track quality 100.0 %
Test CRC 9C18479A
Copy CRC 9C18479A
Copy OK

Track 24

Filename C:\mp3\24 Suite Of Reflections- front L-R mix.wav

Peak level 97.7 %
Extraction speed 4.1 X
Track quality 100.0 %
Test CRC B35F9E88
Copy CRC B35F9E88
Copy OK

Track 25

Filename C:\mp3\25 Suite Of Reflections- rear L-R mix.wav

Peak level 87.0 %
Extraction speed 4.2 X
Track quality 100.0 %
Test CRC 510E3E8E
Copy CRC 510E3E8E
Copy OK

Track 26

Filename C:\mp3\26 Forever Joy- front L-R mix.wav

Peak level 65.4 %
Extraction speed 3.7 X
Track quality 100.0 %
Test CRC 3F0AF535
Copy CRC 3F0AF535
Copy OK

Track 27

Filename C:\mp3\27 Forever Joy- rear L-R mix.wav

Peak level 95.2 %
Extraction speed 3.7 X
Track quality 100.0 %
Test CRC 1B93A9EF
Copy CRC 1B93A9EF
Copy OK

Track 28

Filename C:\mp3\28 Deep Calls Unto Deep- front L-R mix.wav

Peak level 92.0 %
Extraction speed 4.4 X
Track quality 100.0 %
Test CRC 92CB0A2F
Copy CRC 92CB0A2F
Copy OK

Track 29

Filename C:\mp3\29 Deep Calls Unto Deep- rear L-R mix.wav

Peak level 97.7 %
Extraction speed 4.5 X
Track quality 100.0 %
Test CRC 5A210C1C
Copy CRC 5A210C1C
Copy OK

No errors occurred

End of status report

==== Log checksum AAA8C2E5C674AA69E5FAE8EB1CD34C18568292A0CFD9748F2BD106B32A023253 ====


Many thanks to the original uploader: neytiri_navi



Glass Harp 1970 Glass Harp [Remastered, 2005]
Glass Harp 1971 Synergy [Remastered, 2005]
Glass Harp 1972 It Makes Me Glad [Remastered, 2005]
Glass Harp 1997 Live! At Carnegie Hall
Glass Harp 2001 Strings Attached [Live] 2CD
Glass Harp 2003 Hourglass
Glass Harp 2004 Stark Raving Jams [Live] 3CD
Glass Harp 2010 Live At The Beachland Ballroom 11.01.08

Greg X. Volz 1986 The River Is Rising
Greg X. Volz 1988 Come Out Fighting
Greg X. Volz 1989 No Room In The Middle
Greg X. Volz 1991 The Exodus

Halo 1990 Halo / 1991 Heaven Calling

John Elefante - Discography (1995-2013)

John Schlitt 1995 Shake
John Schlitt 2012 The Greater Cause

Mastedon - Discography (1989-2009)

Petra 1974 Petra [Reissue 1992]
Petra 1977 Come And Join Us [Reissue 1995]
Petra 1979 Washes Whiter Than / 1981 Never Say Die [Reissue 1988]
Petra 1982 More Power To Ya
Petra 1983 Not Of This World
Petra 1984 Beat The System
Petra 1986 Captured In Time And Space (Live)
Petra 1986 Captured In Time And Space (Live) [DVD]
Petra 1986 Back To The Street
Petra 1987 This Means War!
Petra 1988 On Fire!
Petra 1989 Petra Means Rock [Compilation]
Petra 1989 Petra Praise… The Rock Cries Out
Petra 1990 Beyond Belief
Petra 1990 Beyond Belief [DVD]
Petra 1991 Unseen Power
Petra 1993 Wake-Up Call
Petra 1995 No Doubt
Petra 1997 Petra Praise 2: We Need Jesus
Petra 1998 God Fixation
Petra 2000 Double Take
Petra 2001 Revival
Petra 2003 Jekyll & Hyde
Petra 2003 The Power Of Praise [Compilation]
Petra 2006 Farewell [DVD]
II Guys From Petra 2007 Vertical Expressions
Classic Petra 2010 Back To The Rock

V.A. 1996 Never Say Dinosaur - Tribute To Petra




Password: pass