Subcategories

Phil Keaggy - The Wind And The Wheat (1987)

Posted By: Andi_Deris
Phil Keaggy - The Wind And The Wheat (1987)

Phil Keaggy - The Wind And The Wheat (1987)
EAC Rip | FLAC: Tracks+Cue+Log | 281 Mb | MP3 CBR 320 kbps | 137 Mb | Scans | 40 Mb | Time: 50:53
A&M Records, Inc. | CD 0758
New Age, Contemporary Christian, Guitar Virtuoso

The Wind and the Wheat is the title of a 1987 instrumental album by guitarist Phil Keaggy, released on Maranatha! Music's Colours imprint. Featured are several pieces of brilliant solo acoustic guitar, and the rest with a small group ensemble. The album won the 1988 GMA Dove Award for Instrumental Album of the Year.

"The Wind And The Wheat" showcases the amazing abilities of guitarist Phil Keaggy, who has the talent to express a variety of different emotions–even in one song. For example, in "March Of The Clouds" he starts with a single line, melodic lead which he expands into a rolling, crescendoing, overdubbed double lead. This builds into an explosion of astonishing, rapid fire, ascending leads. Then he follows with gentle volume swells that slowly bring you down as they roll into a classical style of chording and octaves which leads back to the original theme as the song fades. This instrumental offering not only netted great critical approval, it earned a Grammy nomination, as well. "The Wind And The Wheat" is a definite pick for the collection.

Phil Keaggy - The Wind And The Wheat (1987)




Track Listing

01. March Of The Clouds (05:27)
02. Paradise Dream (05:34)
03. The Wind And The Wheat (04:34)
04. Where Travelers Meat (06:37)
05. From Share To Share (03:07)
06. Prayer (04:24)
07. The Mission (05:02)
08. The Promise (04:33)
09. The Reunion (06:05)
10. I Love You Lord (05:30)

Produced by Tom Coomes and Phil Keaggy

Personnel

• Phil Keaggy - electric guitars, acoustic guitars, bass, electric mini-guitars, percussion, keyboards
• Jeffery Lams - keyboards, acoustic piano, synthesizers
• Alex Acuña - drums, percussion
• Dave Coy - bass, fretless bass
• Cheri Anderson - synthesizers
• Dave Spurr - drums
• Harlan Rogers - Rhodes piano, acoustic piano
• Smitty Price - synthesizers
• Ron Tutt - drums
• Alex MacDougall - percussion

Exact Audio Copy V0.99 prebeta 5 from 4. May 2009

EAC extraction logfile from 22. February 2011, 11:06

Phil Keaggy / The Wind And The Wheat (US A&M CD 0758)

Used drive : ATAPI DVD D DH16D2S Adapter: 3 ID: 0

Read mode : Secure
Utilize accurate stream : Yes
Defeat audio cache : Yes
Make use of C2 pointers : No

Read offset correction : 6
Overread into Lead-In and Lead-Out : No
Fill up missing offset samples with silence : Yes
Delete leading and trailing silent blocks : No
Null samples used in CRC calculations : Yes
Used interface : Native Win32 interface for Win NT & 2000
Gap handling : Appended to previous track

Used output format : User Defined Encoder
Selected bitrate : 1024 kBit/s
Quality : High
Add ID3 tag : No
Command line compressor : C:\Program Files\Exact Audio Copy\FLAC\FLAC.EXE
Additional command line options : -8 -V -T "ARTIST=%a" -T "TITLE=%t" -T "ALBUM=%g" -T "DATE=%y" -T "TRACKNUMBER=%n" -T "GENRE=%m" -T "COMMENT=%e" %s -o %d


TOC of the extracted CD

Track | Start | Length | Start sector | End sector
––––––––––––––––––––––––––––-
1 | 0:00.00 | 5:27.10 | 0 | 24534
2 | 5:27.10 | 5:34.17 | 24535 | 49601
3 | 11:01.27 | 4:33.65 | 49602 | 70141
4 | 15:35.17 | 6:36.55 | 70142 | 99896
5 | 22:11.72 | 3:06.38 | 99897 | 113884
6 | 25:18.35 | 4:24.15 | 113885 | 133699
7 | 29:42.50 | 5:02.00 | 133700 | 156349
8 | 34:44.50 | 4:32.32 | 156350 | 176781
9 | 39:17.07 | 6:04.45 | 176782 | 204126
10 | 45:21.52 | 5:30.20 | 204127 | 228896


Track 1

Filename D:\Y\y\01 March Of The Clouds.wav

Pre-gap length 0:00:02.00

Peak level 80.1 %
Track quality 100.0 %
Test CRC 32BEC4FE
Copy CRC 32BEC4FE
Copy OK

Track 2

Filename D:\Y\y\02 Paradise Dream.wav

Pre-gap length 0:00:00.43

Peak level 68.1 %
Track quality 100.0 %
Test CRC AB33532E
Copy CRC AB33532E
Copy OK

Track 3

Filename D:\Y\y\03 The Wind And The Wheat.wav

Pre-gap length 0:00:00.45

Peak level 72.6 %
Track quality 100.0 %
Test CRC 7A5028F6
Copy CRC 7A5028F6
Copy OK

Track 4

Filename D:\Y\y\04 Where Travelers Meat.wav

Pre-gap length 0:00:00.65

Peak level 61.8 %
Track quality 100.0 %
Test CRC 5C94F5FC
Copy CRC 5C94F5FC
Copy OK

Track 5

Filename D:\Y\y\05 From Share To Share.wav

Pre-gap length 0:00:01.60

Peak level 52.9 %
Track quality 100.0 %
Test CRC 351A68E3
Copy CRC 351A68E3
Copy OK

Track 6

Filename D:\Y\y\06 Prayer.wav

Pre-gap length 0:00:01.53

Peak level 70.6 %
Track quality 100.0 %
Test CRC CB52B5E7
Copy CRC CB52B5E7
Copy OK

Track 7

Filename D:\Y\y\07 The Mission.wav

Pre-gap length 0:00:00.68

Peak level 48.9 %
Track quality 100.0 %
Test CRC 10AAAEA9
Copy CRC 10AAAEA9
Copy OK

Track 8

Filename D:\Y\y\08 The Promise.wav

Pre-gap length 0:00:01.00

Peak level 67.3 %
Track quality 100.0 %
Test CRC 3885B497
Copy CRC 3885B497
Copy OK

Track 9

Filename D:\Y\y\09 The Reunion.wav

Pre-gap length 0:00:00.30

Peak level 58.1 %
Track quality 99.9 %
Test CRC 588422C4
Copy CRC 588422C4
Copy OK

Track 10

Filename D:\Y\y\10 I Love You Lord.wav

Pre-gap length 0:00:00.40

Peak level 48.4 %
Track quality 100.0 %
Test CRC 4A556ECE
Copy CRC 4A556ECE
Copy OK

No errors occurred

End of status report


Many thanks to the original uploader: neytiri_navi



Glass Harp 1970 Glass Harp [Remastered, 2005]
Glass Harp 1971 Synergy [Remastered, 2005]
Glass Harp 1972 It Makes Me Glad [Remastered, 2005]
Glass Harp 1997 Live! At Carnegie Hall
Glass Harp 2001 Strings Attached [Live] 2CD
Glass Harp 2003 Hourglass
Glass Harp 2004 Stark Raving Jams [Live] 3CD
Glass Harp 2010 Live At The Beachland Ballroom 11.01.08

Greg X. Volz 1986 The River Is Rising
Greg X. Volz 1988 Come Out Fighting
Greg X. Volz 1989 No Room In The Middle
Greg X. Volz 1991 The Exodus

Halo 1990 Halo / 1991 Heaven Calling

John Elefante - Discography (1995-2013)

John Schlitt 1995 Shake
John Schlitt 2012 The Greater Cause

Mastedon - Discography (1989-2009)

Petra 1974 Petra [Reissue 1992]
Petra 1977 Come And Join Us [Reissue 1995]
Petra 1979 Washes Whiter Than / 1981 Never Say Die [Reissue 1988]
Petra 1982 More Power To Ya
Petra 1983 Not Of This World
Petra 1984 Beat The System
Petra 1986 Captured In Time And Space (Live)
Petra 1986 Captured In Time And Space (Live) [DVD]
Petra 1986 Back To The Street
Petra 1987 This Means War!
Petra 1988 On Fire!
Petra 1989 Petra Means Rock [Compilation]
Petra 1989 Petra Praise… The Rock Cries Out
Petra 1990 Beyond Belief
Petra 1990 Beyond Belief [DVD]
Petra 1991 Unseen Power
Petra 1993 Wake-Up Call
Petra 1995 No Doubt
Petra 1997 Petra Praise 2: We Need Jesus
Petra 1998 God Fixation
Petra 2000 Double Take
Petra 2001 Revival
Petra 2003 Jekyll & Hyde
Petra 2003 The Power Of Praise [Compilation]
Petra 2006 Farewell [DVD]
II Guys From Petra 2007 Vertical Expressions
Classic Petra 2010 Back To The Rock

V.A. 1996 Never Say Dinosaur - Tribute To Petra




Password: pass