Phil Keaggy - What A Day (1973) / Love Broke Thru (1976) [Reissue 1990]

Posted By: Andi_Deris
Phil Keaggy - What A Day (1973) / Love Broke Thru (1976) [Reissue 1990]

Phil Keaggy - What A Day (1973) / Love Broke Thru (1976) [Reissue 1990]
EAC Rip | FLAC: Tracks+Cue+Log | 506 Mb | MP3 CBR 320 kbps | 204 Mb | Scans | 90 Mb | Time: 01:16:01
Myrrh | 7016915611
Rock, Contemporary Christian, Guitar Virtuoso

Keaggy's first two solo albums (from 1973 and 1976 reissued here on one CD) remain among his best. Keaggy was one of the first contemporary Christian musicians to bring an original melodic sense to his songs (indebted as it was to Paul McCartney), and his lyrical naivete comes across as refreshing rather than insipid. Over 70 studio albums. Phil Keaggy is one of the most admired guitarists in music.

Phil Keaggy - What A Day (1973) / Love Broke Thru (1976) [Reissue 1990]




Track Listing

What A Day (1973)
01. That Is What The Lord Will Do For You (02:56)
02. King Of The Jews (02:06)
03. Walking With Our Lord (04:19)
04. A Time And A Place (02:47)
05. Rejoice (04:46)
06. What A Day (04:49)
07. How I Can See (05:09)
08. Behold, All Things Become New (01:20)
09. Hallelujah (04:45)
10. I Will Sing (03:29)
Love Broke Thru (1976)
11. Your Love Broke Through (03:33)
12. Take Me Closer (04:58)
13. As The Ruin Falls (04:34)
14. Wild Horse (04:19)
15. Disappointment (02:40)
16. Time (06:49)
17. Portrait (02:06)
18. Just The Same (03:45)
19. Things I Will Do (03:17)
20. Abraham (03:34)

Produced by Phil Keaggy / Buck Herring

Exact Audio Copy V0.99 prebeta 5 from 4. May 2009

EAC extraction logfile from 14. April 2011, 17:25

Phil Keaggy / What A Day / Love Broke Thru (US Myrrh 7016915611)

Used drive : ATAPI DVD D DH16D2S Adapter: 3 ID: 0

Read mode : Secure
Utilize accurate stream : Yes
Defeat audio cache : Yes
Make use of C2 pointers : No

Read offset correction : 6
Overread into Lead-In and Lead-Out : No
Fill up missing offset samples with silence : Yes
Delete leading and trailing silent blocks : No
Null samples used in CRC calculations : Yes
Used interface : Native Win32 interface for Win NT & 2000
Gap handling : Appended to previous track

Used output format : User Defined Encoder
Selected bitrate : 1024 kBit/s
Quality : High
Add ID3 tag : No
Command line compressor : C:\Program Files\Exact Audio Copy\FLAC\FLAC.EXE
Additional command line options : -8 -V -T "ARTIST=%a" -T "TITLE=%t" -T "ALBUM=%g" -T "DATE=%y" -T "TRACKNUMBER=%n" -T "GENRE=%m" -T "COMMENT=%e" %s -o %d


TOC of the extracted CD

Track | Start | Length | Start sector | End sector
––––––––––––––––––––––––––––-
1 | 0:00.00 | 2:56.27 | 0 | 13226
2 | 2:56.27 | 2:06.18 | 13227 | 22694
3 | 5:02.45 | 4:18.70 | 22695 | 42114
4 | 9:21.40 | 2:46.40 | 42115 | 54604
5 | 12:08.05 | 4:45.52 | 54605 | 76031
6 | 16:53.57 | 4:49.08 | 76032 | 97714
7 | 21:42.65 | 5:09.05 | 97715 | 120894
8 | 26:51.70 | 1:20.15 | 120895 | 126909
9 | 28:12.10 | 4:44.57 | 126910 | 148266
10 | 32:56.67 | 3:28.60 | 148267 | 163926
11 | 36:25.52 | 3:32.53 | 163927 | 179879
12 | 39:58.30 | 4:57.35 | 179880 | 202189
13 | 44:55.65 | 4:33.72 | 202190 | 222736
14 | 49:29.62 | 4:18.65 | 222737 | 242151
15 | 53:48.52 | 2:40.28 | 242152 | 254179
16 | 56:29.05 | 6:49.07 | 254180 | 284861
17 | 63:18.12 | 2:06.03 | 284862 | 294314
18 | 65:24.15 | 3:44.45 | 294315 | 311159
19 | 69:08.60 | 3:16.67 | 311160 | 325926
20 | 72:25.52 | 3:33.60 | 325927 | 341961


Track 1

Filename D:\Y\y\01 That Is What The Lord Will Do For You.wav

Pre-gap length 0:00:02.00

Peak level 77.9 %
Track quality 100.0 %
Test CRC 3999CDA0
Copy CRC 3999CDA0
Copy OK

Track 2

Filename D:\Y\y\02 King Of The Jews.wav

Pre-gap length 0:00:02.00

Peak level 73.8 %
Track quality 100.0 %
Test CRC 8A0D7A9F
Copy CRC 8A0D7A9F
Copy OK

Track 3

Filename D:\Y\y\03 Walking With Our Lord.wav

Pre-gap length 0:00:01.00

Peak level 100.0 %
Track quality 100.0 %
Test CRC F1DD4143
Copy CRC F1DD4143
Copy OK

Track 4

Filename D:\Y\y\04 A Time And A Place.wav

Pre-gap length 0:00:01.00

Peak level 74.8 %
Track quality 100.0 %
Test CRC D1AB9C65
Copy CRC D1AB9C65
Copy OK

Track 5

Filename D:\Y\y\05 Rejoice.wav

Pre-gap length 0:00:01.00

Peak level 88.5 %
Track quality 100.0 %
Test CRC F3A034A6
Copy CRC F3A034A6
Copy OK

Track 6

Filename D:\Y\y\06 What A Day.wav

Pre-gap length 0:00:01.00

Peak level 100.0 %
Track quality 100.0 %
Test CRC 84B9CF0A
Copy CRC 84B9CF0A
Copy OK

Track 7

Filename D:\Y\y\07 How I Can See.wav

Peak level 86.1 %
Track quality 100.0 %
Test CRC 9F4D2034
Copy CRC 9F4D2034
Copy OK

Track 8

Filename D:\Y\y\08 Behold, All Things Become New.wav

Peak level 64.8 %
Track quality 100.0 %
Test CRC C61BD2A8
Copy CRC C61BD2A8
Copy OK

Track 9

Filename D:\Y\y\09 Hallelujah.wav

Pre-gap length 0:00:01.00

Peak level 84.2 %
Track quality 100.0 %
Test CRC 4F355D01
Copy CRC 4F355D01
Copy OK

Track 10

Filename D:\Y\y\10 I Will Sing.wav

Pre-gap length 0:00:01.00

Peak level 67.0 %
Track quality 100.0 %
Test CRC B00C296F
Copy CRC B00C296F
Copy OK

Track 11

Filename D:\Y\y\11 Your Love Broke Through.wav

Pre-gap length 0:00:04.00

Peak level 99.9 %
Track quality 100.0 %
Test CRC A501585E
Copy CRC A501585E
Copy OK

Track 12

Filename D:\Y\y\12 Take Me Closer.wav

Pre-gap length 0:00:01.00

Peak level 85.2 %
Track quality 100.0 %
Test CRC 7102CABA
Copy CRC 7102CABA
Copy OK

Track 13

Filename D:\Y\y\13 As The Ruin Falls.wav

Pre-gap length 0:00:01.00

Peak level 51.5 %
Track quality 99.9 %
Test CRC 4886841F
Copy CRC 4886841F
Copy OK

Track 14

Filename D:\Y\y\14 Wild Horse.wav

Pre-gap length 0:00:02.00

Peak level 100.0 %
Track quality 100.0 %
Test CRC 62E48453
Copy CRC 62E48453
Copy OK

Track 15

Filename D:\Y\y\15 Disappointment.wav

Pre-gap length 0:00:02.00

Peak level 91.2 %
Track quality 99.9 %
Test CRC B474FB98
Copy CRC B474FB98
Copy OK

Track 16

Filename D:\Y\y\16 Time.wav

Pre-gap length 0:00:01.00

Peak level 78.5 %
Track quality 99.9 %
Test CRC E46BBC99
Copy CRC E46BBC99
Copy OK

Track 17

Filename D:\Y\y\17 Portrait.wav

Pre-gap length 0:00:01.00

Peak level 59.8 %
Track quality 100.0 %
Test CRC 8F39DF23
Copy CRC 8F39DF23
Copy OK

Track 18

Filename D:\Y\y\18 Just The Same.wav

Pre-gap length 0:00:02.00

Peak level 91.4 %
Track quality 100.0 %
Test CRC 2D87EB46
Copy CRC 2D87EB46
Copy OK

Track 19

Filename D:\Y\y\19 Things I Will Do.wav

Pre-gap length 0:00:01.00

Peak level 54.4 %
Track quality 99.9 %
Test CRC 7769CF5D
Copy CRC 7769CF5D
Copy OK

Track 20

Filename D:\Y\y\20 Abraham.wav

Pre-gap length 0:00:01.00

Peak level 82.5 %
Track quality 100.0 %
Test CRC 5DA50496
Copy CRC 5DA50496
Copy OK

No errors occurred

End of status report


Many thanks to the original uploader: neytiri_navi


Glass Harp 1970 Glass Harp [Remastered, 2005]
Glass Harp 1971 Synergy [Remastered, 2005]
Glass Harp 1972 It Makes Me Glad [Remastered, 2005]
Glass Harp 1997 Live! At Carnegie Hall
Glass Harp 2001 Strings Attached [Live] 2CD
Glass Harp 2003 Hourglass
Glass Harp 2004 Stark Raving Jams [Live] 3CD
Glass Harp 2010 Live At The Beachland Ballroom 11.01.08

Greg X. Volz 1986 The River Is Rising
Greg X. Volz 1988 Come Out Fighting
Greg X. Volz 1989 No Room In The Middle
Greg X. Volz 1991 The Exodus

Halo 1990 Halo / 1991 Heaven Calling

John Elefante - Discography (1995-2013)

John Schlitt 1995 Shake
John Schlitt 2012 The Greater Cause

Mastedon - Discography (1989-2009)

Petra 1974 Petra [Reissue 1992]
Petra 1977 Come And Join Us [Reissue 1995]
Petra 1979 Washes Whiter Than / 1981 Never Say Die [Reissue 1988]
Petra 1982 More Power To Ya
Petra 1983 Not Of This World
Petra 1984 Beat The System
Petra 1986 Captured In Time And Space (Live)
Petra 1986 Captured In Time And Space (Live) [DVD]
Petra 1986 Back To The Street
Petra 1987 This Means War!
Petra 1988 On Fire!
Petra 1989 Petra Means Rock [Compilation]
Petra 1989 Petra Praise… The Rock Cries Out
Petra 1990 Beyond Belief
Petra 1990 Beyond Belief [DVD]
Petra 1991 Unseen Power
Petra 1993 Wake-Up Call
Petra 1995 No Doubt
Petra 1997 Petra Praise 2: We Need Jesus
Petra 1998 God Fixation
Petra 2000 Double Take
Petra 2001 Revival
Petra 2003 Jekyll & Hyde
Petra 2003 The Power Of Praise [Compilation]
Petra 2006 Farewell [DVD]
II Guys From Petra 2007 Vertical Expressions
Classic Petra 2010 Back To The Rock

V.A. 1996 Never Say Dinosaur - Tribute To Petra




Password: pass