Subcategories

Phil Collins - Best Ballads (1998)

Posted By: jclane

Phil Collins - Best Ballads (1998)

Phil Collins - Best Ballads (1998)
EAC Rip | FLAC Image + Cue + Log | Complete Scans Included (1.3 MB) | 299 MB
MP3 CBR @320 kbps (LAME 3.99) | Joint Stereo | 135 MB
CDVUS37 - 0655 4 5732 7 5 | Pop | RAR 3% Recovery

Phil Collins' ascent to the status of one of the most successful pop and adult contemporary singers of the '80s and beyond was probably as much of a surprise to him as it was to many others. Balding and diminutive, Collins was almost 30 years old when his first solo single, "In the Air Tonight," became a number two hit in his native U.K. (the song was a Top 20 hit in the U.S.). Between 1984 and 1990, Collins had a string of 13 straight U.S. Top Ten hits.

Long before any of that happened, however, Collins was a child actor/singer who appeared as the Artful Dodger in the London production of Oliver! in 1964. (He also has a cameo in A Hard Day's Night, among other films.) He got his first break in music at the end of his teens, when he was chosen to be a replacement drummer in the British art rock band Genesis in 1970. (Collins maintained a separate jazz career with the band Brand X as well.) Genesis was fronted by singer Peter Gabriel. They had achieved a moderate level of success in the U.K. and the U.S., with elaborate concept albums, before Gabriel abruptly left in 1974. Genesis auditioned 400 singers without success, then decided to let Collins have a go.

The result was a gradual simplifying of Genesis' sound and an increasing focus on Collins' expressive, throaty voice. And Then There Were Three… went gold in 1978, and Duke was even more successful. Collins made his debut solo album, Face Value, in 1981, which turned out to be a bigger hit than any Genesis album. It concentrated on Collins' voice, often in stark, haunting contexts such as the piano-and-drum dirge "In the Air Tonight," which sounded like something from John Lennon's debut solo album, John Lennon/Plastic Ono Band.

During the '80s, Collins was enormously successful in balancing his continuing solo work with his membership in Genesis. In 1992, Genesis released We Can't Dance and began an extensive tour. Upon its completion Collins released Both Sides in 1993, and the record became his first album not to produce a major hit single or go multi-platinum. In 1995, he announced that he was leaving Genesis permanently. The following year, he released Dance into the Light. Although the album was a flop, its subsequent supporting tour was a success. The Hits collection followed in 1998, and a year later Collins made his first big-band record, Hot Night in Paris. The song cycle Testify arrived in 2002, and his next studio-recorded solo release was 2010's Going Back, which saw Collins revisiting the Motown hits that so influenced him and featuring three of the surviving Funk Brothers – guitarists Eddie Willis and Ray Monette and bassist Bob Babbitt.

by William Ruhlmann, Allmusic

Track Listing:

01. In The Air Tonight (1981)
02. One More Night (1985)
03. That's Just The Way It's (1989)
04. Can't Turn Back The Years (1989)
05. Another Day In Paradise (1989)
06. Thru These Walls (1982)
07. Do You Remember (1989)
08. This Must Be Love (1981)
09. We Fly So Close (1993)
10. I Wish It Would Rain Down (1989)
11. All Of My Life (1989)


Exact Audio Copy V0.99 prebeta 5 from 4. May 2009

Отчёт EAC об извлечении, выполненном 16. января 2010, 9:26

Phil Collins / Best Ballads

Дисковод: MATSHITAUJDA755 DVD/CDRW Adapter: 1 ID: 0

Режим чтения : Достоверность
Использование точного потока : Да
Отключение кэша аудио : Да
Использование указателей C2 : Нет

Коррекция смещения при чтении : 102
Способность читать области Lead-in и Lead-out : Нет
Заполнение пропущенных сэмплов тишиной : Да
Удаление блоков с тишиной в начале и конце : Нет
При вычислениях CRC использовались нулевые сэмплы : Да
Интерфейс : Встроенный Win32-интерфейс для Win NT/2000

Выходной формат : Пользовательский кодировщик
Выбранный битрейт : 768 kBit/s
Качество : Высокий
Добавление ID3-тэга : Нет
Утилита сжатия : C:\Program Files\Exact Audio Copy\FLAC\FLAC.EXE
Дополнительные параметры : -8 -V %s


TOC извлечённого CD

Трек | Старт | Длительность | Начальный сектор | Конечный сектор
––––––––––––––––––––––––––––––––––-
1 | 0:00.00 | 5:31.03 | 0 | 24827
2 | 5:31.03 | 4:47.15 | 24828 | 46367
3 | 10:18.18 | 5:18.37 | 46368 | 70254
4 | 15:36.55 | 4:37.35 | 70255 | 91064
5 | 20:14.15 | 5:24.23 | 91065 | 115387
6 | 25:38.38 | 5:05.00 | 115388 | 138262
7 | 30:43.38 | 4:36.22 | 138263 | 158984
8 | 35:19.60 | 3:55.70 | 158985 | 176679
9 | 39:15.55 | 6:59.38 | 176680 | 208142
10 | 46:15.18 | 5:30.65 | 208143 | 232957
11 | 51:46.08 | 5:32.60 | 232958 | 257917


Характеристики диапазона извлечения и сообщения об ошибках

Выбранный диапазон

Имя файла G:\FLACи\Phil Collins - Best Ballads - 1998\Phil Collins - Best Ballads.wav

Пиковый уровень 84.1 %
Качество диапазона 100.0 %
CRC теста 5D91B844
CRC копии 5D91B844
Копирование… OK

Ошибок не произошло


AccurateRip: сводка

Трек 1 точность не определена (достоверность 1) [9472E1E2], AccurateRip вернул [16C2E972]
Трек 2 точность не определена (достоверность 1) [A8C20027], AccurateRip вернул [B723047D]
Трек 3 точность не определена (достоверность 1) [92DA9C12], AccurateRip вернул [2DCEB9AE]
Трек 4 точность не определена (достоверность 1) [FCBBE181], AccurateRip вернул [F6A99167]
Трек 5 точность не определена (достоверность 1) [892CF09F], AccurateRip вернул [6CC64037]
Трек 6 точность не определена (достоверность 1) [310F7E50], AccurateRip вернул [CA17FAFE]
Трек 7 точность не определена (достоверность 1) [97666308], AccurateRip вернул [267C7F4C]
Трек 8 точность не определена (достоверность 1) [05A2BB7A], AccurateRip вернул [BE036334]
Трек 9 точность не определена (достоверность 1) [02FB1ADE], AccurateRip вернул [F7FB4FE4]
Трек 10 точность не определена (достоверность 1) [223E6034], AccurateRip вернул [157D6B4C]
Трек 11 точность не определена (достоверность 1) [2107549A], AccurateRip вернул [77420DA7]

Ни один трек не прошёл проверки на точность
В вашей базе может быть иной вариант штамповки диска

Конец отчёта


[CUETools log; Date: 28/02/2012 10:02:31; Version: 2.1.2a]
[CTDB TOCID: q20xNBB2lx3dZ.Lc14L0X39l5Jc-] disk not present in database.
[AccurateRip ID: 001734d3-00c934d3-870d6e0b] disk not present in database.

Track Peak [ CRC32 ] [W/O NULL]
– 84,1 [5D91B844] [488E2823]
01 84,1 [8F18BAC9] [9A366F3A]
02 66,9 [62D69259] [CFC9E982]
03 74,6 [2A6F1F7C] [4D99560F]
04 69,7 [449BED28] [13E75210]
05 80,4 [A8BFBCE9] [FED647DD]
06 75,1 [CDE1B613] [9684DBFB]
07 77,6 [966BC69C] [4C845FA9]
08 78,9 [637229D4] [D70AB9F6]
09 60,3 [F2F9BC36] [5DE28F47]
10 62,8 [7772D288] [2A64EBE9]
11 69,9 [F958963B] [EBACBA96]


–––––––––––-

DON'T MODIFY THIS FILE

–––––––––––-

PERFORMER: auCDtect Task Manager, ver. 1.5.1RC6 build 1.5.1.7
Copyright © 2008-2010 y-soft. All rights reserved
http://y-soft.org

ANALYZER: auCDtect: CD records authenticity detector, version 0.8.2
Copyright © 2004 Oleg Berngardt. All rights reserved.
Copyright © 2004 Alexander Djourik. All rights reserved.


FILE: Phil Collins - Best Ballads.flac
Size: 303143344 Hash: F0FD70E7E01940AE55CE1195E256CB7E Accuracy: -m0
Conclusion: CDDA 100%
Signature: B2B5B8648BCFCFA096274C66A74471B3E3851428

Phil Collins - Best Ballads (1998)

Phil Collins - Best Ballads (1998)


Released Date: 1999
Format: CD, Compilation
Length: 57:18


––––––––––––––––––––––––––––––––––––––––


Many thanks to Nicton

The files are interchangeable! …No Mirrors Please!!!