Subcategories
Tags
Language
Tags

Phil Collins - Serious Hits...Live! (1990)

Posted By: BlondStyle
Phil Collins - Serious Hits...Live! (1990)

Phil Collins - Serious Hits…Live! (1990)
Pop/Rock, Ballad, Vocal, Live | EAC Rip | FLAC, Tracks+CUE+LOG+Scans (JPEG) | 01:16:51 | 729,53 Mb
Label: WEA (Australia) | Cat.# 9031-72550-2 | Released: 1990-11-05
Phil Collins - Serious Hits...Live! (1990)

"Serious Hits… Live!" is the name of Phil Collins' 1990 live album. The songs on the CD version are taken from various concerts during the Seriously, Live! World Tour. At the Brit Awards in 1992, the album brought Collins a nomination for British Male Artist.
~Wikipedia

Phil Collins - Serious Hits...Live! (1990)

Along with being a multi-talented musician and an excellent songwriter, Phil Collins is one of the best live performers in rock. His songs usually stay true to their original form, he puts plenty of fire into his vocals, and best of all, every one of his in-concert qualities transfers well into album form. Serious Hits...Live! is a wonderful example of this, with not only 15 tracks, but 15 of Phil's best tracks, performed with an overcharged amount of enthusiasm and energy. There's an equal number of ballads and fast songs on the album, but even on the slow stuff, Collins puts a lot of passion and feeling into the lyrics. Efforts such as "One More Night," "Do You Remember?," and especially his best ballad, "Against All Odds (Take a Look at Me Now)" are heartfelt and unhindered. His moods shift easily without any false emotional dramatics, which in turn enhances the ambience of the songs. The tracks are taken from a number of shows during his Serious Tour in 1990, but his performance level remains enthusiastic the whole album through and the change of venues goes unnoticed, which is again another plus. Collins is just as sharp on the quicker tunes, with some wonderful percussion filling in behind him. The drumming is stellar on "Easy Lover" and again on "Sussudio," but the album's only downfall is its lack of credits, leaving the identities of the musicians a mystery. The album makes up for this with a spine-chilling version of "In the Air Tonight" as Collins does a good job of capturing the song's haunting air, and from here the album switches gears with "You Can't Hurry Love" but doing so with undefiled perfection. Almost all of the songs here broke Billboard's Top Ten, and five of these tracks hit number one, which makes Serious Hits...Live! truly live up to it's name.
~Review by Mike DeGagne

Phil Collins - Serious Hits...Live! (1990)




Release of the album: 1990, November, 5 [2xLPs Virgin, Cat.# PCLP1, UK]
Release of this CD: 1990 [CD WEA (Australia), Cat.# 9031-72550-2 / UPC: 090317255026]
℗&© 1990 WEA International Inc. A time Warner Company.
Manufactured and Distributed by Warner Music Australasia

Credits:

Alto Saxophone – Don Myrick
Bass – Leland Sklar
Design – Wherefore Art
Drums – Chester Thompson
Engineer – Paul Gomersall
Engineer [House Sound Engineer] – Robert Colby
Guitar – Daryl Stuermer
Keyboards – Brad Cole
Lighting Director [Lighting Designer] – Jonathan Smeeton
Management – Tony Smith
Mixed By – Paul Gomersall, Robert Colby
Photography By – Lewis Lee
Producer – Phil Collins, Robert Colby
Production Manager – Morris Lyda
Technician [Drum Technician] – Brad Marsh
Technician [Guitar Technician] – Geoff Banks
Technician [Keyboard Technician] – Justin Crew
Tour Manager – Malcolm Craggs
Tour Manager [Asst. Tour Manager] – Danny Gillen
Trombone – Lui Lui
Trumpet – Harry Kim, Rahmlee Michael Davis
Vocals [Additional] – Arnold McCuller, Bridgette Bryant, Fred White
Vocals, Drums, Piano, Photography By – Phil Collins
Written-By – Carole Bayer Sager (tracks: 13), Daryl Stuermer (tracks: 1), Eddie Holland/Brian Holland/Lamont Dozier (tracks: 10), Lamont Dozier (tracks: 11), Nathan East (tracks: 14), Phil Collins (tracks: 1 to 7, 9, 11, 12, 14, 15), Philip Bailey (tracks: 14), Stephen Bishop (tracks: 8), Toni Wine (tracks: 13)


Tracklist:

01. Something Happened on the Way to Heaven (05:00)
02. Against All Odds (Take A Look At Me Now) (03:29)
03. Who Said I Would (04:29)
04. One More Night (05:49)
05. Don't Lose My Number (04:42)
06. Do You Remember (05:40)
07. Another Day in Paradise (05:37)
08. Separate Lives (05:17)
09. In The Air Tonight (06:35)
10. You Can't Hurry Love (02:54)
11. Two Hearts (03:08)
12. Sussudio (07:14)
13. A Groovy Kind of Love (03:30)
14. Easy Lover (04:47)
15. Take Me Home (08:40)

Exact Audio Copy V1.1 from 23. June 2015

EAC extraction logfile from 9. August 2020, 15:01

Phil Collins / Serious Hits…Live!

Used drive : HL-DT-STDVDRAM GH24NS90 Adapter: 1 ID: 0

Read mode : Secure
Utilize accurate stream : Yes
Defeat audio cache : No
Make use of C2 pointers : Yes

Read offset correction : 6
Overread into Lead-In and Lead-Out : No
Fill up missing offset samples with silence : Yes
Delete leading and trailing silent blocks : No
Null samples used in CRC calculations : Yes
Used interface : Native Win32 interface for Win NT & 2000
Gap handling : Appended to previous track

Used output format : User Defined Encoder
Selected bitrate : 1024 kBit/s
Quality : High
Add ID3 tag : No
Command line compressor : C:\Program Files (x86)\FLAC\flac.exe


TOC of the extracted CD

Track | Start | Length | Start sector | End sector
––––––––––––––––––––––––––––-
1 | 0:00.00 | 4:59.72 | 0 | 22496
2 | 4:59.72 | 3:28.73 | 22497 | 38169
3 | 8:28.70 | 4:28.42 | 38170 | 58311
4 | 12:57.37 | 5:49.33 | 58312 | 84519
5 | 18:46.70 | 4:42.35 | 84520 | 105704
6 | 23:29.30 | 5:40.32 | 105705 | 131236
7 | 29:09.62 | 5:36.43 | 131237 | 156479
8 | 34:46.30 | 5:16.62 | 156480 | 180241
9 | 40:03.17 | 6:35.25 | 180242 | 209891
10 | 46:38.42 | 2:54.25 | 209892 | 222966
11 | 49:32.67 | 3:07.43 | 222967 | 237034
12 | 52:40.35 | 7:14.10 | 237035 | 269594
13 | 59:54.45 | 3:30.30 | 269595 | 285374
14 | 63:25.00 | 4:46.55 | 285375 | 306879
15 | 68:11.55 | 8:39.72 | 306880 | 345876


Track 1

Filename C:\Exact Audio Copy\Phil Collins\Serious Hits…Live!\01. Something Happened On The Way To Heaven.wav

Pre-gap length 0:00:02.00

Peak level 98.0 %
Extraction speed 4.3 X
Track quality 100.0 %
Test CRC 3C27FE0D
Copy CRC 3C27FE0D
Accurately ripped (confidence 200) [75618F24] (AR v2)
Copy OK

Track 2

Filename C:\Exact Audio Copy\Phil Collins\Serious Hits…Live!\02. Against All Odds (Take A Look At Me Now).wav

Peak level 79.1 %
Extraction speed 4.6 X
Track quality 100.0 %
Test CRC 68211CF9
Copy CRC 68211CF9
Accurately ripped (confidence 200) [0F0E3B97] (AR v2)
Copy OK

Track 3

Filename C:\Exact Audio Copy\Phil Collins\Serious Hits…Live!\03. Who Said I Would.wav

Peak level 98.0 %
Extraction speed 5.0 X
Track quality 100.0 %
Test CRC DDF64AAF
Copy CRC DDF64AAF
Accurately ripped (confidence 200) [2A97A064] (AR v2)
Copy OK

Track 4

Filename C:\Exact Audio Copy\Phil Collins\Serious Hits…Live!\04. One More Night.wav

Peak level 97.3 %
Extraction speed 5.5 X
Track quality 100.0 %
Test CRC B0CAF4D8
Copy CRC B0CAF4D8
Accurately ripped (confidence 200) [283EA98B] (AR v2)
Copy OK

Track 5

Filename C:\Exact Audio Copy\Phil Collins\Serious Hits…Live!\05. Don't Lose My Number.wav

Peak level 97.9 %
Extraction speed 6.1 X
Track quality 100.0 %
Test CRC AC168A92
Copy CRC AC168A92
Accurately ripped (confidence 200) [5DC4058C] (AR v2)
Copy OK

Track 6

Filename C:\Exact Audio Copy\Phil Collins\Serious Hits…Live!\06. Do You Remember.wav

Peak level 84.3 %
Extraction speed 6.5 X
Track quality 100.0 %
Test CRC BA152E08
Copy CRC BA152E08
Accurately ripped (confidence 200) [CCE1FF8B] (AR v2)
Copy OK

Track 7

Filename C:\Exact Audio Copy\Phil Collins\Serious Hits…Live!\07. Another Day In Paradise.wav

Peak level 98.0 %
Extraction speed 6.9 X
Track quality 100.0 %
Test CRC E81B6E60
Copy CRC E81B6E60
Accurately ripped (confidence 200) [7E7F56F8] (AR v2)
Copy OK

Track 8

Filename C:\Exact Audio Copy\Phil Collins\Serious Hits…Live!\08. Separate Lives.wav

Peak level 79.6 %
Extraction speed 7.3 X
Track quality 100.0 %
Test CRC F1BD2401
Copy CRC F1BD2401
Accurately ripped (confidence 200) [62288BC1] (AR v2)
Copy OK

Track 9

Filename C:\Exact Audio Copy\Phil Collins\Serious Hits…Live!\09. In The Air Tonight.wav

Peak level 98.0 %
Extraction speed 7.4 X
Track quality 100.0 %
Test CRC E1904198
Copy CRC E1904198
Accurately ripped (confidence 200) [BB24294C] (AR v2)
Copy OK

Track 10

Filename C:\Exact Audio Copy\Phil Collins\Serious Hits…Live!\10. You Can't Hurry Love.wav

Peak level 98.0 %
Extraction speed 7.9 X
Track quality 100.0 %
Test CRC 1BEE5AA2
Copy CRC 1BEE5AA2
Accurately ripped (confidence 200) [1D63D2E3] (AR v2)
Copy OK

Track 11

Filename C:\Exact Audio Copy\Phil Collins\Serious Hits…Live!\11. Two Hearts.wav

Peak level 98.9 %
Extraction speed 7.6 X
Track quality 100.0 %
Test CRC CC116CAC
Copy CRC CC116CAC
Accurately ripped (confidence 200) [5D5E2244] (AR v2)
Copy OK

Track 12

Filename C:\Exact Audio Copy\Phil Collins\Serious Hits…Live!\12. Sussudio.wav

Peak level 98.2 %
Extraction speed 8.4 X
Track quality 100.0 %
Test CRC 536D6603
Copy CRC 536D6603
Accurately ripped (confidence 200) [5E3ADB31] (AR v2)
Copy OK

Track 13

Filename C:\Exact Audio Copy\Phil Collins\Serious Hits…Live!\13. A Groovy Kind Of Love.wav

Peak level 51.6 %
Extraction speed 8.7 X
Track quality 100.0 %
Test CRC 524892A5
Copy CRC 524892A5
Accurately ripped (confidence 200) [644AB620] (AR v2)
Copy OK

Track 14

Filename C:\Exact Audio Copy\Phil Collins\Serious Hits…Live!\14. Easy Lover.wav

Peak level 98.9 %
Extraction speed 8.5 X
Track quality 100.0 %
Test CRC 84A81BE8
Copy CRC 84A81BE8
Accurately ripped (confidence 200) [F6790D20] (AR v2)
Copy OK

Track 15

Filename C:\Exact Audio Copy\Phil Collins\Serious Hits…Live!\15. Take Me Home.wav

Peak level 98.0 %
Extraction speed 9.1 X
Track quality 100.0 %
Test CRC 1DBCBF63
Copy CRC 1DBCBF63
Accurately ripped (confidence 200) [2251A98B] (AR v2)
Copy OK


All tracks accurately ripped

No errors occurred

End of status report

–– CUETools DB Plugin V2.1.6

[CTDB TOCID: iYVBVf_dU0QK9J4XkEw5RhbWvyQ-] found
Submit result: iYVBVf_dU0QK9J4XkEw5RhbWvyQ- has been confirmed, iYVBVf_dU0QK9J4XkEw5RhbWvyQ- has been confirmed
Track | CTDB Status
1 | (6704/6808) Accurately ripped
2 | (6736/6808) Accurately ripped
3 | (6716/6808) Accurately ripped, or (2/6808) differs in 11 samples @00:52:31
4 | (6707/6808) Accurately ripped
5 | (6719/6808) Accurately ripped
6 | (6723/6808) Accurately ripped
7 | (6715/6808) Accurately ripped
8 | (6717/6808) Accurately ripped
9 | (6702/6808) Accurately ripped
10 | (6603/6808) Accurately ripped
11 | (6713/6808) Accurately ripped, or (2/6808) differs in 3 samples @01:39:46
12 | (6688/6808) Accurately ripped
13 | (6451/6808) Accurately ripped
14 | (6698/6808) Accurately ripped
15 | (6569/6808) Accurately ripped, or (3/6808) differs in 12 samples @08:39:54

––––––––––––––––––––––––––––––––––––––––
Analyzed: Phil Collins / Serious Hits Live!
––––––––––––––––––––––––––––––––––––––––

DR Peak RMS Duration Track
––––––––––––––––––––––––––––––––––––––––
DR14 -0.17 dB -15.08 dB 5:00 01-Something Happened On The Way To Heaven
DR13 -2.03 dB -17.85 dB 3:29 02-Against All Odds (Take A Look At Me Now)
DR11 -0.17 dB -13.09 dB 4:29 03-Who Said I Would
DR15 -0.23 dB -18.04 dB 5:49 04-One More Night
DR14 -0.18 dB -15.51 dB 4:42 05-Don't Lose My Number
DR12 -1.47 dB -15.41 dB 5:40 06-Do You Remember
DR15 -0.17 dB -16.48 dB 5:37 07-Another Day In Paradise
DR12 -1.98 dB -17.37 dB 5:17 08-Separate Lives
DR12 -0.17 dB -16.33 dB 6:35 09-In The Air Tonight
DR14 -0.17 dB -15.09 dB 2:54 10-You Can't Hurry Love
DR14 -0.09 dB -15.73 dB 3:08 11-Two Hearts
DR14 -0.15 dB -16.09 dB 7:14 12-Sussudio
DR11 -5.73 dB -18.99 dB 3:30 13-A Groovy Kind Of Love
DR12 -0.09 dB -13.60 dB 4:47 14-Easy Lover
DR12 -0.17 dB -14.83 dB 8:40 15-Take Me Home
––––––––––––––––––––––––––––––––––––––––

Number of tracks: 15
Official DR value: DR13

Samplerate: 44100 Hz
Channels: 2
Bits per sample: 16
Bitrate: 867 kbps
Codec: FLAC
================================================================================

Thanks to Saintsmon

♫~Welcome To My Blog~♫

password: BlondStyle