Subcategories

Phil Woods - Here's to My Lady (1989) {Chesky Records}

Posted By: tiburon
Phil Woods - Here's to My Lady (1989) {Chesky Records}

Phil Woods - Here's to My Lady (1989) {Chesky Records}
X Lossless Decoder | FLAC tracks | Cue+Log+M3U | Scans 600dpi | 359MB + 5% Recovery
MP3 CBR 320 Kbps | 157MB + 5% Recovery
Genre: Jazz, Hard Bop

Altoist Phil Woods took a rare vacation from playing with his regular group to collaborate with pianist Tommy Flanagan, bassist George Mraz and drummer Kenny Washington on this fine straight-ahead quartet date. The 13 selections are fairly concise (clocking in between 3-7 minutes apiece) and most of the material (other than "Canadian Sunset," "Yours Is My Heart Alone," "Blue and Sentimental" and Bill Evans' classic "Waltz for Debby") consists of either obscurities or recent originals. A special bonus is that Woods plays his appealing clarinet on three numbers. Highlights include "Charles Christopher" (a tribute to Charlie Parker), "Butter" and Hal Galper's "Just Us."
Track List
01. Superette (Harrell) - 3:58
02. Johnny Hodges (Woods) - 5:36
03. Another Love Song (Woods) - 6:08
04. Canadian Sunset (Gimbel-Heywood) - 4:47
05. Charles Christopher (Woods) - 4:54
06. Butter (Davis-Dodgion-Muhammad-Taylor) - 5:44
07. Visions of Gaudi (Harrell) - 5:31
08. Yours Is My Heart Alone (Herzer-Lehar-Loehner-Smith) - 5:17
09. Blue and Sentimental (Basie-David-Livingston) - 5:06
10. Origins (Crook) - 3:38
11. Here's to My Lady (Bloom-Mercer) - 4:53
12. Waltz for Debby (Evans-Lees) - 5:18
13. Just Us (Galper) - 4:49

musicians
Phil Woods - alto saxophone, clarinet
Tommy Flanagan - piano
George Mraz - bass
Kenny Washington - drums

Produced by David Chesky


X Lossless Decoder version 20121222 (142.2)

XLD extraction logfile from 2013-01-24 18:30:18 -0500

Phil Woods / Here's to My Lady

Used drive : HL-DT-ST DVDRW GS23N (revision SB00)
Media type : Pressed CD

Ripper mode : XLD Secure Ripper
Disable audio cache : OK for the drive with a cache less than 1375KiB
Make use of C2 pointers : NO
Read offset correction : 667
Max retry count : 100
Gap status : Analyzed, Appended

TOC of the extracted CD
Track | Start | Length | Start sector | End sector
––––––––––––––––––––––––––––-
1 | 00:00:37 | 03:57:35 | 37 | 17846
2 | 03:57:72 | 05:36:35 | 17847 | 43081
3 | 09:34:32 | 06:07:55 | 43082 | 70661
4 | 15:42:12 | 04:47:18 | 70662 | 92204
5 | 20:29:30 | 04:53:55 | 92205 | 114234
6 | 25:23:10 | 05:43:67 | 114235 | 140026
7 | 31:07:02 | 05:31:23 | 140027 | 164874
8 | 36:38:25 | 05:17:35 | 164875 | 188684
9 | 41:55:60 | 05:06:17 | 188685 | 211651
10 | 47:02:02 | 03:37:48 | 211652 | 227974
11 | 50:39:50 | 04:53:27 | 227975 | 249976
12 | 55:33:02 | 05:17:60 | 249977 | 273811
13 | 60:50:62 | 04:48:55 | 273812 | 295466

List of alternate offset correction values
# | Absolute | Relative | Confidence
–––––––––––––––––––––
1 | 1980 | 1313 | 9

AccurateRip Summary (DiscID: 001fe62a-013f1575-a80f630d)
Track 01 : OK (v1+v2, confidence 30/50)
Track 02 : OK (v1+v2, confidence 30/50)
Track 03 : OK (v1+v2, confidence 30/50)
Track 04 : OK (v1+v2, confidence 31/51)
Track 05 : OK (v1+v2, confidence 30/50)
Track 06 : OK (v1+v2, confidence 30/50)
Track 07 : OK (v1+v2, confidence 30/50)
Track 08 : OK (v1+v2, confidence 29/49)
Track 09 : OK (v1+v2, confidence 30/49)
Track 10 : OK (v1+v2, confidence 30/49)
Track 11 : OK (v1+v2, confidence 30/48)
Track 12 : OK (v1+v2, confidence 30/49)
Track 13 : OK (v1+v2, confidence 31/49)
->All tracks accurately ripped.

All Tracks
Album gain : 1.65 dB
Peak : 0.972137
Statistics
Read error : 0
Jitter error (maybe fixed) : 0
Retry sector count : 0
Damaged sector count : 0

Track 01
Filename : /Users/ryanrosen/Desktop/FLAC/Phil Woods - Here's to My Lady (1989) [FLAC]/01 Superette.flac
Pre-gap length : 00:02:37

Track gain : 0.58 dB
Peak : 0.972137
CRC32 hash (test run) : D7B7A7AB
CRC32 hash : D7B7A7AB
CRC32 hash (skip zero) : F9C83275
AccurateRip v1 signature : 164A0674
AccurateRip v2 signature : F5B106B1
->Accurately ripped (v1+v2, confidence 25+5/50)
Statistics
Read error : 0
Jitter error (maybe fixed) : 0
Retry sector count : 0
Damaged sector count : 0

Track 02
Filename : /Users/ryanrosen/Desktop/FLAC/Phil Woods - Here's to My Lady (1989) [FLAC]/02 Johnny Hodges.flac
Pre-gap length : 00:02:34

Track gain : 2.15 dB
Peak : 0.724152
CRC32 hash (test run) : D5670768
CRC32 hash : D5670768
CRC32 hash (skip zero) : CC5A95D1
AccurateRip v1 signature : B9CD9B72
AccurateRip v2 signature : E6AB0D1F
->Accurately ripped (v1+v2, confidence 25+5/50)
Statistics
Read error : 0
Jitter error (maybe fixed) : 0
Retry sector count : 0
Damaged sector count : 0

Track 03
Filename : /Users/ryanrosen/Desktop/FLAC/Phil Woods - Here's to My Lady (1989) [FLAC]/03 Another Love Song.flac
Pre-gap length : 00:00:69

Track gain : 3.45 dB
Peak : 0.399445
CRC32 hash (test run) : A5A802EF
CRC32 hash : A5A802EF
CRC32 hash (skip zero) : 9210D4F2
AccurateRip v1 signature : 83B006A7
AccurateRip v2 signature : 98773540
->Accurately ripped (v1+v2, confidence 25+5/50)
Statistics
Read error : 0
Jitter error (maybe fixed) : 0
Retry sector count : 0
Damaged sector count : 0

Track 04
Filename : /Users/ryanrosen/Desktop/FLAC/Phil Woods - Here's to My Lady (1989) [FLAC]/04 Canadian Sunset.flac
Pre-gap length : 00:01:49

Track gain : 5.39 dB
Peak : 0.611450
CRC32 hash (test run) : 29430BAD
CRC32 hash : 29430BAD
CRC32 hash (skip zero) : 1EFAD941
AccurateRip v1 signature : 95166D91
AccurateRip v2 signature : 15D367C7
->Accurately ripped (v1+v2, confidence 26+5/51)
Statistics
Read error : 0
Jitter error (maybe fixed) : 0
Retry sector count : 0
Damaged sector count : 0

Track 05
Filename : /Users/ryanrosen/Desktop/FLAC/Phil Woods - Here's to My Lady (1989) [FLAC]/05 Charles Christopher.flac
Pre-gap length : 00:01:37

Track gain : 0.84 dB
Peak : 0.936584
CRC32 hash (test run) : B098EA65
CRC32 hash : B098EA65
CRC32 hash (skip zero) : EDEA75AD
AccurateRip v1 signature : 6B50A0A6
AccurateRip v2 signature : 14331EB2
->Accurately ripped (v1+v2, confidence 25+5/50)
Statistics
Read error : 0
Jitter error (maybe fixed) : 0
Retry sector count : 0
Damaged sector count : 0

Track 06
Filename : /Users/ryanrosen/Desktop/FLAC/Phil Woods - Here's to My Lady (1989) [FLAC]/06 Butter.flac
Pre-gap length : 00:02:47

Track gain : 0.33 dB
Peak : 0.607269
CRC32 hash (test run) : DB9DCA7E
CRC32 hash : DB9DCA7E
CRC32 hash (skip zero) : B1A83CA5
AccurateRip v1 signature : 025793DF
AccurateRip v2 signature : DF4D1B37
->Accurately ripped (v1+v2, confidence 25+5/50)
Statistics
Read error : 0
Jitter error (maybe fixed) : 0
Retry sector count : 0
Damaged sector count : 0

Track 07
Filename : /Users/ryanrosen/Desktop/FLAC/Phil Woods - Here's to My Lady (1989) [FLAC]/07 Visions of Gaudi.flac
Pre-gap length : 00:01:69

Track gain : 1.35 dB
Peak : 0.840820
CRC32 hash (test run) : CF7541B3
CRC32 hash : CF7541B3
CRC32 hash (skip zero) : 7D5C3495
AccurateRip v1 signature : 80B5B853
AccurateRip v2 signature : 33683B8F
->Accurately ripped (v1+v2, confidence 25+5/50)
Statistics
Read error : 0
Jitter error (maybe fixed) : 0
Retry sector count : 0
Damaged sector count : 0

Track 08
Filename : /Users/ryanrosen/Desktop/FLAC/Phil Woods - Here's to My Lady (1989) [FLAC]/08 Yours is My Heart Alone.flac
Pre-gap length : 00:03:12

Track gain : 2.67 dB
Peak : 0.651245
CRC32 hash (test run) : E8E2BDCD
CRC32 hash : E8E2BDCD
CRC32 hash (skip zero) : 71F70BA9
AccurateRip v1 signature : 4FF25BF0
AccurateRip v2 signature : 9AA52EA1
->Accurately ripped (v1+v2, confidence 25+4/49)
Statistics
Read error : 0
Jitter error (maybe fixed) : 0
Retry sector count : 0
Damaged sector count : 0

Track 09
Filename : /Users/ryanrosen/Desktop/FLAC/Phil Woods - Here's to My Lady (1989) [FLAC]/09 Blue and Sentimental.flac
Pre-gap length : 00:01:72

Track gain : 3.78 dB
Peak : 0.623474
CRC32 hash (test run) : 0429067E
CRC32 hash : 0429067E
CRC32 hash (skip zero) : CE9E45BD
AccurateRip v1 signature : 235E1BBE
AccurateRip v2 signature : 0BAC99B4
->Accurately ripped (v1+v2, confidence 25+5/49)
Statistics
Read error : 0
Jitter error (maybe fixed) : 0
Retry sector count : 0
Damaged sector count : 0

Track 10
Filename : /Users/ryanrosen/Desktop/FLAC/Phil Woods - Here's to My Lady (1989) [FLAC]/10 Origins.flac
Pre-gap length : 00:03:24

Track gain : -0.80 dB
Peak : 0.942688
CRC32 hash (test run) : 010771CB
CRC32 hash : 010771CB
CRC32 hash (skip zero) : 45FF2B6C
AccurateRip v1 signature : 6E439560
AccurateRip v2 signature : A8BAD66B
->Accurately ripped (v1+v2, confidence 25+5/49)
Statistics
Read error : 0
Jitter error (maybe fixed) : 0
Retry sector count : 0
Damaged sector count : 0

Track 11
Filename : /Users/ryanrosen/Desktop/FLAC/Phil Woods - Here's to My Lady (1989) [FLAC]/11 Here's to My Lady.flac
Pre-gap length : 00:03:22

Track gain : 0.64 dB
Peak : 0.541534
CRC32 hash (test run) : 7BED16A1
CRC32 hash : 7BED16A1
CRC32 hash (skip zero) : A730BEBD
AccurateRip v1 signature : 850A8E0C
AccurateRip v2 signature : 24C8B0E3
->Accurately ripped (v1+v2, confidence 25+5/48)
Statistics
Read error : 0
Jitter error (maybe fixed) : 0
Retry sector count : 0
Damaged sector count : 0

Track 12
Filename : /Users/ryanrosen/Desktop/FLAC/Phil Woods - Here's to My Lady (1989) [FLAC]/12 Waltz for Debby.flac
Pre-gap length : 00:03:09

Track gain : 10.56 dB
Peak : 0.250549
CRC32 hash (test run) : 7A7E114C
CRC32 hash : 7A7E114C
CRC32 hash (skip zero) : 849AE60C
AccurateRip v1 signature : C159BB02
AccurateRip v2 signature : 9ACF0CF6
->Accurately ripped (v1+v2, confidence 25+5/49)
Statistics
Read error : 0
Jitter error (maybe fixed) : 0
Retry sector count : 0
Damaged sector count : 0

Track 13
Filename : /Users/ryanrosen/Desktop/FLAC/Phil Woods - Here's to My Lady (1989) [FLAC]/13 Just Us.flac
Pre-gap length : 00:01:14

Track gain : 2.52 dB
Peak : 0.570862
CRC32 hash (test run) : 521F661C
CRC32 hash : 521F661C
CRC32 hash (skip zero) : 20F2DD80
AccurateRip v1 signature : 6D276BCF
AccurateRip v2 signature : BE8B482F
->Accurately ripped (v1+v2, confidence 26+5/49)
Statistics
Read error : 0
Jitter error (maybe fixed) : 0
Retry sector count : 0
Damaged sector count : 0

No errors occurred

End of status report


––––––––––––––––––––––––––––––––––––––––
Analyzed: Phil Woods / Here's to My Lady
––––––––––––––––––––––––––––––––––––––––

DR Peak RMS Duration Track
––––––––––––––––––––––––––––––––––––––––
DR16 -0.25 dB -19.69 dB 3:58 01-Superette
DR14 -2.80 dB -21.75 dB 5:36 02-Johnny Hodges
DR12 -7.97 dB -25.01 dB 6:08 03-Another Love Song
DR16 -4.27 dB -26.04 dB 4:47 04-Canadian Sunset
DR15 -0.57 dB -20.82 dB 4:54 05-Charles Christopher
DR14 -4.33 dB -22.99 dB 5:44 06-Butter
DR15 -1.51 dB -22.73 dB 5:31 07-Visions of Gaudi
DR15 -3.73 dB -23.90 dB 5:17 08-Yours Is My Heart Alone
DR16 -4.10 dB -25.93 dB 5:06 09-Blue and Sentimental
DR16 -0.51 dB -19.65 dB 3:38 10-Origins
DR12 -5.33 dB -21.93 dB 4:53 11-Here's to My Lady
DR13 -12.02 dB -28.14 dB 5:18 12-Waltz for Debby
DR14 -4.87 dB -22.95 dB 4:49 13-Just Us
––––––––––––––––––––––––––––––––––––––––

Number of tracks: 13
Official DR value: DR14

Samplerate: 44100 Hz
Channels: 2
Bits per sample: 16
Bitrate: 760 kbps
Codec: FLAC
================================================================================

Phil Woods - Here's to My Lady (1989) {Chesky Records}


Thanks to the original ripper