Subcategories

Anton Batagov - Philip Glass: The Complete Piano Etudes (2017)

Posted By: SERTiL
Anton Batagov - Philip Glass: The Complete Piano Etudes (2017)

Anton Batagov - Philip Glass: The Complete Piano Etudes (2017)
EAC Rip | FLAC (tracks)+cue, log, m3u, artwork | 442 MB
Label: Orange Mountain Music – OMM 0120 | Tracks: 20 | Time: 145:20 min
Classical, Piano

This concert in particular will never happen again. says Russian pianist Anton Batagov in his notes to his new recording of Philip Glass s Complete Piano Etudes Live in Moscow. Since their publication in 2014, Glass s Etudes have been recorded many times over. The Complete Etudes represent of a body of work which took Glass over 20 years to complete. Anton Batagov s new interpretation is the first to be recorded live. Live in Moscow was recorded at Svetlanov Hall, one of the best venues in the city on a Steinway Model D using Batagov s favorite microphones, Elation KM 901 which present an absolutely natural sound, warm and breathing including that special feeling of being captured live, that special sense of capturing a snapshot in time. Batagov s previous release Prophecies captured a more mystical bent of Glass s early Minimalist style. However in this new recording, Batagov s strong technique and musical background present these Etudes in his own very personal way, in a way they have never been heard before despite adherence to the notes on the page. This new recording is perhaps the first Russian interpretation, but also certainly it is one that bring its own voice to this body of work which has become part of the new classics of our time.

Anton Batagov - Philip Glass: The Complete Piano Etudes (2017)


Tracklist Disc 1:
01 - Etude 1
02 - Etude 2
03 - Etude 3
04 - Etude 4
05 - Etude 5
06 - Etude 6
07 - Etude 7
08 - Etude 8
09 - Etude 9
10 - Etude 10

Anton Batagov - Philip Glass: The Complete Piano Etudes (2017)


Tracklist Disc 2:
01 - Etude 11
02 - Etude 12
03 - Etude 13
04 - Etude 14
05 - Etude 15
06 - Etude 16
07 - Etude 17
08 - Etude 18
09 - Etude 19
10 - Etude 20

Exact Audio Copy V1.3 from 2. September 2016

EAC extraction logfile from 30. December 2017, 10:41

Anton Batagov / The Complete Piano Etudes

Used drive : hp HLDS DVDRW GUD0N Adapter: 1 ID: 0

Read mode : Secure
Utilize accurate stream : Yes
Defeat audio cache : Yes
Make use of C2 pointers : No

Read offset correction : 102
Overread into Lead-In and Lead-Out : No
Fill up missing offset samples with silence : Yes
Delete leading and trailing silent blocks : No
Null samples used in CRC calculations : Yes
Used interface : Native Win32 interface for Win NT & 2000
Gap handling : Appended to previous track

Used output format : User Defined Encoder
Selected bitrate : 896 kBit/s
Quality : High
Add ID3 tag : No
Command line compressor : C:\EAC Rip\FLAC\flac.exe
Additional command line options : -8 -e -p -V -T "ARTIST=%artist%" -T "TITLE=%title%" -T "ALBUM=%albumtitle%" -T "DATE=%year%" -T "TRACKNUMBER=%tracknr%" -T "GENRE=%genre%" -T "PERFORMER=%albuminterpret%" -T "COMPOSER=%composer%" -T "ALBUMARTIST=%albumartist%" -T "DISCNUMBER=%cdnumber%" -T "TOTALDISCS=%totalcds%" -T "TOTALTRACKS=%numtracks%" -T "COMMENT=%comment%" %source% -o %dest%


TOC of the extracted CD

Track | Start | Length | Start sector | End sector
––––––––––––––––––––––––––––-
1 | 0:00.00 | 6:09.63 | 0 | 27737
2 | 6:09.63 | 7:50.41 | 27738 | 63028
3 | 14:00.29 | 5:18.59 | 63029 | 86937
4 | 19:19.13 | 5:23.57 | 86938 | 111219
5 | 24:42.70 | 9:01.44 | 111220 | 151838
6 | 33:44.39 | 5:49.53 | 151839 | 178066
7 | 39:34.17 | 10:27.17 | 178067 | 225108
8 | 50:01.34 | 6:36.47 | 225109 | 254855
9 | 56:38.06 | 4:29.05 | 254856 | 275035
10 | 61:07.11 | 8:44.05 | 275036 | 314340


Track 1

Filename C:\EAC Rip\Anton Batagov - The Complete Piano Etudes (2017) [CD - FLAC] {OMM 0120}\Disc 1\01 - Etude 1.wav

Pre-gap length 0:00:02.00

Peak level 62.9 %
Extraction speed 2.6 X
Track quality 99.9 %
Test CRC 1C35A55B
Copy CRC 1C35A55B
Track not present in AccurateRip database
Copy OK

Track 2

Filename C:\EAC Rip\Anton Batagov - The Complete Piano Etudes (2017) [CD - FLAC] {OMM 0120}\Disc 1\02 - Etude 2.wav

Peak level 64.8 %
Extraction speed 3.5 X
Track quality 100.0 %
Test CRC 0A868FBA
Copy CRC 0A868FBA
Track not present in AccurateRip database
Copy OK

Track 3

Filename C:\EAC Rip\Anton Batagov - The Complete Piano Etudes (2017) [CD - FLAC] {OMM 0120}\Disc 1\03 - Etude 3.wav

Peak level 71.4 %
Extraction speed 3.8 X
Track quality 100.0 %
Test CRC 11687D23
Copy CRC 11687D23
Track not present in AccurateRip database
Copy OK

Track 4

Filename C:\EAC Rip\Anton Batagov - The Complete Piano Etudes (2017) [CD - FLAC] {OMM 0120}\Disc 1\04 - Etude 4.wav

Peak level 67.9 %
Extraction speed 4.0 X
Track quality 100.0 %
Test CRC E3C2FF84
Copy CRC E3C2FF84
Track not present in AccurateRip database
Copy OK

Track 5

Filename C:\EAC Rip\Anton Batagov - The Complete Piano Etudes (2017) [CD - FLAC] {OMM 0120}\Disc 1\05 - Etude 5.wav

Peak level 25.4 %
Extraction speed 4.6 X
Track quality 100.0 %
Test CRC 71F6E049
Copy CRC 71F6E049
Track not present in AccurateRip database
Copy OK

Track 6

Filename C:\EAC Rip\Anton Batagov - The Complete Piano Etudes (2017) [CD - FLAC] {OMM 0120}\Disc 1\06 - Etude 6.wav

Peak level 82.7 %
Extraction speed 4.7 X
Track quality 100.0 %
Test CRC DCDF0170
Copy CRC DCDF0170
Track not present in AccurateRip database
Copy OK

Track 7

Filename C:\EAC Rip\Anton Batagov - The Complete Piano Etudes (2017) [CD - FLAC] {OMM 0120}\Disc 1\07 - Etude 7.wav

Peak level 59.4 %
Extraction speed 5.0 X
Track quality 100.0 %
Test CRC 5D597A6C
Copy CRC 5D597A6C
Track not present in AccurateRip database
Copy OK

Track 8

Filename C:\EAC Rip\Anton Batagov - The Complete Piano Etudes (2017) [CD - FLAC] {OMM 0120}\Disc 1\08 - Etude 8.wav

Peak level 53.3 %
Extraction speed 5.1 X
Track quality 100.0 %
Test CRC 4E83E169
Copy CRC 4E83E169
Track not present in AccurateRip database
Copy OK

Track 9

Filename C:\EAC Rip\Anton Batagov - The Complete Piano Etudes (2017) [CD - FLAC] {OMM 0120}\Disc 1\09 - Etude 9.wav

Peak level 51.8 %
Extraction speed 5.1 X
Track quality 100.0 %
Test CRC C9DA9EB7
Copy CRC C9DA9EB7
Track not present in AccurateRip database
Copy OK

Track 10

Filename C:\EAC Rip\Anton Batagov - The Complete Piano Etudes (2017) [CD - FLAC] {OMM 0120}\Disc 1\10 - Etude 10.wav

Peak level 88.8 %
Extraction speed 5.4 X
Track quality 100.0 %
Test CRC A63F7696
Copy CRC A63F7696
Track not present in AccurateRip database
Copy OK


None of the tracks are present in the AccurateRip database

No errors occurred

End of status report

–– CUETools DB Plugin V2.1.6

[CTDB TOCID: 1OXIutGCe.MbaRPOwz4JTl3nJek-] found
Submit result: already submitted
Track | CTDB Status
1 | (3/3) Accurately ripped
2 | (3/3) Accurately ripped
3 | (3/3) Accurately ripped
4 | (3/3) Accurately ripped
5 | (3/3) Accurately ripped
6 | (3/3) Accurately ripped
7 | (3/3) Accurately ripped
8 | (3/3) Accurately ripped
9 | (3/3) Accurately ripped
10 | (3/3) Accurately ripped


==== Log checksum 7AE2F5C9AB4984A01401B319407F5EC57DB91B3F09D7147E4451650401CB49E7 ====

Exact Audio Copy V1.3 from 2. September 2016

EAC extraction logfile from 30. December 2017, 12:04

Anton Batagov / The Complete Piano Etudes

Used drive : hp HLDS DVDRW GUD0N Adapter: 1 ID: 0

Read mode : Secure
Utilize accurate stream : Yes
Defeat audio cache : Yes
Make use of C2 pointers : No

Read offset correction : 102
Overread into Lead-In and Lead-Out : No
Fill up missing offset samples with silence : Yes
Delete leading and trailing silent blocks : No
Null samples used in CRC calculations : Yes
Used interface : Native Win32 interface for Win NT & 2000
Gap handling : Appended to previous track

Used output format : User Defined Encoder
Selected bitrate : 896 kBit/s
Quality : High
Add ID3 tag : No
Command line compressor : C:\EAC Rip\FLAC\flac.exe
Additional command line options : -8 -e -p -V -T "ARTIST=%artist%" -T "TITLE=%title%" -T "ALBUM=%albumtitle%" -T "DATE=%year%" -T "TRACKNUMBER=%tracknr%" -T "GENRE=%genre%" -T "PERFORMER=%albuminterpret%" -T "COMPOSER=%composer%" -T "ALBUMARTIST=%albumartist%" -T "DISCNUMBER=%cdnumber%" -T "TOTALDISCS=%totalcds%" -T "TOTALTRACKS=%numtracks%" -T "COMMENT=%comment%" %source% -o %dest%


TOC of the extracted CD

Track | Start | Length | Start sector | End sector
––––––––––––––––––––––––––––-
1 | 0:00.00 | 7:45.01 | 0 | 34875
2 | 7:45.01 | 8:18.09 | 34876 | 72234
3 | 16:03.10 | 4:35.42 | 72235 | 92901
4 | 20:38.52 | 7:09.26 | 92902 | 125102
5 | 27:48.03 | 8:33.39 | 125103 | 163616
6 | 36:21.42 | 6:34.25 | 163617 | 193191
7 | 42:55.67 | 8:11.27 | 193192 | 230043
8 | 51:07.19 | 6:30.17 | 230044 | 259310
9 | 57:37.36 | 5:58.02 | 259311 | 286162
10 | 63:35.38 | 12:01.03 | 286163 | 340240


Track 1

Filename C:\EAC Rip\Anton Batagov - The Complete Piano Etudes (2017) [CD - FLAC] {OMM 0120}\Disc 2\01 - Etude 11.wav

Pre-gap length 0:00:02.00

Peak level 79.0 %
Extraction speed 1.4 X
Track quality 100.0 %
Test CRC D896C398
Copy CRC D896C398
Track not present in AccurateRip database
Copy OK

Track 2

Filename C:\EAC Rip\Anton Batagov - The Complete Piano Etudes (2017) [CD - FLAC] {OMM 0120}\Disc 2\02 - Etude 12.wav

Peak level 52.9 %
Extraction speed 1.7 X
Track quality 100.0 %
Test CRC 47834CAC
Copy CRC 47834CAC
Track not present in AccurateRip database
Copy OK

Track 3

Filename C:\EAC Rip\Anton Batagov - The Complete Piano Etudes (2017) [CD - FLAC] {OMM 0120}\Disc 2\03 - Etude 13.wav

Peak level 75.3 %
Extraction speed 1.5 X
Track quality 99.9 %
Test CRC E65FE2DE
Copy CRC E65FE2DE
Track not present in AccurateRip database
Copy OK

Track 4

Filename C:\EAC Rip\Anton Batagov - The Complete Piano Etudes (2017) [CD - FLAC] {OMM 0120}\Disc 2\04 - Etude 14.wav

Peak level 47.3 %
Extraction speed 1.9 X
Track quality 100.0 %
Test CRC 16D8D035
Copy CRC 16D8D035
Track not present in AccurateRip database
Copy OK

Track 5

Filename C:\EAC Rip\Anton Batagov - The Complete Piano Etudes (2017) [CD - FLAC] {OMM 0120}\Disc 2\05 - Etude 15.wav

Peak level 69.3 %
Extraction speed 2.1 X
Track quality 100.0 %
Test CRC C688FCD1
Copy CRC C688FCD1
Track not present in AccurateRip database
Copy OK

Track 6

Filename C:\EAC Rip\Anton Batagov - The Complete Piano Etudes (2017) [CD - FLAC] {OMM 0120}\Disc 2\06 - Etude 16.wav

Peak level 79.8 %
Extraction speed 2.2 X
Track quality 100.0 %
Test CRC 96A5E774
Copy CRC 96A5E774
Track not present in AccurateRip database
Copy OK

Track 7

Filename C:\EAC Rip\Anton Batagov - The Complete Piano Etudes (2017) [CD - FLAC] {OMM 0120}\Disc 2\07 - Etude 17.wav

Peak level 58.6 %
Extraction speed 2.2 X
Track quality 99.9 %
Test CRC 123863F2
Copy CRC 123863F2
Track not present in AccurateRip database
Copy OK

Track 8

Filename C:\EAC Rip\Anton Batagov - The Complete Piano Etudes (2017) [CD - FLAC] {OMM 0120}\Disc 2\08 - Etude 18.wav

Peak level 63.1 %
Extraction speed 2.5 X
Track quality 100.0 %
Test CRC 286C6114
Copy CRC 286C6114
Track not present in AccurateRip database
Copy OK

Track 9

Filename C:\EAC Rip\Anton Batagov - The Complete Piano Etudes (2017) [CD - FLAC] {OMM 0120}\Disc 2\09 - Etude 19.wav

Peak level 62.2 %
Extraction speed 2.6 X
Track quality 100.0 %
Test CRC 7BBD3E58
Copy CRC 7BBD3E58
Track not present in AccurateRip database
Copy OK

Track 10

Filename C:\EAC Rip\Anton Batagov - The Complete Piano Etudes (2017) [CD - FLAC] {OMM 0120}\Disc 2\10 - Etude 20.wav

Peak level 63.5 %
Extraction speed 2.8 X
Track quality 100.0 %
Test CRC 2FE1A154
Copy CRC 2FE1A154
Track not present in AccurateRip database
Copy OK


None of the tracks are present in the AccurateRip database

No errors occurred

End of status report

–– CUETools DB Plugin V2.1.6

[CTDB TOCID: .oTnUKhBAGHH_T0nJoApQnPJJj8-] found
Submit result: already submitted
Track | CTDB Status
1 | (4/4) Accurately ripped
2 | (4/4) Accurately ripped
3 | (4/4) Accurately ripped
4 | (4/4) Accurately ripped
5 | (4/4) Accurately ripped
6 | (4/4) Accurately ripped
7 | (4/4) Accurately ripped
8 | (4/4) Accurately ripped
9 | (4/4) Accurately ripped
10 | (4/4) Accurately ripped


==== Log checksum 3F6D288F46082229C34986A36ED9C43136FF49689CB8530B480022B143415CD1 ====


Anton Batagov - Philip Glass: The Complete Piano Etudes (2017)


Thanks to the Original customer.