Subcategories

Philip Glass - Powaqqatsi (1988) [Reissue 1997]

Posted By: antonyart
Philip Glass - Powaqqatsi (1988) [Reissue 1997]

Philip Glass - Powaqqatsi (1988) [Reissue 1997]
EAC Rip | FLAC (IMG+CUE+LOG) | 460 MB | Complete HQ Scans 600 dpi JPG included | MP3 Lame 320 CBR | 170 MB
Genre: Contemporary Classical / Soundtrack / Ethnic | RAR 5% Rec. | Label: Elektra-Nonesuch 79192-2) | Uploaded, Depositfiles

Powaqqatsi is second part of the Godfrey Reggio / Philip Glass "Quatsi" trilogy. With a more global view than Koyaanisqatsi, Reggio and Glass' first collaboration, Powaqqatsi examines life on our planet, focusing on the negative transformation of land-based, human-scale societies into technologically-driven, urban clones.
Composer Philip Glass, went to Peru, Brazil and West Africa to research and develop the score. It is a departure from his earlier works in the use of many indigenous instruments as well as a Hispanic children's choir, and the integration of African, Latin, Indian and Middle Eastern rhythms. Over 90 musicians and singers were involved in the recording of the score.
Philip Glass - Powaqqatsi (1988) [Reissue 1997]

Tracklist:

01. Serra Pelada 05:02
02. The title 00:25
03. Anthem-Part 1 06:23
04. That place 04:42
05. Anthem-Part 2 03:49
06. Mosque and temple 04:42
07. Anthem-Part 3 08:11
08. Train to São Paulo 03:04
09. Video dream 02:14
10. New cities in ancient lands, China 02:47
11. New cities in ancient lands, Africa 02:56
12. New cities in ancient lands, India 04:42
13. The unutterable 07:02
14. CAUGHT! 07:20
15. Mr Suso #1 01:08
16. From Egypt 03:23
17. Mr Suso #2 with reflection 01:18
18. Powaqqatsi 04:35

Total: 73:47

Exact Audio Copy V1.0 beta 3 from 29. August 2011

EAC extraction logfile from 3. December 2012, 22:11

Philip Glass / Powaqqatsi

Used drive : HL-DT-STDVDRAM GT34N Adapter: 0 ID: 2

Read mode : Secure
Utilize accurate stream : Yes
Defeat audio cache : Yes
Make use of C2 pointers : No

Read offset correction : 103
Overread into Lead-In and Lead-Out : No
Fill up missing offset samples with silence : Yes
Delete leading and trailing silent blocks : No
Null samples used in CRC calculations : Yes
Used interface : Native Win32 interface for Win NT & 2000

Used output format : User Defined Encoder
Selected bitrate : 896 kBit/s
Quality : High
Add ID3 tag : Yes
Command line compressor : C:\Program Files (x86)\Exact Audio Copy\FLAC\FLAC.EXE
Additional command line options : -6 -V -T "ARTIST=%artist%" -T "TITLE=%title%" -T "ALBUM=%albumtitle%" -T "DATE=%year%" -T "TRACKNUMBER=%tracknr%" -T "GENRE=%genre%" -T "COMMENT=%comment%" -T "BAND=%albuminterpret%" -T "ALBUMARTIST=%albuminterpret%" -T "COMPOSER=%composer%" %haslyrics%–tag-from-file=LYRICS="%lyricsfile%"%haslyrics% -T "DISCNUMBER=%cdnumber%" -T "TOTALDISCS=%totalcds%" -T "TOTALTRACKS=%numtracks%" %hascover%–picture="%coverfile%"%hascover% %source% -o %dest%


TOC of the extracted CD

Track | Start | Length | Start sector | End sector
––––––––––––––––––––––––––––-
1 | 0:00.00 | 5:02.22 | 0 | 22671
2 | 5:02.22 | 0:24.38 | 22672 | 24509
3 | 5:26.60 | 6:22.72 | 24510 | 53231
4 | 11:49.57 | 4:41.53 | 53232 | 74359
5 | 16:31.35 | 3:49.00 | 74360 | 91534
6 | 20:20.35 | 4:42.35 | 91535 | 112719
7 | 25:02.70 | 8:11.20 | 112720 | 149564
8 | 33:14.15 | 3:04.12 | 149565 | 163376
9 | 36:18.27 | 2:14.70 | 163377 | 173496
10 | 38:33.22 | 2:47.60 | 173497 | 186081
11 | 41:21.07 | 2:56.10 | 186082 | 199291
12 | 44:17.17 | 4:42.33 | 199292 | 220474
13 | 48:59.50 | 7:02.57 | 220475 | 252181
14 | 56:02.32 | 7:22.33 | 252182 | 285364
15 | 63:24.65 | 1:06.15 | 285365 | 290329
16 | 64:31.05 | 3:23.12 | 290330 | 305566
17 | 67:54.17 | 1:18.63 | 305567 | 311479
18 | 69:13.05 | 4:34.20 | 311480 | 332049


Range status and errors

Selected range

Filename D:\FLAC\GLASS Philip -88- Powaqqatsi\Philip Glass - Powaqqatsi.wav

Peak level 97.0 %
Extraction speed 2.3 X
Range quality 100.0 %
Test CRC 144C7054
Copy CRC 144C7054
Copy OK

No errors occurred


AccurateRip summary

Track 1 accurately ripped (confidence 3) [5195C261] (AR v2)
Track 2 accurately ripped (confidence 3) [28917179] (AR v2)
Track 3 accurately ripped (confidence 2) [35F7F280] (AR v2)
Track 4 accurately ripped (confidence 3) [64C0F94C] (AR v2)
Track 5 accurately ripped (confidence 3) [CEA25302] (AR v2)
Track 6 accurately ripped (confidence 2) [988334B5] (AR v2)
Track 7 accurately ripped (confidence 3) [777A225D] (AR v2)
Track 8 accurately ripped (confidence 2) [B38B91D9] (AR v2)
Track 9 accurately ripped (confidence 2) [C425AD8F] (AR v2)
Track 10 accurately ripped (confidence 3) [90E7A4CC] (AR v2)
Track 11 accurately ripped (confidence 3) [1A2F5897] (AR v2)
Track 12 accurately ripped (confidence 2) [68402F20] (AR v2)
Track 13 accurately ripped (confidence 2) [05848D18] (AR v2)
Track 14 accurately ripped (confidence 2) [E32597A7] (AR v2)
Track 15 accurately ripped (confidence 3) [566AA883] (AR v2)
Track 16 accurately ripped (confidence 2) [5F4EDD4D] (AR v2)
Track 17 accurately ripped (confidence 3) [92C912F2] (AR v2)
Track 18 accurately ripped (confidence 2) [1C190B63] (AR v2)

All tracks accurately ripped

End of status report

==== Log checksum B05E65B404D66BF3064E9710EF8D6D536807096A7522EDE1E6F316E357F7E330 ====

foobar2000 1.1.9 / Dynamic Range Meter 1.1.1
log date: 2012-12-03 22:12:49

––––––––––––––––––––––––––––––––––––––––
Analyzed: Philip Glass / Powaqqatsi
––––––––––––––––––––––––––––––––––––––––

DR Peak RMS Duration Track
––––––––––––––––––––––––––––––––––––––––
DR13 -1.13 dB -15.60 dB 5:02 01-Serra Pelada
DR6 -9.03 dB -19.76 dB 0:25 02-The Title
DR14 -2.87 dB -19.75 dB 6:23 03-Anthem - Part 1
DR12 -8.33 dB -24.28 dB 4:42 04-That Place
DR14 -2.27 dB -21.35 dB 3:49 05-Anthem - Part 2
DR15 -3.36 dB -22.29 dB 4:42 06-Mosque And Temple
DR10 -1.59 dB -17.08 dB 8:11 07-Anthem - Part 3
DR11 -2.73 dB -16.70 dB 3:04 08-Train To Sao Paulo
DR11 -10.12 dB -22.89 dB 2:15 09-Video Dream
DR11 -8.22 dB -22.50 dB 2:48 10-New Cities In Ancient Lands, China
DR16 -5.52 dB -23.80 dB 2:56 11-New Cities In Ancient Lands, Africa
DR14 -2.20 dB -19.77 dB 4:42 12-New Cities In Ancient Lands, India
DR15 -1.77 dB -23.61 dB 7:03 13-The Unutterable
DR13 -0.26 dB -16.38 dB 7:22 14-CAUGHT!
DR10 -10.07 dB -23.41 dB 1:06 15-Mr. Suso #1
DR12 -11.88 dB -27.33 dB 3:23 16-From Egypt
DR8 -9.00 dB -22.71 dB 1:19 17-Mr. Suso #2 with Reflection
DR13 -4.11 dB -20.50 dB 4:34 18-Powaqqatsi
––––––––––––––––––––––––––––––––––––––––

Number of tracks: 18
Official DR value: DR12

Samplerate: 44100 Hz
Channels: 2
Bits per sample: 16
Bitrate: 839 kbps
Codec: FLAC
================================================================================

Credits:
Bass Vocals [Bass Voice]– Al DeRuiter*
Bassoon– Ethan Bauch, Lauren Goldstein, Mike Finn (2)
Cello– Seymour Barab
Choir– Hispanic Young People's Chorus*
Clarinet– John Moses, Laura Flax, Steve Hartman
Composed By– Philip Glass
Conductor– Michael Riesman
Contractor, Other [Administration]– Dan Dryden
Coordinator [Coordination For Children's Chorus]– Taller Latinoamericano
Design– Pentagram (5)
Directed By [Choir Musical Director]– Angélica Rosa Sepúlveda
Double Bass– Barbara Wilson (2)
Effects [Ambient Sound Effects], Recorded By [Additional Recording]– Bob Bielecki, Connie Kieltyka
Engineer [Assistant]– Miles Green
Engineer [Recording Engineer], Producer [Associate Music Producer]– Don Christensen
Flute, Piccolo Flute– Diva Goodfriend-Koven, Michael Parloff
Flute, Piccolo Flute, Saxophone– Jack Kripl
French Horn– Ann Yarbrough, Joe Anderer*, Alan Spanger*, Sharon Moe, Tony Miranda
Keyboards– Lee Curreri, Martin Goldray, Michael Riesman, Paul Rice
Keyboards, Programmed By [Synthesizer Programming], Sounds [Sound Design]– Jeffrey Rona*
Kora, Idiophone [Balafon], Lute [Dousongonni], Violin [Nyanyer]– Foday Musa Suso
Lyrics By [For Children's Choir]– Bernardo Palumbo
Mastered By– Bill Kipper
Other [Children's Choir Executive Director]– Hector Carrasquillo
Other [Digital Tape Machines Supplied By]– Sid Zimet
Other [Technical Adviser And Consultant For African Music]– Foday Musa Suso
Other [Technical Adviser And Consultant For South American Music]– Bernardo Palumbo
Percussion, Ensemble– Joe Passaro, Roger Squitero, Sue Evans, Valerie Naranjo
Producer– Kurt Munkacsi
Quena, Ensemble– Jefe Ronda, Jorge Joven, Miguel Grande
Saxophone– Steve Elson
Saxophone, Didgeridoo– Jon Gibson (2)
Soloist, Vocals– Shaikh Fathy Mady
Sounds [Sound Effects Design]– Gary Summers
Supervised By [Production Supervisor]– Rory Johnston
Tambura [Tanpura]– Frank Menusan
Trombone– James Pugh*, Keith Oquinn*
Trombone, Tuba– Alan Raph
Trumpet– Bill Rhodin, Lorraine Cohen, Neil Balm, Wilmer Wise
Viola– Jack Rosenberg, Jill Jaffe, Karl Bargen, Lois Martin
Violin– Carol Pool, Elliot Rosoff, Karen Karlsrud, Linda Quan, Richard Sortomme, Sanford Allen, Sergiu Schwartz

from discogs.com

Note about the date of reissue:
All sources indicate 1988 year. But the matrix show the number 09/97. In my experiences with discs Made ​​in Germany just that identifies the actual month and year of manufacture.
It's interesting. If you have some to explain, let me know
.

Philip Glass - Powaqqatsi (1988) [Reissue 1997]


This CD is from my personal collection. My original rip & my scan work.
>> here is my blog with all my rips <<
Please, do not mirror these links at any web pages.
FLAC + HQ 600 dpi complete scans:

Uploaded

Depositfiles

MP3 + 300 dpi front/back cover scans:

Uploaded

Depositfiles


Password: Ant