Subcategories

Philippe Rombi - Frantz (2016)

Posted By: aasana
Philippe Rombi - Frantz (2016)

Philippe Rombi - Frantz (2016)
EAC Rip | FLAC (tracks+.cue+.log+.m3u) & Scans | 35:50 min | 200 MB
Soundtrack | Label: Cristal Records ‎– BO-31

Au lendemain de la guerre 14-18, dans une petite ville allemande, Anna se rend tous les jours sur la tombe de son fiancé, Frantz, mort sur le front en France. Mais ce jour-là, un jeune Français, Adrien, est venu se recueillir sur la tombe de son ami allemand. Cette présence à la suite de la défaite allemande va provoquer des réactions passionnelles dans la ville.

Mot du réalisateur :
Pour cette nouvelle collaboration avec Philippe Rombi, nous avons décidé qu'au tout début du film, il y aurait une austérité, aussi bien dans la mise en scène que dans l'utilisation de la musique, très peu présente et discrète, jouant sur des tensions dramatiques et un léger suspense.
Et petit à petit, l'idée était, qu'en parallèle de l'histoire d'amour qui naît, intervienne une musique plus sentimentale. Cette musique devrait suivre le trajet, les espoirs d'Anna, puis ses désillusions avec de rares bouffées de romantisme dans l'esprit des compositeurs de l'époque comme Mahler et Debussy. Philippe a su encore une fois incarner avec délicatesse et élégance l'essence romanesque et dramatique de Frantz.

Tracklist:
01. Philippe Rombi - Chanson d'automne (poème de Verlaine)
02. Philippe Rombi - Une amitié
03. Philippe Rombi - La promenade
04. Philippe Rombi - La leçon de violon
05. Philippe Rombi - Les tourments
06. Philippe Rombi - Nocturne No 20 en do dièse mineur, op. posthume (F. Chopin)
07. Philippe Rombi - La tranchée
08. Philippe Rombi - Le secret
09. Philippe Rombi - Le départ d'Adrien
10. Philippe Rombi - La lettre de Frantz
11. Philippe Rombi - Quatuor à cordes No 1, op. 11: II Andante cantabile (P.I. Tschaikovski)
12. Philippe Rombi - Paris
13. Philippe Rombi - Les retrouvailles
14. Philippe Rombi - Nuit d'étoiles (Cl. Debussy - Th. de Banville)
15. Philippe Rombi - Le suicidé

Exact Audio Copy V1.3 from 2. September 2016

EAC extraction logfile from 13. November 2016, 16:15

Philippe Rombi / Frantz

Used drive : PLEXTOR CD-R PX-230A Adapter: 1 ID: 0

Read mode : Secure
Utilize accurate stream : Yes
Defeat audio cache : Yes
Make use of C2 pointers : No

Read offset correction : 738
Overread into Lead-In and Lead-Out : No
Fill up missing offset samples with silence : Yes
Delete leading and trailing silent blocks : No
Null samples used in CRC calculations : Yes
Used interface : Native Win32 interface for Win NT & 2000
Gap handling : Appended to previous track

Used output format : User Defined Encoder
Selected bitrate : 1024 kBit/s
Quality : High
Add ID3 tag : No
Command line compressor : C:\Program Files\Exact Audio Copy\Flac\flac.exe
Additional command line options : -6 -V -T "ARTIST=%artist%" -T "TITLE=%title%" -T "ALBUM=%albumtitle%" -T "DATE=%year%" -T "TRACKNUMBER=%tracknr%" -T "GENRE=%genre%" -T "COMMENT=%comment%" -T "ALBUMARTIST=%albuminterpret%" -T "COMPOSER=%composer%" -T "DISCNUMBER=%cdnumber%" -T "TOTALDISCS=%totalcds%" -T "TOTALTRACKS=%numtracks%" %source% -o %dest%


TOC of the extracted CD

Track | Start | Length | Start sector | End sector
––––––––––––––––––––––––––––-
1 | 0:00.00 | 0:53.02 | 0 | 3976
2 | 0:53.02 | 1:30.09 | 3977 | 10735
3 | 2:23.11 | 1:22.58 | 10736 | 16943
4 | 3:45.69 | 0:48.03 | 16944 | 20546
5 | 4:33.72 | 3:10.52 | 20547 | 34848
6 | 7:44.49 | 2:23.68 | 34849 | 45641
7 | 10:08.42 | 2:24.51 | 45642 | 56492
8 | 12:33.18 | 1:52.18 | 56493 | 64910
9 | 14:25.36 | 0:59.51 | 64911 | 69386
10 | 15:25.12 | 3:02.39 | 69387 | 83075
11 | 18:27.51 | 7:17.43 | 83076 | 115893
12 | 25:45.19 | 1:42.46 | 115894 | 123589
13 | 27:27.65 | 4:57.26 | 123590 | 145890
14 | 32:25.16 | 1:34.37 | 145891 | 152977
15 | 33:59.53 | 1:50.52 | 152978 | 161279


Track 1

Filename C:\Music\01 - Philippe Rombi - Chanson d'automne (poème de Verlaine).wav

Pre-gap length 0:00:02.00

Peak level 84.3 %
Extraction speed 4.5 X
Track quality 100.0 %
Test CRC C14BA6E7
Copy CRC C14BA6E7
Track not present in AccurateRip database
Copy OK

Track 2

Filename C:\Music\02 - Philippe Rombi - Une amitié.wav

Peak level 94.4 %
Extraction speed 5.9 X
Track quality 100.0 %
Test CRC 8F3B69EF
Copy CRC 8F3B69EF
Track not present in AccurateRip database
Copy OK

Track 3

Filename C:\Music\03 - Philippe Rombi - La promenade.wav

Peak level 94.4 %
Extraction speed 6.1 X
Track quality 100.0 %
Test CRC 58DAE2DB
Copy CRC 58DAE2DB
Track not present in AccurateRip database
Copy OK

Track 4

Filename C:\Music\04 - Philippe Rombi - La leçon de violon.wav

Peak level 94.4 %
Extraction speed 5.0 X
Track quality 100.0 %
Test CRC 9207DFDD
Copy CRC 9207DFDD
Track not present in AccurateRip database
Copy OK

Track 5

Filename C:\Music\05 - Philippe Rombi - Les tourments.wav

Peak level 94.4 %
Extraction speed 7.3 X
Track quality 100.0 %
Test CRC F79CDD6F
Copy CRC F79CDD6F
Track not present in AccurateRip database
Copy OK

Track 6

Filename C:\Music\06 - Philippe Rombi - Nocturne No 20 en do dièse mineur, op. posthume (F. Chopin).wav

Peak level 81.8 %
Extraction speed 7.1 X
Track quality 100.0 %
Test CRC 0CCC80EC
Copy CRC 0CCC80EC
Track not present in AccurateRip database
Copy OK

Track 7

Filename C:\Music\07 - Philippe Rombi - La tranchée.wav

Peak level 94.4 %
Extraction speed 7.4 X
Track quality 100.0 %
Test CRC FA84C3FD
Copy CRC FA84C3FD
Track not present in AccurateRip database
Copy OK

Track 8

Filename C:\Music\08 - Philippe Rombi - Le secret.wav

Peak level 87.5 %
Extraction speed 5.7 X
Track quality 99.9 %
Test CRC 0537AF04
Copy CRC 0537AF04
Track not present in AccurateRip database
Copy OK

Track 9

Filename C:\Music\09 - Philippe Rombi - Le départ d'Adrien.wav

Peak level 93.5 %
Extraction speed 6.3 X
Track quality 100.0 %
Test CRC 3E02F19B
Copy CRC 3E02F19B
Track not present in AccurateRip database
Copy OK

Track 10

Filename C:\Music\10 - Philippe Rombi - La lettre de Frantz.wav

Peak level 94.4 %
Extraction speed 7.9 X
Track quality 100.0 %
Test CRC 107CC47E
Copy CRC 107CC47E
Track not present in AccurateRip database
Copy OK

Track 11

Filename C:\Music\11 - Philippe Rombi - Quatuor à cordes No 1, op. 11- II Andante cantabile (P.I. Tschaikovski).wav

Peak level 94.4 %
Extraction speed 8.4 X
Track quality 99.9 %
Test CRC 4602B17E
Copy CRC 4602B17E
Track not present in AccurateRip database
Copy OK

Track 12

Filename C:\Music\12 - Philippe Rombi - Paris.wav

Peak level 72.6 %
Extraction speed 7.3 X
Track quality 100.0 %
Test CRC B807183A
Copy CRC B807183A
Track not present in AccurateRip database
Copy OK

Track 13

Filename C:\Music\13 - Philippe Rombi - Les retrouvailles.wav

Peak level 94.4 %
Extraction speed 9.5 X
Track quality 100.0 %
Test CRC 1C2D098E
Copy CRC 1C2D098E
Track not present in AccurateRip database
Copy OK

Track 14

Filename C:\Music\14 - Philippe Rombi - Nuit d'étoiles (Cl. Debussy - Th. de Banville).wav

Peak level 94.4 %
Extraction speed 8.3 X
Track quality 100.0 %
Test CRC 66D820C7
Copy CRC 66D820C7
Track not present in AccurateRip database
Copy OK

Track 15

Filename C:\Music\15 - Philippe Rombi - Le suicidé.wav

Peak level 94.4 %
Extraction speed 8.3 X
Track quality 100.0 %
Test CRC BBE04A3D
Copy CRC BBE04A3D
Track not present in AccurateRip database
Copy OK


None of the tracks are present in the AccurateRip database

No errors occurred

End of status report

–– CUETools DB Plugin V2.1.6

[CTDB TOCID: sAZdQinUxQPEPvugWsaMNbspcis-] found
Submit result: sAZdQinUxQPEPvugWsaMNbspcis- has been confirmed
Track | CTDB Status
1 | (3/3) Accurately ripped
2 | (3/3) Accurately ripped
3 | (3/3) Accurately ripped
4 | (3/3) Accurately ripped
5 | (3/3) Accurately ripped
6 | (3/3) Accurately ripped
7 | (3/3) Accurately ripped
8 | (3/3) Accurately ripped
9 | (3/3) Accurately ripped
10 | (3/3) Accurately ripped
11 | (3/3) Accurately ripped
12 | (3/3) Accurately ripped
13 | (3/3) Accurately ripped
14 | (3/3) Accurately ripped
15 | (3/3) Accurately ripped


==== Log checksum C71A36A8C2A9DA29A5E9D78338968EA0C042A6DB7979BF09641072DB826BC719 ====