Subcategories

Phutureprimitive - Kinetik (2011)

Posted By: gribovar
Phutureprimitive - Kinetik (2011)

Phutureprimitive - Kinetik (2011)
EAC Rip | WavPack (image+.cue+log) - 367 MB | Covers includes
Genre: Dubstep, Dub, Electro | RAR 3% Rec. | Label: Native Harmonix (Native Harmonix 002), CDr

Known for his ambient and technical sound - synthy, bass-driven melodies with dark heavy beats, sometimes intertwined with more organic instruments - Phutureprimitive does not disappoint, even considering the lengthy seven-year absence. Instead, he manages to come back even stronger on 'Kinetik', with slightly darker bass-laden tracks that are full of the raw energy Phutureprimitive fans have come to expect. It takes more than just a few listens to notice all the intricacies Rain carefully crafts into each cut on the album.
Tracklist:
01. Cryogenic Dreams
02. Kinetik
03. Xotica
04. The Changeling
05. Rapid Cognition
06. Ripple Effect
07. High Rez
08. Predatory Instincts
09. Center Of Gravity
10. Disappear

Total time: 53:01

Exact Audio Copy V1.0 beta 1 from 15. November 2010

EAC extraction logfile from 31. July 2011, 14:45

Phutureprimitive / Kinetik

Used drive : PLEXTOR DVDR PX-830SA Adapter: 0 ID: 0

Read mode : Secure
Utilize accurate stream : Yes
Defeat audio cache : Yes
Make use of C2 pointers : No

Read offset correction : 96
Overread into Lead-In and Lead-Out : No
Fill up missing offset samples with silence : Yes
Delete leading and trailing silent blocks : No
Null samples used in CRC calculations : Yes
Used interface : Installed external ASPI interface

Used output format : User Defined Encoder
Selected bitrate : 1024 kBit/s
Quality : High
Add ID3 tag : No
Command line compressor : C:\Program Files\Exact Audio Copy\wavpack.exe
Additional command line options : -hmxd -w "GENRE=%m" -w "DATE=%y" -w "COMMENT=Released by a-one" %s %d


TOC of the extracted CD

Track | Start | Length | Start sector | End sector
––––––––––––––––––––––––––––-
1 | 0:00.00 | 6:25.33 | 0 | 28907
2 | 6:25.33 | 5:32.13 | 28908 | 53820
3 | 11:57.46 | 5:05.74 | 53821 | 76769
4 | 17:03.45 | 5:34.17 | 76770 | 101836
5 | 22:37.62 | 5:15.53 | 101837 | 125514
6 | 27:53.40 | 5:39.27 | 125515 | 150966
7 | 33:32.67 | 5:34.60 | 150967 | 176076
8 | 39:07.52 | 5:41.73 | 176077 | 201724
9 | 44:49.50 | 4:31.62 | 201725 | 222111
10 | 49:21.37 | 3:39.32 | 222112 | 238568


Range status and errors

Selected range

Filename C:\Rips\Phutureprimitive - Kinetik.wav

Peak level 96.6 %
Extraction speed 0.5 X
Range quality 100.0 %
Test CRC 982E0646
Copy CRC 982E0646
Copy OK

No errors occurred


AccurateRip summary

Track 1 not present in database
Track 2 not present in database
Track 3 not present in database
Track 4 not present in database
Track 5 not present in database
Track 6 not present in database
Track 7 not present in database
Track 8 not present in database
Track 9 not present in database
Track 10 not present in database

None of the tracks are present in the AccurateRip database

End of status report

Thanks to a-one