Subcategories

Noel Mewton-Wood plays Weber and Chopin

Posted By: DentonW
Noel Mewton-Wood plays Weber and Chopin

Piano Masters - Noel Mewton-Wood - Weber: Sonatas 1 & 2, Chopin: Tarantelle
EAC (FLAC, IMG+CUE, LOG) | Complete Scans 300/600 dpi | 1CD, 207 MB + 4,82 MB (.rar) | FS and RS
Classical | Label: Pearl GEM 0031, United Kingdom 1998 (mono recordings)



01. Carl Maria von Weber / Sonata 1 in c major op 24 - 1. Allegro [8:08]
02. Carl Maria von Weber / Sonata 1 in c major op 24 - 2. Adagio [5:42]
03. Carl Maria von Weber / Sonata 1 in c major op 24 - 3. Menuetto [7:14]
04. Carl Maria von Weber / Sonata 1 in c major op 24 - 4. Rondo. Presto [4:03]
05. Carl Maria von Weber / Sonata 2 in a-flat major op 39 - 1. Allegro moderato [13:03]
06. Carl Maria von Weber / Sonata 2 in a-flat major op 39 - 2. Andante [5:12]
07. Carl Maria von Weber / Sonata 2 in a-flat major op 39 - 3. Minuetto Capricciosa [3:21]
08. Carl Maria von Weber / Sonata 2 in a-flat major op 39 - Rondo. Moderato [4:53]
09. Frederic Chopin / Tarantelle in a-flat major op 43 [3:04]

Transferred by Roger Beardsely from 78 rpm records, originally issued by the Decca label; recorded c. 1941.

Exact Audio Copy V1.0 beta 2 from 29. April 2011

EAC extraction logfile from 22. July 2011, 1:12

Weber - Chopin / Piano Masters Noel Mewton-Wood

Used drive : ATAPI DVD A DH16A6S Adapter: 1 ID: 1

Read mode : Secure
Utilize accurate stream : Yes
Defeat audio cache : No
Make use of C2 pointers : Yes

Read offset correction : 6
Overread into Lead-In and Lead-Out : No
Fill up missing offset samples with silence : Yes
Delete leading and trailing silent blocks : No
Null samples used in CRC calculations : No
Used interface : Native Win32 interface for Win NT & 2000

Used output format : User Defined Encoder
Selected bitrate : 896 kBit/s
Quality : High
Add ID3 tag : No
Command line compressor : D:\Programme\Exact Audio Copy\FLAC\FLAC.EXE
Additional command line options : -1 -V -T "ARTIST=%artist%" -T "TITLE=%title%" -T "ALBUM=%albumtitle%" -T "DATE=%year%" -T "TRACKNUMBER=%tracknr%" -T "GENRE=%genre%" -T "COMMENT=%comment%" -T "BAND=%albuminterpret%" -T "COMPOSER=%composer%" %haslyrics%–ta


TOC of the extracted CD

Track | Start | Length | Start sector | End sector
––––––––––––––––––––––––––––-
1 | 0:00.00 | 8:08.38 | 0 | 36637
2 | 8:08.38 | 5:42.12 | 36638 | 62299
3 | 13:50.50 | 7:14.56 | 62300 | 94905
4 | 21:05.31 | 4:03.06 | 94906 | 113136
5 | 25:08.37 | 13:03.46 | 113137 | 171907
6 | 38:12.08 | 5:12.37 | 171908 | 195344
7 | 43:24.45 | 3:21.63 | 195345 | 210482
8 | 46:46.33 | 4:53.50 | 210483 | 232507
9 | 51:40.08 | 3:04.08 | 232508 | 246315


Range status and errors

Selected range

Filename D:\Uploads\Noel Mewton-Wood\GEM0031\Weber Chopin - Piano Masters Noel Mewton-Wood.wav

Peak level 90.9 %
Extraction speed 4.7 X
Range quality 99.9 %
Copy CRC 495B338E
Copy OK

No errors occurred


AccurateRip summary

Track 1 not present in database
Track 2 not present in database
Track 3 not present in database
Track 4 not present in database
Track 5 not present in database
Track 6 not present in database
Track 7 not present in database
Track 8 not present in database
Track 9 not present in database

None of the tracks are present in the AccurateRip database

End of status report

==== Log checksum 79DCC49603EF77BAEC84263FA94D94A8E1B5369BEB6E1304D2DB1EEFB768708B ====



Download links

FILESONIC
CD part 1
CD part 2
Scans

RAPIDSHARE
CD part 1
CD part 2
Scans