Subcategories

Pieta Brown - Remember The Sun (2007)

Posted By: tirexiss
Pieta Brown - Remember The Sun (2007)

Pieta Brown - Remember The Sun (2007)
EAC | FLAC (tracks+.cue, log) - 260 MB | MP3 (CBR 320 kbps) - 102 MB | Covers Included | 39:56
Genre: Folk Rock, Country, Bluegrass | Label: One Little Indian | Catalog: OLI782

Pieta Brown paints a big picture with tiny, beautiful strokes on her deeply introspective set Remember the Sun. Like an impressionist masterpiece, whose dabs of color only take form when you step back to see the whole, so it is with this set, whose overarching themes gradually form intertwining patterns. The sullied "Innocent Blues" is a dreamy, musing number that searches in vain for peace, a clean environment, and freedom for all. But regardless of the turmoil, the world keeps spinning and we all keep "Rollin' Down the Track," doing the best we can, with Brown playing her country blues away the only way she knows how. Pulling back from the abyss of world problems, Brown falls into the chasm of her own mind, where visions and dreams slip away, and the singer seems forever grasping at things just out of reach across the rollicking R&B of "Sonic Boom." But reality keeps pulling her back, and as the claustrophobia closes in on "West Monroe," the singer, like Americans themselves, is trapped in a world not of her making. This quartet weaves together a troubled planet, whose leaders are at best asleep at the wheel, at worst oblivious to the damage they're doing. At this point, Brown shifts gears and themes, looking at coping strategies, although not all are successful. One can rail against the world, find comfort in friendship, or get the hell out of Dodge, as she does with gusto on the country-rocker "Hey Run." "In My Mind I Was Talkin' to Loretta" is the album's hinge, as Brown tries to make sense of the world and a woman's place in it, gazing back to childhood with sweet nostalgia and finding hope and inspiration from an idealized Loretta Lynn. Her desire for the sureness and innocence of childhood equally echoes across the introspective "Worlds Within Worlds," as she desperately hangs on to memories of happier times. But Brown is too smart to soothe herself long with such artless artifices; invariably her thoughts rumble with the daily banquet of bad news and the paradoxes that fill our world. On the swampy "Are You Free?" she toys with them to her heart's content, playing with words and meaning, juxtapositions and appositions. In the end, though, we live in hope, and Brown closes the album with the dreamy "Remember the Sun," a sun-dappled number that offers a dollop of happiness for a world cast in darkness. Along the way, Brown creates an enchanting album, its many moods reflected by its musical diversity, all wrapped in luminescent atmospheres and a shimmering production.

Pieta Brown - Remember The Sun (2007)

Track List:

01. Innocent Blue (02:47)
02. Rollin' Down the Track (03:49)
03. Sonic Boom (03:13)
04. West Monroe (05:40)
05. In My Mind I Was Talking to Loretta (03:56)
06. Song for a Friend (02:40)
07. Not Scared (02:29)
08. Are You Free? (04:20)
09. Hey Run (02:56)
10. Worlds Within Worlds (03:38)
11. Remember the Sun (04:32)

Exact Audio Copy V1.0 beta 3 from 29. August 2011

EAC extraction logfile from 11. March 2012, 18:15

Remember the Sun / Pieta Brown

Used drive : TSSTcorpDVDWBD TS-LB23A Adapter: 0 ID: 1

Read mode : Secure
Utilize accurate stream : Yes
Defeat audio cache : Yes
Make use of C2 pointers : No

Read offset correction : 6
Overread into Lead-In and Lead-Out : No
Fill up missing offset samples with silence : Yes
Delete leading and trailing silent blocks : No
Null samples used in CRC calculations : Yes
Used interface : Native Win32 interface for Win NT & 2000
Gap handling : Appended to previous track

Used output format : User Defined Encoder
Selected bitrate : 768 kBit/s
Quality : High
Add ID3 tag : No
Command line compressor : C:\Program Files (x86)\Exact Audio Copy\FLAC\FLAC.EXE
Additional command line options : -V -8 -T "artist=%artist%" -T "title=%title%" -T "album=%albumtitle%" -T "date=%year%" -T "tracknumber=%tracknr%" -T "genre=%genre%" %source%


TOC of the extracted CD

Track | Start | Length | Start sector | End sector
––––––––––––––––––––––––––––-
1 | 0:00.00 | 2:47.40 | 0 | 12564
2 | 2:47.40 | 3:48.31 | 12565 | 29695
3 | 6:35.71 | 3:13.03 | 29696 | 44173
4 | 9:48.74 | 5:39.14 | 44174 | 69612
5 | 15:28.13 | 3:54.62 | 69613 | 87224
6 | 19:23.00 | 2:39.07 | 87225 | 99156
7 | 22:02.07 | 2:29.23 | 99157 | 110354
8 | 24:31.30 | 4:19.28 | 110355 | 129807
9 | 28:50.58 | 2:55.56 | 129808 | 142988
10 | 31:46.39 | 3:37.44 | 142989 | 159307
11 | 35:24.08 | 4:32.43 | 159308 | 179750


Track 1

Filename D:\Music\EAC Rips\Remember the Sun - Pieta Brown (2007)\01 - Innocent Blue.wav

Pre-gap length 0:00:02.00

Peak level 98.8 %
Extraction speed 1.3 X
Track quality 100.0 %
Test CRC D3DB1813
Copy CRC D3DB1813
Cannot be verified as accurate (confidence 10) [EFDFC9CE], AccurateRip returned [32F25552] (AR v2)
Copy OK

Track 2

Filename D:\Music\EAC Rips\Remember the Sun - Pieta Brown (2007)\02 - Rollin' Down the Track.wav

Pre-gap length 0:00:00.45

Peak level 98.8 %
Extraction speed 1.3 X
Track quality 99.9 %
Test CRC A9D2860D
Copy CRC A9D2860D
Cannot be verified as accurate (confidence 10) [CC18DF6D], AccurateRip returned [90B02ABC] (AR v2)
Copy OK

Track 3

Filename D:\Music\EAC Rips\Remember the Sun - Pieta Brown (2007)\03 - Sonic Boom.wav

Pre-gap length 0:00:00.64

Peak level 98.8 %
Extraction speed 1.3 X
Track quality 100.0 %
Test CRC 6491AA9B
Copy CRC 6491AA9B
Cannot be verified as accurate (confidence 10) [67A8F3F1], AccurateRip returned [827DECA7] (AR v2)
Copy OK

Track 4

Filename D:\Music\EAC Rips\Remember the Sun - Pieta Brown (2007)\04 - West monroe.wav

Pre-gap length 0:00:00.85

Peak level 98.8 %
Extraction speed 1.7 X
Track quality 100.0 %
Test CRC 3F98546D
Copy CRC 3F98546D
Cannot be verified as accurate (confidence 10) [94061D48], AccurateRip returned [0E985A3D] (AR v2)
Copy OK

Track 5

Filename D:\Music\EAC Rips\Remember the Sun - Pieta Brown (2007)\05 - In My Mind I Was Talkin' to Loretta.wav

Peak level 98.8 %
Extraction speed 1.7 X
Track quality 100.0 %
Test CRC E018F896
Copy CRC E018F896
Cannot be verified as accurate (confidence 10) [FD479F60], AccurateRip returned [23CB1E91] (AR v2)
Copy OK

Track 6

Filename D:\Music\EAC Rips\Remember the Sun - Pieta Brown (2007)\06 - Song for a Friend.wav

Pre-gap length 0:00:00.29

Peak level 79.0 %
Extraction speed 1.9 X
Track quality 100.0 %
Test CRC F9993C71
Copy CRC F9993C71
Cannot be verified as accurate (confidence 10) [3CBF48E4], AccurateRip returned [30087467] (AR v2)
Copy OK

Track 7

Filename D:\Music\EAC Rips\Remember the Sun - Pieta Brown (2007)\07 - Not Scared.wav

Pre-gap length 0:00:00.41

Peak level 98.8 %
Extraction speed 1.8 X
Track quality 100.0 %
Test CRC 4B366D84
Copy CRC 4B366D84
Cannot be verified as accurate (confidence 10) [86842FAE], AccurateRip returned [B9460BD0] (AR v2)
Copy OK

Track 8

Filename D:\Music\EAC Rips\Remember the Sun - Pieta Brown (2007)\08 - Are You Free.wav

Pre-gap length 0:00:00.54

Peak level 98.8 %
Extraction speed 1.8 X
Track quality 99.9 %
Test CRC 8E4507A1
Copy CRC 8E4507A1
Cannot be verified as accurate (confidence 10) [C8A615B9], AccurateRip returned [BEA1C720] (AR v2)
Copy OK

Track 9

Filename D:\Music\EAC Rips\Remember the Sun - Pieta Brown (2007)\09 - Hey Run.wav

Pre-gap length 0:00:00.14

Peak level 98.8 %
Extraction speed 2.4 X
Track quality 100.0 %
Test CRC E857B5CC
Copy CRC E857B5CC
Cannot be verified as accurate (confidence 10) [05D052AA], AccurateRip returned [77D1DF48] (AR v2)
Copy OK

Track 10

Filename D:\Music\EAC Rips\Remember the Sun - Pieta Brown (2007)\10 - Worlds Within Worlds.wav

Pre-gap length 0:00:00.06

Peak level 88.0 %
Extraction speed 2.2 X
Track quality 100.0 %
Test CRC 4AB9E14E
Copy CRC 4AB9E14E
Cannot be verified as accurate (confidence 10) [C6E7A87F], AccurateRip returned [83C17EDC] (AR v2)
Copy OK

Track 11

Filename D:\Music\EAC Rips\Remember the Sun - Pieta Brown (2007)\11 - Remember the Sun.wav

Pre-gap length 0:00:00.13

Peak level 98.8 %
Extraction speed 2.0 X
Track quality 99.9 %
Test CRC 20E898E6
Copy CRC 20E898E6
Cannot be verified as accurate (confidence 10) [10AEC40A], AccurateRip returned [31DABDCB] (AR v2)
Copy OK


No tracks could be verified as accurate
You may have a different pressing from the one(s) in the database

No errors occurred

End of status report

==== Log checksum AD89DF1444C491D080487F295F57466E93B612EC36D5FFFADF4A6111D63C1A23 ====

[CUETools log; Date: 29.03.2017 18:01:17; Version: 2.1.5]
[CTDB TOCID: olnNBVVhaJvnAflUnwpnPpSHffY-] found.
Track | CTDB Status
1 | (3/3) Accurately ripped
2 | (3/3) Accurately ripped
3 | (3/3) Accurately ripped
4 | (3/3) Accurately ripped
5 | (3/3) Accurately ripped
6 | (3/3) Accurately ripped
7 | (3/3) Accurately ripped
8 | (3/3) Accurately ripped
9 | (3/3) Accurately ripped
10 | (3/3) Accurately ripped
11 | (3/3) Accurately ripped
[AccurateRip ID: 00103ec1-008d186f-8f095c0b] found.
Track [ CRC | V2 ] Status
01 [006797c1|efdfc9ce] (00+02/15) Accurately ripped
02 [0a5ed98a|cc18df6d] (00+02/15) Accurately ripped
03 [49f65907|67a8f3f1] (00+02/15) Accurately ripped
04 [a088cec9|94061d48] (00+02/15) Accurately ripped
05 [c3d18b9d|fd479f60] (00+02/15) Accurately ripped
06 [f6795ddb|3cbf48e4] (00+02/15) Accurately ripped
07 [f6c90ec0|86842fae] (00+02/15) Accurately ripped
08 [5d88e5e6|c8a615b9] (00+02/15) Accurately ripped
09 [7f586fc0|05d052aa] (00+02/15) Accurately ripped
10 [be5a5dda|c6e7a87f] (00+02/15) Accurately ripped
11 [f2039849|10aec40a] (00+02/14) Accurately ripped
Offsetted by -6:
01 [32f25552] (10/15) Accurately ripped
02 [90b02abc] (10/15) Accurately ripped
03 [827deca7] (10/15) Accurately ripped
04 [0e985a3d] (10/15) Accurately ripped
05 [23cb1e91] (10/15) Accurately ripped
06 [30087467] (10/15) Accurately ripped
07 [b9460bd0] (10/15) Accurately ripped
08 [bea1c720] (10/15) Accurately ripped
09 [77d1df48] (10/15) Accurately ripped
10 [83c17edc] (10/15) Accurately ripped
11 [31dabdcb] (10/14) Accurately ripped

Track Peak [ CRC32 ] [W/O NULL] [ LOG ]
– 98,8 [9344E099] [565693D1]
01 98,8 [D3DB1813] [ADA35BD7] CRC32
02 98,8 [A9D2860D] [ACFB072F] CRC32
03 98,8 [6491AA9B] [1A364160] CRC32
04 98,8 [3F98546D] [C5C82DEE] CRC32
05 98,8 [E018F896] [1EB65753] CRC32
06 79,0 [F9993C71] [32B0E84C] CRC32
07 98,8 [4B366D84] [6A460EA5] CRC32
08 98,8 [8E4507A1] [2F3C0EEF] CRC32
09 98,8 [E857B5CC] [3B713F75] CRC32
10 88,0 [4AB9E14E] [E54EBDE8] CRC32
11 98,8 [20E898E6] [133474C4] CRC32

Thanks to the Original ripper (unknown)!

Download: