Subcategories

Pink Floyd: Discography (1967 - 2014) [Vinyl Rip 16/44 & mp3-320]

Posted By: v3122
Pink Floyd: Discography (1967 - 2014) [Vinyl Rip 16/44 & mp3-320]

Pink Floyd: Discography (1967 - 2014)
18 x Vinyl Rip 16/44 | Flac(Image + Cue) > 6096 Mb
MP3 CBR 320Kbps > 2597 Mb | Artwork(png) > 9687 Mb
Columbia, EMI, Odeon, Harvest, Parlophone
Psychedelic Rock / Progressive Rock

Pink Floyd were an English rock band formed in London in 1965. They achieved international acclaim with their progressive and psychedelic music. Distinguished by their use of philosophical lyrics, sonic experimentation, extended compositions, and elaborate live shows, they are one of the most commercially successful and influential groups in popular music history.

Pink Floyd were founded by students Syd Barrett on guitar and lead vocals, Nick Mason on drums, Roger Waters on bass and vocals, and Richard Wright on keyboards and vocals. They gained popularity performing in London's underground music scene during the late 1960s, and under Barrett's leadership released two charting singles and a successful debut album, The Piper at the Gates of Dawn (1967). Guitarist and vocalist David Gilmour joined in December 1967; Barrett left in April 1968 due to deteriorating mental health. Waters became the band's primary lyricist and conceptual leader, devising the concepts behind their albums The Dark Side of the Moon (1973), Wish You Were Here (1975), Animals (1977), The Wall (1979) and The Final Cut (1983). The Dark Side of the Moon and The Wall became two of the best-selling albums of all time.

Following creative tensions, Wright left Pink Floyd in 1979, followed by Waters in 1985. Gilmour and Mason continued as Pink Floyd; Wright rejoined them as a session musician and, later, a band member. The three produced two more albums—A Momentary Lapse of Reason (1987) and The Division Bell (1994)—and toured through 1994. After nearly two decades of acrimony, Gilmour, Wright, and Mason reunited with Waters in 2005 to perform as Pink Floyd in London as part of the global awareness event Live 8; Gilmour and Waters later stated they had no plans to reunite as a band again. Barrett died in 2006, and Wright in 2008. The final Pink Floyd studio album, The Endless River (2014), was recorded without Waters and based almost entirely on unreleased material.

Pink Floyd were inducted into the American Rock and Roll Hall of Fame in 1996 and the UK Music Hall of Fame in 2005. By 2013, the band had sold more than 250 million records worldwide…

~ wiki
Pink Floyd: Discography (1967 - 2014) [Vinyl Rip 16/44 & mp3-320]

Pink Floyd: Discography (1967 - 2014):

Pink Floyd: Discography (1967 - 2014) [Vinyl Rip 16/44 & mp3-320]

Tracklist VNL01 - The Piper At The Gates Of Dawn 1967:
EMS-50104, Japan

01. Astronomy Domine
02. Lucifer Sam
03. Matilda Mother
04. Flaming
05. Pow R. Toc H.
06. Take Up Thy Stethoscope And Walk
07. Interstellar Overdrive
08. The Gnome
09. Chapter 24
10. Scarecrow
11. Bike

foobar2000 1.2.9 / Dynamic Range Meter 1.1.1
log date: 2017-11-07 15:26:27

––––––––––––––––––––––––––––––––––––––––
Analyzed: Pink Floyd / The Piper At The Gates Of Dawn
––––––––––––––––––––––––––––––––––––––––

DR Peak RMS Duration Track
––––––––––––––––––––––––––––––––––––––––
DR9 -1.04 dB -13.15 dB 4:14 01-Astronomy Domine
DR10 0.00 dB -13.51 dB 3:07 02-Lucifer Sam
DR10 0.00 dB -13.84 dB 3:08 03-Matilda Mother
DR11 -0.96 dB -15.69 dB 2:45 04-Flaming
DR11 -0.49 dB -14.53 dB 4:25 05-Pow R. Toc H.
DR10 0.00 dB -12.86 dB 3:05 06-Take Up Thy Stethoscope And Walk
DR11 -0.26 dB -15.69 dB 9:39 07-Interstellar Overdrive
DR11 -4.46 dB -17.69 dB 2:13 08-The Gnome
DR10 -4.11 dB -17.76 dB 3:41 09-Chapter 24
DR11 -6.20 dB -21.09 dB 2:11 10-Scarecrow
DR10 -2.78 dB -17.10 dB 6:21 11-Bike
––––––––––––––––––––––––––––––––––––––––

Number of tracks: 11
Official DR value: DR10

Samplerate: 44100 Hz
Channels: 2
Bits per sample: 16
Bitrate: 797 kbps
Codec: FLAC
================================================================================




Original ripper: Oleg-Leshiy
Original format: 24/192
Vinyl Condition: Mint
Cleaning:
Direct Drive Turntable: Dual 505-4, Pioneer PL-7L + ZYX R1000 Airy 3 gold, Micro Seiki DD-8 + ZYX R1000 Airy 3 gold
Cartridge: ZYX R1000 Airy 3 gold, ZYX R100 Fuji FS, AT-OC9/III
Amplifier: PS audio Phono Stage + Tube Preamp (Telefunken)
ADC: Sound Devices 744T, TASCAM HS-P82
Postprocessing:

Downsampled to 16/44

Pink Floyd: Discography (1967 - 2014) [Vinyl Rip 16/44 & mp3-320]

Tracklist VNL02 - A Saucerful Of Secrets 1968:
EMS-80318, Japan

01. Let There Be More Light
02. Remember A Day
03. Set The Controls For The Heart Of The Sun
04. Corporal Clegg
05. A Saucerful Of Secrets
06. See Saw
07. Jugband Blues

foobar2000 1.2.9 / Dynamic Range Meter 1.1.1
log date: 2017-11-07 15:26:43

––––––––––––––––––––––––––––––––––––––––
Analyzed: Pink Floyd / A Saucerful Of Secrets
––––––––––––––––––––––––––––––––––––––––

DR Peak RMS Duration Track
––––––––––––––––––––––––––––––––––––––––
DR10 -1.27 dB -14.55 dB 5:36 01-Let There Be More Light
DR12 -3.20 dB -19.18 dB 4:32 02-Remember A Day
DR10 -2.17 dB -15.91 dB 5:26 03-Set The Controls For The Heart Of The Sun
DR11 -0.51 dB -13.24 dB 4:09 04-Corporal Clegg
DR11 -0.73 dB -15.67 dB 11:56 05-A Saucerful Of Secrets
DR11 -1.50 dB -16.28 dB 4:36 06-See Saw
DR12 -1.64 dB -17.42 dB 3:02 07-Jugband Blues
––––––––––––––––––––––––––––––––––––––––

Number of tracks: 7
Official DR value: DR11

Samplerate: 44100 Hz
Channels: 2
Bits per sample: 16
Bitrate: 738 kbps
Codec: FLAC
================================================================================




Original ripper: Oleg-Leshiy
Original format: 24/192
Vinyl Condition: NM
Cleaning:
Direct Drive Turntable: Dual 505-4, Pioneer PL-7L + ZYX R1000 Airy 3 gold, Micro Seiki DD-8 + ZYX R1000 Airy 3 gold
Cartridge: ZYX R1000 Airy 3 gold, ZYX R100 Fuji FS, AT-OC9/III
Amplifier: PS audio Phono Stage + Tube Preamp (Telefunken)
ADC: Sound Devices 744T, TASCAM HS-P82
Postprocessing:

Downsampled to 16/44

Pink Floyd: Discography (1967 - 2014) [Vinyl Rip 16/44 & mp3-320]

Tracklist VNL03 - More 1969:
1C 062-04 096, Germany

01. Cirrus Minor
02. The Nile Song
03. Crying Song
04. Up The Khyber
05. Green Is The Colour
06. Cymbaline
07. Party Sequence
08. Main Theme
09. Ibiza Bar
10. More Blues
11. Quicksilver
12. A Spanish Theme
13. Dramatic Theme

foobar2000 1.2.9 / Dynamic Range Meter 1.1.1
log date: 2017-11-07 15:27:02

––––––––––––––––––––––––––––––––––––––––
Analyzed: Pink Floyd / Soundtrack From The Film 'More'
––––––––––––––––––––––––––––––––––––––––

DR Peak RMS Duration Track
––––––––––––––––––––––––––––––––––––––––
DR10 -1.93 dB -16.20 dB 5:20 01-Pink Floyd - Soundtrack From The Film _More_
DR11 0.00 dB -13.47 dB 3:26 02-Pink Floyd - Soundtrack From The Film _More_
DR11 -4.93 dB -20.13 dB 3:33 03-Pink Floyd - Soundtrack From The Film _More_
DR12 -0.69 dB -16.09 dB 2:14 04-Pink Floyd - Soundtrack From The Film _More_
DR12 -3.54 dB -18.48 dB 2:58 05-Pink Floyd - Soundtrack From The Film _More_
DR12 -1.99 dB -17.72 dB 4:49 06-Pink Floyd - Soundtrack From The Film _More_
DR15 -0.32 dB -19.15 dB 1:08 07-Pink Floyd - Soundtrack From The Film _More_
DR10 -1.05 dB -17.04 dB 5:34 08-Pink Floyd - Soundtrack From The Film _More_
DR12 -0.69 dB -16.18 dB 3:19 09-Pink Floyd - Soundtrack From The Film _More_
DR15 -2.67 dB -24.51 dB 2:12 10-Pink Floyd - Soundtrack From The Film _More_
DR13 -5.04 dB -24.78 dB 7:13 11-Pink Floyd - Soundtrack From The Film _More_
DR13 -4.16 dB -21.76 dB 1:05 12-Pink Floyd - Soundtrack From The Film _More_
DR13 -3.01 dB -19.37 dB 2:18 13-Pink Floyd - Soundtrack From The Film _More_
––––––––––––––––––––––––––––––––––––––––

Number of tracks: 13
Official DR value: DR12

Samplerate: 44100 Hz
Channels: 2
Bits per sample: 16
Bitrate: 656 kbps
Codec: FLAC
================================================================================




Original ripper: Oleg-Leshiy
Original format: 24/192
Vinyl Condition: Mint
Cleaning:
Direct Drive Turntable: Dual 505-4, Pioneer PL-7L + ZYX R1000 Airy 3 gold, Micro Seiki DD-8 + ZYX R1000 Airy 3 gold
Cartridge: ZYX R1000 Airy 3 gold, ZYX R100 Fuji FS, AT-OC9/III
Amplifier: PS audio Phono Stage + Tube Preamp (Telefunken)
ADC: Sound Devices 744T, TASCAM HS-P82
Postprocessing:

Downsampled to 16/44

Pink Floyd: Discography (1967 - 2014) [Vinyl Rip 16/44 & mp3-320]

Tracklist VNL04 - Relics 1971:
OP-80261, Japan

01. Arnold Layne
02. Interstellar Overdrive
03. See Emily Play
04. Remember a Day
05. Paintbox
06. Julia Dream
07. Careful with That Axe, Eugene
08. Cirrus Minor
09. The Nile Song
10. Biding My Time
11. Bike

foobar2000 1.2.9 / Dynamic Range Meter 1.1.1
log date: 2017-11-07 15:27:22

––––––––––––––––––––––––––––––––––––––––
Analyzed: Pink Floyd / Relics
––––––––––––––––––––––––––––––––––––––––

DR Peak RMS Duration Track
––––––––––––––––––––––––––––––––––––––––
DR10 -1.91 dB -14.50 dB 2:56 01-Arnold Layne
DR12 0.00 dB -16.53 dB 9:37 02-Interstellar Overdrive
DR10 -2.07 dB -15.25 dB 2:53 03-See Emily Play
DR12 -4.75 dB -21.21 dB 4:30 04-Remember a Day
DR12 -0.95 dB -16.41 dB 3:34 05-Paintbox
DR11 -4.75 dB -19.89 dB 2:39 06-Julia Dream
DR12 -2.01 dB -18.54 dB 5:44 07-Careful with That Axe, Eugene
DR10 -9.77 dB -25.30 dB 5:17 08-Cirrus Minor
DR10 -3.23 dB -15.85 dB 3:25 09-The Nile Song
DR13 -0.20 dB -17.22 dB 5:17 10-Biding My Time
DR11 -3.99 dB -20.06 dB 3:25 11-Bike
––––––––––––––––––––––––––––––––––––––––

Number of tracks: 11
Official DR value: DR11

Samplerate: 44100 Hz
Channels: 2
Bits per sample: 16
Bitrate: 711 kbps
Codec: FLAC
================================================================================




Original ripper: Oleg-Leshiy
Original format: 24/192
Vinyl Condition: Mint
Cleaning:
Direct Drive Turntable: Dual 505-4, Pioneer PL-7L + ZYX R1000 Airy 3 gold, Micro Seiki DD-8 + ZYX R1000 Airy 3 gold
Cartridge: ZYX R1000 Airy 3 gold, ZYX R100 Fuji FS, AT-OC9/III
Amplifier: PS audio Phono Stage + Tube Preamp (Telefunken)
ADC: Sound Devices 744T, TASCAM HS-P82
Postprocessing:

Downsampled to 16/44

Pink Floyd: Discography (1967 - 2014) [Vinyl Rip 16/44 & mp3-320]

Tracklist VNL05 - Ummagumma 1969:
SMH 2212, Germany

01. Astronomy Domine
02. Careful With That Axe, Eugene
03. Set The Controls For The Heart Of The Sun
04. A Saucerful Of Secrets
05. Sysyphus (part 1-4)
06. Grantchester Meadows
07. Several Species Of Small Furry Animals Gathered Together In A Cave And Grooving With A Pict
08. The Narrow Way (part 1-3)
09. The Grand Vizier's Garden Party (part 1-3)

foobar2000 1.2.9 / Dynamic Range Meter 1.1.1
log date: 2017-11-07 15:27:45

––––––––––––––––––––––––––––––––––––––––
Analyzed: Pink Floyd / Ummagumma
––––––––––––––––––––––––––––––––––––––––

DR Peak RMS Duration Track
––––––––––––––––––––––––––––––––––––––––
DR12 -0.71 dB -17.74 dB 8:34 01-Astronomy Domine
DR12 -0.64 dB -17.42 dB 8:49 02-Careful With That Axe Eugene
DR13 -0.51 dB -20.14 dB 9:31 03-Set The Controls For The Heart Of The Sun
DR11 -0.97 dB -17.17 dB 12:50 04-A Saucerful Of Secrets
DR12 0.00 dB -16.83 dB 13:30 05-Sysyphus
DR12 -0.78 dB -23.57 dB 7:29 06-Grantchester Meadows
DR12 -3.84 dB -21.91 dB 4:58 07-Several Species Of Small Furry Animals Gathered Together In A Cave And Grooving With A Pict
DR11 -2.48 dB -17.46 dB 12:21 08-The Narrow Way
DR12 -5.19 dB -21.58 dB 8:46 09-The Grand Vizier's Garden Party
––––––––––––––––––––––––––––––––––––––––

Number of tracks: 9
Official DR value: DR12

Samplerate: 44100 Hz
Channels: 2
Bits per sample: 16
Bitrate: 682 kbps
Codec: FLAC
================================================================================




Original ripper: Oleg-Leshiy
Original format: 24/192
Vinyl Condition: Ex
Cleaning:
Direct Drive Turntable: Dual 505-4, Pioneer PL-7L + ZYX R1000 Airy 3 gold, Micro Seiki DD-8 + ZYX R1000 Airy 3 gold
Cartridge: ZYX R1000 Airy 3 gold, ZYX R100 Fuji FS, AT-OC9/III
Amplifier: PS audio Phono Stage + Tube Preamp (Telefunken)
ADC: Sound Devices 744T, TASCAM HS-P82
Postprocessing:

Downsampled to 16/44

Pink Floyd: Discography (1967 - 2014) [Vinyl Rip 16/44 & mp3-320]

Tracklist VNL06 - Atom Heart Mother 1970:
EMS-80320, Japan

01. Atom Heart Mother
02. If
03. Summer '68
04. Fat Old Sun
05. Alan`s Psychedelic Breakfast

foobar2000 1.2.9 / Dynamic Range Meter 1.1.1
log date: 2017-11-07 15:28:01

––––––––––––––––––––––––––––––––––––––––
Analyzed: Pink Floyd / Atom Heart Mother
––––––––––––––––––––––––––––––––––––––––

DR Peak RMS Duration Track
––––––––––––––––––––––––––––––––––––––––
DR12 0.00 dB -16.50 dB 23:34 01-Atom Heart Mother
DR11 -4.46 dB -18.56 dB 4:31 02-If
DR11 -0.48 dB -14.21 dB 5:29 03-Summer '68
DR12 -1.95 dB -18.70 dB 5:23 04-Fat Old Sun
DR14 0.00 dB -20.16 dB 12:57 05-Alan`s Psychedelic Breakfast
––––––––––––––––––––––––––––––––––––––––

Number of tracks: 5
Official DR value: DR12

Samplerate: 44100 Hz
Channels: 2
Bits per sample: 16
Bitrate: 667 kbps
Codec: FLAC
================================================================================




Original ripper: Oleg-Leshiy
Original format: 24/192
Vinyl Condition: Near Mint
Cleaning:
Direct Drive Turntable: Dual 505-4, Pioneer PL-7L + ZYX R1000 Airy 3 gold, Micro Seiki DD-8 + ZYX R1000 Airy 3 gold
Cartridge: ZYX R1000 Airy 3 gold, ZYX R100 Fuji FS, AT-OC9/III
Amplifier: PS audio Phono Stage + Tube Preamp (Telefunken)
ADC: Sound Devices 744T, TASCAM HS-P82
Postprocessing:

Downsampled to 16/44

Pink Floyd: Discography (1967 - 2014) [Vinyl Rip 16/44 & mp3-320]

Tracklist VNL07 - Meddle 1971:
OP-80375, Japan

01. One Of These Days
02. A Pillow Of Winds
03. Fearless
04. San Tropez
05. Seamus
06. Echoes

foobar2000 1.2.9 / Dynamic Range Meter 1.1.1
log date: 2017-11-07 15:28:20

––––––––––––––––––––––––––––––––––––––––
Analyzed: Pink Floyd / Meddle
––––––––––––––––––––––––––––––––––––––––

DR Peak RMS Duration Track
––––––––––––––––––––––––––––––––––––––––
DR12 -0.79 dB -16.41 dB 5:57 01-One of These Days
DR13 -1.65 dB -17.86 dB 5:12 02-A Pillow of Winds
DR14 0.00 dB -17.61 dB 6:09 03-Fearless
DR13 -2.02 dB -17.31 dB 3:43 04-San Tropez
DR15 -7.11 dB -26.67 dB 2:16 05-Seamus
DR13 0.00 dB -17.98 dB 23:31 06-Echoes
––––––––––––––––––––––––––––––––––––––––

Number of tracks: 6
Official DR value: DR13

Samplerate: 44100 Hz
Channels: 2
Bits per sample: 16
Bitrate: 783 kbps
Codec: FLAC
================================================================================




Original ripper: Oleg-Leshiy
Original format: 24/192
Vinyl Condition: Near Mint
Cleaning:
Direct Drive Turntable: Dual 505-4, Pioneer PL-7L + ZYX R1000 Airy 3 gold, Micro Seiki DD-8 + ZYX R1000 Airy 3 gold
Cartridge: ZYX R1000 Airy 3 gold, ZYX R100 Fuji FS, AT-OC9/III
Amplifier: PS audio Phono Stage + Tube Preamp (Telefunken)
ADC: Sound Devices 744T, TASCAM HS-P82
Postprocessing:

Downsampled to 16/44

Pink Floyd: Discography (1967 - 2014) [Vinyl Rip 16/44 & mp3-320]

Tracklist VNL08 - Obscured By Clouds 1972:
EMS-80323, Japan

01. Obscured By Clouds
02. When You're In
03. Burning Bridges
04. The Gold It's In The…
05. Wot's… Uh The Deal
06. Mudmen
07. Childhood's End
08. Free Four
09. Stay
10. Absolutely Curtains

foobar2000 1.2.9 / Dynamic Range Meter 1.1.1
log date: 2017-11-07 15:28:36

––––––––––––––––––––––––––––––––––––––––
Analyzed: Pink Floyd / Obscured By Clouds
––––––––––––––––––––––––––––––––––––––––

DR Peak RMS Duration Track
––––––––––––––––––––––––––––––––––––––––
DR12 -2.39 dB -17.63 dB 3:06 01-Obscured By Clouds
DR13 -1.04 dB -17.82 dB 2:31 02-When You're In
DR13 -2.85 dB -20.18 dB 3:30 03-Burning Bridges
DR13 -0.16 dB -16.19 dB 3:07 04-The Gold It's In The…
DR13 -2.22 dB -19.31 dB 5:09 05-Wot's… Uh The Deal
DR13 -0.21 dB -17.12 dB 4:19 06-Mudmen
DR14 -0.34 dB -17.89 dB 4:34 07-Childhood's End
DR14 -1.10 dB -18.14 dB 4:16 08-Free Four
DR13 -2.76 dB -21.06 dB 4:08 09-Stay
DR15 -1.10 dB -23.30 dB 6:00 10-Absolutely Curtains
––––––––––––––––––––––––––––––––––––––––

Number of tracks: 10
Official DR value: DR13

Samplerate: 44100 Hz
Channels: 2
Bits per sample: 16
Bitrate: 732 kbps
Codec: FLAC
================================================================================




Original ripper: Oleg-Leshiy
Original format: 24/192
Vinyl Condition: Mint
Cleaning:
Direct Drive Turntable: Dual 505-4, Pioneer PL-7L + ZYX R1000 Airy 3 gold, Micro Seiki DD-8 + ZYX R1000 Airy 3 gold
Cartridge: ZYX R1000 Airy 3 gold, ZYX R100 Fuji FS, AT-OC9/III
Amplifier: PS audio Phono Stage + Tube Preamp (Telefunken)
ADC: Sound Devices 744T, TASCAM HS-P82
Postprocessing:

Downsampled to 16/44

Pink Floyd: Discography (1967 - 2014) [Vinyl Rip 16/44 & mp3-320]

Tracklist VNL09 - The Dark Side of the Moon 1973:
EOP-80778, Japan

01. Speak To Me
02. Breathe
03. On The Run
04. Time
05. The Great Gig In The Sky
06. Money
07. Us And Them
08. Any Colour You Like
09. Brain Damage
10. Eclipse

foobar2000 1.2.9 / Dynamic Range Meter 1.1.1
log date: 2017-11-07 15:28:55

––––––––––––––––––––––––––––––––––––––––
Analyzed: Pink Floyd / The Dark Side Of The Moon
––––––––––––––––––––––––––––––––––––––––

DR Peak RMS Duration Track
––––––––––––––––––––––––––––––––––––––––
DR10 -9.33 dB -22.83 dB 1:11 01-Speak to Me
DR11 -0.55 dB -14.90 dB 2:47 02-Breathe
DR12 -0.26 dB -17.17 dB 3:47 03-On The Run
DR11 -0.07 dB -14.23 dB 6:54 04-Time
DR10 -0.18 dB -15.72 dB 4:42 05-The Greate Gig In The Sky
DR11 -0.36 dB -15.39 dB 6:33 06-Money
DR11 -0.82 dB -16.05 dB 7:40 07-Us And Them
DR11 -0.43 dB -13.59 dB 3:26 08-Any Colour You Like
DR11 -1.55 dB -16.92 dB 3:46 09-Brain Damage
DR10 0.00 dB -13.25 dB 2:08 10-Eclipse
––––––––––––––––––––––––––––––––––––––––

Number of tracks: 10
Official DR value: DR11

Samplerate: 44100 Hz
Channels: 2
Bits per sample: 16
Bitrate: 738 kbps
Codec: FLAC
================================================================================




Original ripper: Oleg-Leshiy
Original format: 24/192
Vinyl Condition: Mint
Cleaning:
Direct Drive Turntable: Dual 505-4, Pioneer PL-7L + ZYX R1000 Airy 3 gold, Micro Seiki DD-8 + ZYX R1000 Airy 3 gold
Cartridge: ZYX R1000 Airy 3 gold, ZYX R100 Fuji FS, AT-OC9/III
Amplifier: PS audio Phono Stage + Tube Preamp (Telefunken)
ADC: Sound Devices 744T, TASCAM HS-P82
Postprocessing:

Downsampled to 16/44

Pink Floyd: Discography (1967 - 2014) [Vinyl Rip 16/44 & mp3-320]

Tracklist VNL10 - Wish You Were Here 1975:
SOPO 100, Japan

01. Shine On You Crazy Diamond (Part 1-5)
02. Welcome To The Machine
03. Have A Cigar
04. Wish You Were Here
05. Shine On You Crazy Diamond (Part 6-9)

foobar2000 1.2.9 / Dynamic Range Meter 1.1.1
log date: 2017-11-07 15:29:11

––––––––––––––––––––––––––––––––––––––––
Analyzed: Pink Floyd / Wish You Were Here
––––––––––––––––––––––––––––––––––––––––

DR Peak RMS Duration Track
––––––––––––––––––––––––––––––––––––––––
DR12 -0.36 dB -15.58 dB 13:36 01-Shine On You Crazy Diamond (Part 1-5)
DR12 -0.35 dB -15.71 dB 7:28 02-Welcome To The Machine
DR12 -0.23 dB -15.23 dB 5:09 03-Have A Cigar
DR12 -0.63 dB -18.36 dB 5:37 04-Wish You Were Here
DR11 -1.27 dB -15.86 dB 12:30 05-Shine On You Crazy Diamond (Part 6-9)
––––––––––––––––––––––––––––––––––––––––

Number of tracks: 5
Official DR value: DR12

Samplerate: 44100 Hz
Channels: 2
Bits per sample: 16
Bitrate: 703 kbps
Codec: FLAC
================================================================================




Original ripper: Oleg-Leshiy
Original format: 24/192
Vinyl Condition: Mint
Cleaning:
Direct Drive Turntable: Dual 505-4, Pioneer PL-7L + ZYX R1000 Airy 3 gold, Micro Seiki DD-8 + ZYX R1000 Airy 3 gold
Cartridge: ZYX R1000 Airy 3 gold, ZYX R100 Fuji FS, AT-OC9/III
Amplifier: PS audio Phono Stage + Tube Preamp (Telefunken)
ADC: Sound Devices 744T, TASCAM HS-P82
Postprocessing:

Downsampled to 16/44

Pink Floyd: Discography (1967 - 2014) [Vinyl Rip 16/44 & mp3-320]

Tracklist VNL11 - Animals 1977:
SBP 234948, Australia

01. Pigs On The Wing (Part One)
02. Dogs
03. Pigs (Three Different Ones)
04. Sheep
05. Pigs On The Wing (Part Two)

foobar2000 1.2.9 / Dynamic Range Meter 1.1.1
log date: 2017-11-07 15:29:26

––––––––––––––––––––––––––––––––––––––––
Analyzed: Pink Floyd / Animals
––––––––––––––––––––––––––––––––––––––––

DR Peak RMS Duration Track
––––––––––––––––––––––––––––––––––––––––
DR16 -3.01 dB -23.65 dB 1:23 01-Pigs on the wing 1
DR13 0.00 dB -16.01 dB 17:00 02-Dogs
DR14 -0.25 dB -17.07 dB 11:26 03-Pigs (Three Different Ones)
DR12 0.00 dB -15.69 dB 10:15 04-Sheep
DR13 -7.09 dB -24.76 dB 1:26 05-Pigs on the wing 2
––––––––––––––––––––––––––––––––––––––––

Number of tracks: 5
Official DR value: DR14

Samplerate: 44100 Hz
Channels: 2
Bits per sample: 16
Bitrate: 756 kbps
Codec: FLAC
================================================================================




Original ripper: Oleg-Leshiy
Original format: 24/192
Vinyl Condition: Mint
Cleaning:
Direct Drive Turntable: Dual 505-4, Pioneer PL-7L + ZYX R1000 Airy 3 gold, Micro Seiki DD-8 + ZYX R1000 Airy 3 gold
Cartridge: ZYX R1000 Airy 3 gold, ZYX R100 Fuji FS, AT-OC9/III
Amplifier: PS audio Phono Stage + Tube Preamp (Telefunken)
ADC: Sound Devices 744T, TASCAM HS-P82
Postprocessing:

Downsampled to 16/44

Pink Floyd: Discography (1967 - 2014) [Vinyl Rip 16/44 & mp3-320]

Tracklist VNL12 - The Wall 1979:
40AP 1750~1, Japan

01. In The Flesh?
02. The Thin Ice
03. Another Brick In The Wall (Part 1)
04. The Happiest Days Of Our Lives
05. Another Brick In The Wall (Part 2)
06. Mother
07. Goodbye Blue Sky
08. Empty Spaces
09. Young Lust
10. One of My Turns
11. Don't Leave Me Now
12. Another Brick In The Wall (Part 3)
13. Goodbye Cruel World
14. Hey You
15. Is There Anybody Out There?
16. Nobody Home
17. Vera
18. Bring The Boys Back Home
19. Comfortably Numb
20. The Show Must Go On
21. In The Flesh
22. Run Like Hell
23. Waiting For The Worms
24. Stop
25. The Trial
26. Outside The Wall

foobar2000 1.2.9 / Dynamic Range Meter 1.1.1
log date: 2017-11-07 15:29:55

––––––––––––––––––––––––––––––––––––––––
Analyzed: Pink Floyd / The Wall
––––––––––––––––––––––––––––––––––––––––

DR Peak RMS Duration Track
––––––––––––––––––––––––––––––––––––––––
DR12 0.00 dB -15.91 dB 3:19 01-In The Flesh?
DR14 -2.73 dB -21.21 dB 2:28 02-The Thin Ice
DR13 -0.25 dB -19.81 dB 3:13 03-Another Brick In The Wall (Part 1)
DR15 0.00 dB -18.03 dB 1:49 04-The Happiest Days Of Our Lives
DR15 -1.59 dB -19.90 dB 3:58 05-Another Brick In The Wall (Part 2)
DR15 -1.30 dB -21.56 dB 5:33 06-Mother
DR11 -7.15 dB -22.36 dB 2:51 07-Goodbye Blue Sky
DR12 -6.58 dB -21.72 dB 2:04 08-Empty Spaces
DR15 -0.01 dB -17.25 dB 3:30 09-Young Lust
DR14 0.00 dB -19.71 dB 3:37 10-One of My Turns
DR14 -3.05 dB -21.92 dB 4:16 11-Don't Leave Me Now
DR16 0.00 dB -19.33 dB 1:16 12-Another Brick In The Wall (Part 3)
DR8 -14.89 dB -30.71 dB 1:15 13-Goodbye Cruel World
DR14 -1.09 dB -19.47 dB 4:40 14-Hey You
DR14 -3.07 dB -22.91 dB 2:41 15-Is There Anybody Out There?
DR12 -5.78 dB -22.59 dB 3:23 16-Nobody Home
DR11 -7.11 dB -23.48 dB 1:36 17-Vera
DR12 0.00 dB -16.42 dB 1:22 18-Bring The Boys Back Home
DR13 0.00 dB -15.58 dB 6:22 19-Comfortably Numb
DR14 -3.17 dB -19.34 dB 1:36 20-The Show Must Go On
DR15 -0.02 dB -18.40 dB 4:18 21-In The Flesh
DR16 -0.31 dB -17.95 dB 4:21 22-Run Like Hell
DR14 -0.14 dB -17.03 dB 3:57 23-Waiting For The Worms
DR14 -18.17 dB -34.61 dB 0:30 24-Stop
DR15 -1.72 dB -20.14 dB 5:20 25-The Trial
DR12 -19.26 dB -38.06 dB 1:46 26-Outside The Wall
––––––––––––––––––––––––––––––––––––––––

Number of tracks: 26
Official DR value: DR13

Samplerate: 44100 Hz
Channels: 2
Bits per sample: 16
Bitrate: 700 kbps
Codec: FLAC
================================================================================




Original ripper: Oleg-Leshiy
Original format: 24/192
Vinyl Condition: Mint
Cleaning:
Direct Drive Turntable: Dual 505-4, Pioneer PL-7L + ZYX R1000 Airy 3 gold, Micro Seiki DD-8 + ZYX R1000 Airy 3 gold
Cartridge: ZYX R1000 Airy 3 gold, ZYX R100 Fuji FS, AT-OC9/III
Amplifier: PS audio Phono Stage + Tube Preamp (Telefunken)
ADC: Sound Devices 744T, TASCAM HS-P82
Postprocessing:

Downsampled to 16/44

Pink Floyd: Discography (1967 - 2014) [Vinyl Rip 16/44 & mp3-320]

Tracklist VNL13 - The Final Cut 1983:
QC 38243, USA promo

01. The Post War Dream
02. Your Possible Pasts
03. One Of The Few
04. The Hero's Return
05. The Gunners Dream
06. Paranoid Eyes
07. Get Your Filthy Hands Off My Desert
08. The Fletcher Memorial Home
09. Southampton Dock
10. The Final Cut
11. Not Now John
12. Two Suns In The Sunset

foobar2000 1.2.9 / Dynamic Range Meter 1.1.1
log date: 2017-11-07 15:30:12

––––––––––––––––––––––––––––––––––––––––
Analyzed: Pink Floyd / The Final Cut
––––––––––––––––––––––––––––––––––––––––

DR Peak RMS Duration Track
––––––––––––––––––––––––––––––––––––––––
DR13 -0.10 dB -20.73 dB 3:00 01-The Post War Dream
DR13 0.00 dB -18.57 dB 4:28 02-Your Possible Pasts
DR10 -11.68 dB -25.63 dB 1:19 03-One Of The Few
DR14 0.00 dB -17.32 dB 2:43 04-The Hero's Return
DR14 -0.17 dB -20.36 dB 5:21 05-The Gunners Dream
DR13 -5.35 dB -25.34 dB 3:39 06-Paranoid Eyes
DR9 -2.59 dB -24.89 dB 1:19 07-Get Your Filthy Hands Off My Desert
DR12 -0.69 dB -19.73 dB 4:13 08-The Fletcher Memorial Home
DR12 -12.23 dB -29.70 dB 2:12 09-Southampton Dock
DR12 -1.39 dB -17.44 dB 4:44 10-The Final Cut
DR12 0.00 dB -14.58 dB 5:03 11-Not Now John
DR14 -2.61 dB -22.09 dB 5:20 12-Two Suns In The Sunset
––––––––––––––––––––––––––––––––––––––––

Number of tracks: 12
Official DR value: DR12

Samplerate: 44100 Hz
Channels: 2
Bits per sample: 16
Bitrate: 692 kbps
Codec: FLAC
================================================================================




Original ripper: Oleg-Leshiy
Original format: 24/192
Vinyl Condition: Mint
Cleaning:
Direct Drive Turntable: Dual 505-4, Pioneer PL-7L + ZYX R1000 Airy 3 gold, Micro Seiki DD-8 + ZYX R1000 Airy 3 gold
Cartridge: ZYX R1000 Airy 3 gold, ZYX R100 Fuji FS, AT-OC9/III
Amplifier: PS audio Phono Stage + Tube Preamp (Telefunken)
ADC: Sound Devices 744T, TASCAM HS-P82
Postprocessing:

Downsampled to 16/44

Pink Floyd: Discography (1967 - 2014) [Vinyl Rip 16/44 & mp3-320]

Tracklist VNL14 - A Momentary Lapse of Reason 1987:
OC 40599, USA

01. Signs Of Life
02. Learning To Fly
03. The Dogs Of War
04. One Slip
05. On The Turning Away
06. Yet Another Movie/Round And Around
07. A New Machine (Part 1)
08. Terminal Frost
09. A New Machine (Part 2)
10. Sorrow

foobar2000 1.2.9 / Dynamic Range Meter 1.1.1
log date: 2017-11-07 15:30:52

––––––––––––––––––––––––––––––––––––––––
Analyzed: Pink Floyd / A Momentary Lapse of Reason
––––––––––––––––––––––––––––––––––––––––

DR Peak RMS Duration Track
––––––––––––––––––––––––––––––––––––––––
DR12 -3.44 dB -20.02 dB 4:25 01-Signs Of Life
DR12 0.00 dB -15.19 dB 4:53 02-Learning To Fly
DR11 -1.45 dB -15.56 dB 6:05 03-The Dogs Of War
DR12 -1.33 dB -16.50 dB 5:11 04-One Slip
DR11 -2.68 dB -16.69 dB 5:40 05-On The Turning Away
DR13 -0.08 dB -17.72 dB 6:15 06-Yet Another Movie
DR11 -4.77 dB -26.50 dB 1:14 07-Round And Around
DR12 -8.34 dB -25.31 dB 1:46 08-A New Machine (Part 1)
DR12 -0.23 dB -16.86 dB 6:17 09-Terminal Frost
DR10 -9.95 dB -25.28 dB 0:39 10-A New Machine (Part 2)
DR13 -1.36 dB -16.83 dB 8:48 11-Sorrow
––––––––––––––––––––––––––––––––––––––––

Number of tracks: 11
Official DR value: DR12

Samplerate: 44100 Hz
Channels: 2
Bits per sample: 16
Bitrate: 796 kbps
Codec: FLAC
================================================================================




Original ripper: Oleg-Leshiy
Original format: 24/192
Vinyl Condition:
Cleaning:
Direct Drive Turntable: Dual 505-4, Pioneer PL-7L + ZYX R1000 Airy 3 gold, Micro Seiki DD-8 + ZYX R1000 Airy 3 gold
Cartridge: ZYX R1000 Airy 3 gold, ZYX R100 Fuji FS, AT-OC9/III
Amplifier: PS audio Phono Stage + Tube Preamp (Telefunken)
ADC: Sound Devices 744T, TASCAM HS-P82
Postprocessing:

Downsampled to 16/44

Pink Floyd: Discography (1967 - 2014) [Vinyl Rip 16/44 & mp3-320]

Tracklist VNL15 - Delicate Sound of Thunder 1988:
EMI, 79 1481 1, Germany

A1. Shine On You Crazy Diamond
A2. Learning To Fly
A3. Yet Another Movie
A4. Round And Around

B1. Sorrow
B2. The Dogs Of War
B3. On The Turning Away

C1. One Of These Days
C2. Time
C3. Money
C4. Another Brick In The Wall Part II

D1 Wish You Were Here
D2 Comfortably Numb
D3 Run Like Hell

foobar2000 1.2.9 / Dynamic Range Meter 1.1.1
log date: 2017-11-07 15:31:27

––––––––––––––––––––––––––––––––––––––––
Analyzed: Pink Floyd / Delicate sound of thunder {GER}
––––––––––––––––––––––––––––––––––––––––

DR Peak RMS Duration Track
––––––––––––––––––––––––––––––––––––––––
DR13 -0.09 dB -17.53 dB 12:01 01-A1 Shine On You Crazy Diamond
DR13 -1.06 dB -16.38 dB 5:23 02-A2 Learning To Fly
DR12 -2.84 dB -17.64 dB 7:10 03-A3 Yet Another Movie + Round And Round
DR12 -1.52 dB -17.17 dB 9:47 04-B1 Sorrow
DR13 -1.66 dB -16.81 dB 7:18 05-B2 The Dogs Of War
DR12 -3.77 dB -19.64 dB 7:54 06-B3 On The Turning Away
DR14 0.00 dB -18.38 dB 6:13 07-C1 One Of These Days
DR13 -3.30 dB -18.11 dB 5:15 08-C2 Time
DR13 -1.65 dB -18.79 dB 10:01 09-C3 Money
DR13 -1.39 dB -18.71 dB 5:23 10-C4 Another Brick In The Wall Part II
DR13 -0.38 dB -17.78 dB 4:56 11-D1 Wish You Were Here
DR12 0.00 dB -14.25 dB 8:55 12-D2 Comfortably Numb
DR12 0.00 dB -16.03 dB 7:09 13-D3 Run Like Hell
––––––––––––––––––––––––––––––––––––––––

Number of tracks: 13
Official DR value: DR13

Samplerate: 44100 Hz
Channels: 2
Bits per sample: 16
Bitrate: 862 kbps
Codec: FLAC
================================================================================




Original ripper: saidalani
Original format: 24/96
Vinyl Condition:
Cleaning:
Direct Drive Turntable: Dr. Feickert Blackbird + INERTIA platter + CLEARAUDIO Tangential TT3gold, Micro Seiki DD-8 + ZYX R1000 Airy 3 gold
Cartridge: CLEARAUDIO TITANIUM V2
Amplifier: Allnic H-3000
ADC: Lavry AD11
Postprocessing: manual clicks repair

Downsampled to 16/44

Pink Floyd: Discography (1967 - 2014) [Vinyl Rip 16/44 & mp3-320]

Tracklist VNL16 - The Division Bell 1994:
CPL-1461, Korea

01. Cluster One
02. What Do You Want From Me
03. Poles Apart
04. Marooned
05. A Great Day For Freedom
06. Wearing The Inside Out
07. Take It Back
08. Coming Back To Life
09. Keep Talking
10. Lost For Words
11. High Hopes

foobar2000 1.2.9 / Dynamic Range Meter 1.1.1
log date: 2017-11-07 15:31:47

––––––––––––––––––––––––––––––––––––––––
Analyzed: Pink Floyd / The Division Bell
––––––––––––––––––––––––––––––––––––––––

DR Peak RMS Duration Track
––––––––––––––––––––––––––––––––––––––––
DR13 -1.76 dB -19.53 dB 5:54 01-Cluster One
DR11 -0.39 dB -13.25 dB 4:22 02-What Do You Want From Me
DR11 -0.23 dB -14.53 dB 7:02 03-Poles Apart
DR13 0.00 dB -15.79 dB 5:32 04-Marooned
DR12 -0.38 dB -15.08 dB 4:17 05-A Great Day For Freedom
DR13 0.00 dB -15.67 dB 6:49 06-Wearing The Inside Out
DR12 -0.32 dB -15.16 dB 6:13 07-Take It Back
DR12 -0.17 dB -15.12 dB 6:20 08-Coming Back To Life
DR12 -0.69 dB -14.99 dB 6:09 09-Keep Talking
DR13 0.00 dB -16.82 dB 5:14 10-Lost For Words
DR14 0.00 dB -17.46 dB 8:00 11-High Hopes
––––––––––––––––––––––––––––––––––––––––

Number of tracks: 11
Official DR value: DR12

Samplerate: 44100 Hz
Channels: 2
Bits per sample: 16
Bitrate: 760 kbps
Codec: FLAC
================================================================================




Original ripper: Oleg-Leshiy
Original format: 24/192
Vinyl Condition: Mint
Cleaning:
Direct Drive Turntable: Dual 505-4, Pioneer PL-7L + ZYX R1000 Airy 3 gold, Micro Seiki DD-8 + ZYX R1000 Airy 3 gold
Cartridge: ZYX R1000 Airy 3 gold, ZYX R100 Fuji FS, AT-OC9/III
Amplifier: PS audio Phono Stage + Tube Preamp (Telefunken)
ADC: Sound Devices 744T, TASCAM HS-P82
Postprocessing:

Downsampled to 16/44

Pink Floyd: Discography (1967 - 2014) [Vinyl Rip 16/44 & mp3-320]

Tracklist VNL17 - P.U.L.S.E. 1995:
EMD 1078, UK

01 Shine On You Crazy Diamond
02 Astronomy Domine
03 What Do You Want From Me
04 Learning To Fly
05 Keep Talking
06 Coming Back To Life
07 Hey You
08 A Great Day For Freedom
09 Sorrow
10 High Hopes
11 Another Brick In The Wall (Part Two)
12 One Of These Days
13 Speak To Me
14 Breathe
15 On The Run
16 Time
17 The Great Gig In The Sky
18 Money
19 Us And Them
20 Any Colour You Like
21 Brain Damage
22 Eclipse
23 Wish You Were Here
24 Comfortably Numb
25 Run Like Hell

foobar2000 1.2.9 / Dynamic Range Meter 1.1.1
log date: 2017-11-07 15:32:39

––––––––––––––––––––––––––––––––––––––––
Analyzed: Pink Floyd / Pulse
––––––––––––––––––––––––––––––––––––––––

DR Peak RMS Duration Track
––––––––––––––––––––––––––––––––––––––––
DR12 0.00 dB -15.52 dB 13:35 01-Pink Floyd - Pulse
DR12 -0.01 dB -14.53 dB 4:20 02-Pink Floyd - Pulse
DR11 -1.02 dB -13.88 dB 4:18 03-Pink Floyd - Pulse
DR13 0.00 dB -15.68 dB 5:17 04-Pink Floyd - Pulse
DR13 0.00 dB -15.99 dB 6:54 05-Pink Floyd - Pulse
DR13 -0.70 dB -17.87 dB 6:51 06-Pink Floyd - Pulse
DR11 -1.70 dB -17.01 dB 4:39 07-Pink Floyd - Pulse
DR13 0.00 dB -16.12 dB 4:30 08-Pink Floyd - Pulse
DR12 0.00 dB -14.18 dB 10:51 09-Pink Floyd - Pulse
DR11 0.00 dB -15.67 dB 8:00 10-Pink Floyd - Pulse
DR14 -0.37 dB -17.64 dB 6:57 11-Pink Floyd - Pulse
DR11 -0.22 dB -15.26 dB 6:48 12-Pink Floyd - Pulse
DR14 -4.82 dB -24.36 dB 2:27 13-Pink Floyd - Pulse
DR13 -0.09 dB -15.43 dB 2:37 14-Pink Floyd - Pulse
DR12 -0.23 dB -17.31 dB 3:44 15-Pink Floyd - Pulse
DR12 0.00 dB -14.53 dB 6:54 16-Pink Floyd - Pulse
DR12 -0.66 dB -16.99 dB 5:52 17-Pink Floyd - Pulse
DR13 0.00 dB -15.84 dB 9:09 18-Pink Floyd - Pulse
DR10 0.00 dB -14.52 dB 7:00 19-Pink Floyd - Pulse
DR11 -0.61 dB -14.28 dB 3:21 20-Pink Floyd - Pulse
DR11 0.00 dB -15.73 dB 3:46 21-Pink Floyd - Pulse
DR10 -0.34 dB -14.39 dB 2:49 22-Pink Floyd - Pulse
DR13 -2.65 dB -20.61 dB 6:23 23-Pink Floyd - Pulse
DR11 -1.84 dB -15.39 dB 9:29 24-Pink Floyd - Pulse
DR13 -0.02 dB -17.79 dB 8:39 25-Pink Floyd - Pulse
––––––––––––––––––––––––––––––––––––––––

Number of tracks: 25
Official DR value: DR12

Samplerate: 44100 Hz
Channels: 2
Bits per sample: 16
Bitrate: 812 kbps
Codec: FLAC
================================================================================




Original ripper: Oleg-Leshiy
Original format: 24/192
Vinyl Condition: Near Mint
Cleaning:
Direct Drive Turntable: Dual 505-4, Pioneer PL-7L + ZYX R1000 Airy 3 gold, Micro Seiki DD-8 + ZYX R1000 Airy 3 gold
Cartridge: ZYX R1000 Airy 3 gold, ZYX R100 Fuji FS, AT-OC9/III
Amplifier: PS audio Phono Stage + Tube Preamp (Telefunken)
ADC: Sound Devices 744T, TASCAM HS-P82
Postprocessing:

Downsampled to 16/44

Pink Floyd: Discography (1967 - 2014) [Vinyl Rip 16/44 & mp3-320]

Tracklist VNL18 - The Endless River 2014:
825646215478, EU

01. Things Left Unsaid
02. It's What We Do
03. Ebb and Flow
04. Sum
05. Skins
06. Unsung
07. Anisina
08. The Lost Art of Conversation
09. On Noodle Street
10. Night Light
11. Allons-YS (1)
12. Autumn '68
13. Allons-Y (2)
14. Talkin' Hawkin'
15. Calling
16. Eyes to Pearls
17. Surfacing
18. Louder Than Words

foobar2000 1.2.9 / Dynamic Range Meter 1.1.1
log date: 2017-11-07 15:33:03

––––––––––––––––––––––––––––––––––––––––
Analyzed: Pink Floyd / The Endless River
––––––––––––––––––––––––––––––––––––––––

DR Peak RMS Duration Track
––––––––––––––––––––––––––––––––––––––––
DR10 -2.56 dB -17.78 dB 4:26 01-Things Left Unsaid
DR13 0.00 dB -16.04 dB 6:17 02-It's What We Do
DR13 -5.02 dB -21.55 dB 1:54 03-Ebb And Flow
DR13 -0.46 dB -15.95 dB 4:47 04-Sum
DR13 0.00 dB -16.71 dB 2:38 05-Skins
DR12 -2.43 dB -20.80 dB 1:06 06-Unsung
DR12 -0.19 dB -15.42 dB 3:18 07-Anisina
DR11 -6.33 dB -23.91 dB 1:42 08-The Lost Art Of Conversation
DR13 -3.80 dB -19.62 dB 1:42 09-On Noodle Street
DR11 -5.23 dB -20.27 dB 1:42 10-Night Light
DR11 -0.80 dB -14.84 dB 1:57 11-Allons-Y (1)
DR9 -2.11 dB -15.45 dB 1:35 12-Autumn '68
DR12 -0.80 dB -15.35 dB 1:32 13-Allons-Y (2)
DR12 0.00 dB -15.56 dB 3:29 14-Talkin' Hawkin'
DR12 -0.76 dB -18.70 dB 3:38 15-Calling
DR10 -2.94 dB -16.81 dB 1:51 16-Eyes To Pearls
DR13 0.00 dB -16.87 dB 2:46 17-Surfacing
DR11 -0.41 dB -15.85 dB 6:29 18-Louder Than Words
––––––––––––––––––––––––––––––––––––––––

Number of tracks: 18
Official DR value: DR12

Samplerate: 44100 Hz
Channels: 2
Bits per sample: 16
Bitrate: 766 kbps
Codec: FLAC
================================================================================




Original ripper: Oleg-Leshiy
Original format: 24/192
Vinyl Condition: Mint
Cleaning:
Direct Drive Turntable: Dual 505-4, Pioneer PL-7L + ZYX R1000 Airy 3 gold, Micro Seiki DD-8 + ZYX R1000 Airy 3 gold
Cartridge: ZYX R1000 Airy 3 gold, ZYX R100 Fuji FS, AT-OC9/III
Amplifier: PS audio Phono Stage + Tube Preamp (Telefunken)
ADC: Sound Devices 744T, TASCAM HS-P82
Postprocessing:

Downsampled to 16/44

All thanks go to the original releaser

Led Zeppelin: Discography (1969 - 1982) [Vinyl Rip 16/44 & mp3-320]
Manowar: Collection (1982 - 2012) [Vinyl Rip 16/44 & mp3-320]
A-HA: Collection (1985-2015) [Vinyl Rip 16/44 & mp3-320]
Decca, Wiener Philharmoniker - 6 Classic Analogue LPs (2014) [Vinyl Rip 16/44]
Beethoven - Chicago Symphony Orchestra / Sir Georg Solti ‎– The Nine Symphonies (1975) [Vinyl Rip 16/44 & mp3-320]

Pink Floyd or Pink Floyd in my Blog

Download Pink Floyd: Discography (1967 - 2014):