Tags
Language
Tags

Pink Floyd - Echoes: The Best Of Pink Floyd (2001) {2006, Japanese Reissue, Remastered}

Posted By: popsakov
Pink Floyd - Echoes: The Best Of Pink Floyd (2001) {2006, Japanese Reissue, Remastered}

Pink Floyd - Echoes: The Best Of Pink Floyd (2001) {2006, Japanese Reissue, Remastered}
EAC Rip | FLAC (Img) + Cue + Log ~ 944 Mb | MP3 CBR320 ~ 373 Mb
Full Scans (JPG, 600 dpi) ~ 84 Mb | RAR 5% Recovery
Progressive Rock, Psychedelic Rock | EMI #TOCP-53801-02

Being the quintessential album rock band, Pink Floyd hasn't had much luck with "best-of" and "greatest-hits" compilations, like A Collection of Great Dance Songs and the bizarro follow-up, Works. Since both of those were released in the early '80s (and time travel being unavailable even to Pink Floyd), they obviously left out any tracks from the post-Roger Waters era albums. While countless hours in dorm rooms have been spent laboring over whether or not the post-Waters recordings should even be considered the "real Floyd," the later albums nonetheless stand as a further progression in the band's evolution and warrant recognition. The 2001 release Echoes: The Best of Pink Floyd does just that, sequencing the tracks non-chronologically in an effort to place more emphasis on the individual songs as opposed to the era they're from. Unfortunately, the effect is rather jarring when the songs transition from the clinical mid-'90s sound of "High Hopes" directly into the psychedelic groove of the much earlier "Bike." Interestingly, as is the case with most of their albums (but a rarity in "hits" compilations), most of the tracks fade into one another; the hum of "Keep Talking" segueing into the bleating of "Sheep," making for an intriguing listen from one song to the next.

There are many highlights on this collection: the inclusion of the Floyd holy grail "When the Tigers Broke Free," a sweeping Waters military dirge that has only appeared in the film The Wall, and the fascinating "Shine on You Crazy Diamond, Pts. 1-7," which has never before been released without the break in the middle (but conspicuously missing parts eight and nine). The confusing inclusion of "The Fletcher Memorial Home" (possibly just to cover something from The Final Cut) and three songs from the decidedly mediocre Division Bell stand out as obvious head-scratchers, making the die-hard Pink Floyd fan wonder if compiler James Guthrie was really clear on what this album should represent. Guthrie's job was unfortunately doomed from the start; since Pink Floyd's strength has always been in the band's rich, sprawling albums, listening to selections cut and chopped from here and there makes it almost like watching three-minute segments from Citizen Kane, Gone With the Wind, and Apocalypse Now, knowing full well that they hold together much better as whole works. Still, Echoes is nearly the best possible assembly of the band's individual songs one could hope for, and collectors and completists should be overjoyed. That being said, anyone just getting into this group's fascinating sound would be much better off starting with Dark Side of the Moon, then working forward, then backward from there: the time honored system of hungrily consuming the Pink Floyd catalog that has stood for generations.

~ Zac Johnson, All Music

***************

Pink Floyd - Echoes: The Best Of Pink Floyd (2001) {2006, Japanese Reissue, Remastered}

Track List CD1:

01. Astronomy Domine [4:10]
02. See Emily Play [2:47]
03. The Happiest Days of Our Lives [1:38]
04. Another Brick in the Wall, Part 2 [4:01]
05. Echoes [16:31]
06. Hey You [4:40]
07. Marooned [2:03]
08. The Great Gig in the Sky [4:40]
09. Set the Controls for the Heart of the Sun [5:20]
10. Money [6:30]
11. Keep Talking [5:58]
12. Sheep [9:47]
13. Sorrow [8:46]

Exact Audio Copy V1.3 from 2. September 2016

Отчёт EAC об извлечении, выполненном 5. ноября 2017, 17:51

Pink Floyd / Echoes: The Best of Pink Floyd

Дисковод: HL-DT-STDVDRAM GSA-4167B Adapter: 1 ID: 0

Режим чтения : Достоверность
Использование точного потока : Да
Отключение кэша аудио : Да
Использование указателей C2 : Нет

Коррекция смещения при чтении : 667
Способность читать области Lead-in и Lead-out : Нет
Заполнение пропущенных сэмплов тишиной : Да
Удаление блоков с тишиной в начале и конце : Нет
При вычислениях CRC использовались нулевые сэмплы : Да
Интерфейс : Встроенный Win32-интерфейс для Win NT/2000

Выходной формат : Внутренние WAV-операции
Формат сэмплов : 44.100 Гц; 16 бит; стерео


TOC извлечённого CD

Трек | Старт | Длительность | Начальный сектор | Конечный сектор
––––––––––––––––––––––––––––––––––-
1 | 0:00.00 | 4:10.08 | 0 | 18757
2 | 4:10.08 | 2:47.16 | 18758 | 31298
3 | 6:57.24 | 1:38.16 | 31299 | 38664
4 | 8:35.40 | 4:01.15 | 38665 | 56754
5 | 12:36.55 | 16:30.60 | 56755 | 131064
6 | 29:07.40 | 4:39.69 | 131065 | 152058
7 | 33:47.34 | 2:02.71 | 152059 | 161279
8 | 35:50.30 | 4:40.02 | 161280 | 182281
9 | 40:30.32 | 5:20.14 | 182282 | 206295
10 | 45:50.46 | 6:29.38 | 206296 | 235508
11 | 52:20.09 | 5:57.66 | 235509 | 262349
12 | 58:18.00 | 9:46.39 | 262350 | 306338
13 | 68:04.39 | 8:45.46 | 306339 | 345759


Характеристики диапазона извлечения и сообщения об ошибках

Выбранный диапазон

Имя файла C:\Users\khokh\Desktop\Pink Floyd - Echoes- The Best of Pink Floyd.wav

Пиковый уровень 100.0 %
Скорость извлечения 7.4 X
Качество диапазона 99.9 %
CRC теста 9C8B4612
CRC копии 9C8B4612
Копирование… OK

Ошибок не произошло


AccurateRip: сводка

Трек 1 : извлечено точно (доверие 6) [8D1A46F1] (AR v2)
Трек 2 : извлечено точно (доверие 6) [5C59EDF8] (AR v2)
Трек 3 : извлечено точно (доверие 6) [27EBF1A9] (AR v2)
Трек 4 : извлечено точно (доверие 6) [F52E3CA4] (AR v2)
Трек 5 : извлечено точно (доверие 6) [C1C11832] (AR v2)
Трек 6 : извлечено точно (доверие 6) [404B4136] (AR v2)
Трек 7 : извлечено точно (доверие 6) [DDF2A48A] (AR v2)
Трек 8 : извлечено точно (доверие 6) [6E878D6E] (AR v2)
Трек 9 : извлечено точно (доверие 6) [8ECA6401] (AR v2)
Трек 10 : извлечено точно (доверие 6) [23F888AC] (AR v2)
Трек 11 : извлечено точно (доверие 6) [92ED80DC] (AR v2)
Трек 12 : извлечено точно (доверие 6) [ED570042] (AR v2)
Трек 13 : извлечено точно (доверие 7) [1D434C6C] (AR v2)

Все треки извлечены точно

Конец отчёта

–– CUETools DB Plugin V2.1.6

[CTDB TOCID: FIsW2GCaeukkI4x7lf.2UM2TpZc-] found
Submit result: already submitted
Track | CTDB Status
1 | (2992/3031) Accurately ripped
2 | (2954/3031) Accurately ripped
3 | (2963/3031) Accurately ripped
4 | (2957/3031) Accurately ripped
5 | (2932/3031) Accurately ripped
6 | (2986/3031) Accurately ripped
7 | (2956/3031) Accurately ripped
8 | (2954/3031) Accurately ripped
9 | (2999/3031) Accurately ripped
10 | (2945/3031) Accurately ripped
11 | (2945/3031) Accurately ripped
12 | (2918/3031) Accurately ripped
13 | (2843/3031) Accurately ripped, or (7/3031) differs in 467 samples @05:23:32,06:14:17-06:14:18,08:18:60, or (5/3031) differs in 390 samples @06:14:17-06:14:18


==== Контрольная сумма отчёта 4EC2B183E83F5F3EA712E315E74F943DC848CA565AD1C29801FFE611E27769C4 ====

foobar2000 1.3.16 / Dynamic Range Meter 1.1.1
log date: 2017-11-06 13:02:26

––––––––––––––––––––––––––––––––––––––––
Analyzed: Pink Floyd / Echoes: The Best of Pink Floyd
––––––––––––––––––––––––––––––––––––––––

DR Peak RMS Duration Track
––––––––––––––––––––––––––––––––––––––––
DR8 -2.12 dB -12.34 dB 4:10 01-Astronomy Domine
DR8 -1.57 dB -11.57 dB 2:47 02-See Emily Play
DR8 0.00 dB -11.85 dB 1:38 03-The Happiest Days of Our Lives
DR11 0.00 dB -13.09 dB 4:01 04-Another Brick in the Wall, Part 2
DR12 0.00 dB -15.69 dB 16:31 05-Echoes
DR9 0.00 dB -13.26 dB 4:40 06-Hey You
DR11 -8.72 dB -23.15 dB 2:03 07-Marooned
DR8 -0.03 dB -13.60 dB 4:40 08-The Great Gig in the Sky
DR9 -2.23 dB -14.34 dB 5:20 09-Set the Controls for the Heart of the Sun
DR8 -2.30 dB -13.42 dB 6:30 10-Money
DR11 -2.30 dB -15.20 dB 5:58 11-Keep Talking
DR10 -1.20 dB -14.98 dB 9:47 12-Sheep
DR9 -0.06 dB -11.11 dB 8:46 13-Sorrow
––––––––––––––––––––––––––––––––––––––––

Number of tracks: 13
Official DR value: DR9

Samplerate: 44100 Hz
Channels: 2
Bits per sample: 16
Bitrate: 799 kbps
Codec: FLAC
================================================================================

[CUETools log; Date: 06.11.2017 13:02:53; Version: 2.1.5]
[CTDB TOCID: FIsW2GCaeukkI4x7lf.2UM2TpZc-] found.
Track | CTDB Status
1 | (2992/3031) Accurately ripped
2 | (2954/3031) Accurately ripped
3 | (2963/3031) Accurately ripped
4 | (2957/3031) Accurately ripped
5 | (2932/3031) Accurately ripped
6 | (2986/3031) Accurately ripped
7 | (2956/3031) Accurately ripped
8 | (2954/3031) Accurately ripped
9 | (2999/3031) Accurately ripped
10 | (2945/3031) Accurately ripped
11 | (2945/3031) Accurately ripped
12 | (2918/3031) Accurately ripped
13 | (2843/3031) Accurately ripped, or (7/3031) differs in 467 samples @05:23:32,06:14:17-06:14:18,08:18:60, or (5/3031) differs in 390 samples @06:14:17-06:14:18
[AccurateRip ID: 00207a21-014f54ac-a512020d] found.
Track [ CRC | V2 ] Status
01 [6033731a|8d1a46f1] (002+006/1197) Accurately ripped
02 [e16b1356|5c59edf8] (002+006/1198) Accurately ripped
03 [10bc7414|27ebf1a9] (002+006/1202) Accurately ripped
04 [24068bf4|f52e3ca4] (002+006/1205) Accurately ripped
05 [53512056|c1c11832] (002+006/1196) Accurately ripped
06 [6358fa20|404b4136] (002+006/1203) Accurately ripped
07 [7aa92a9e|ddf2a48a] (002+006/1193) Accurately ripped
08 [f6b8440d|6e878d6e] (002+006/1193) Accurately ripped
09 [0779631a|8eca6401] (002+006/1194) Accurately ripped
10 [197f6c80|23f888ac] (002+006/1193) Accurately ripped
11 [f7c7bcac|92ed80dc] (002+006/1188) Accurately ripped
12 [00afe167|ed570042] (002+006/1173) Accurately ripped
13 [59512a08|1d434c6c] (002+007/1148) Accurately ripped
Offsetted by -1330:
01 [9420f429] (004/1197) Accurately ripped
02 [4b05821b] (004/1198) Accurately ripped
03 [6abdfbe9] (004/1202) Accurately ripped
04 [8221315f] (004/1205) Accurately ripped
05 [5926fdf5] (004/1196) Accurately ripped
06 [1dc44a68] (004/1203) Accurately ripped
07 [2e85261c] (004/1193) Accurately ripped
08 [84dc4f46] (004/1193) Accurately ripped
09 [a46757d9] (004/1194) Accurately ripped
10 [2c7cda81] (004/1193) Accurately ripped
11 [8c84cf55] (004/1188) Accurately ripped
12 [fac00d49] (004/1173) Accurately ripped
13 [8183f4b1] (004/1148) Accurately ripped
Offsetted by -694:
01 [7e0efc76] (002/1197) Accurately ripped
02 [ea6e7024] (002/1198) Accurately ripped
03 [c6210c0e] (002/1202) Accurately ripped
04 [43ba365b] (002/1205) Accurately ripped
05 [fa846573] (002/1196) Accurately ripped
06 [718aa96c] (002/1203) Accurately ripped
07 [77ee9e98] (002/1193) Accurately ripped
08 [3b46fb70] (002/1193) Accurately ripped
09 [e1714d9b] (002/1194) Accurately ripped
10 [2e38d23a] (002/1193) Accurately ripped
11 [1a2fe814] (002/1188) Accurately ripped
12 [cabdecd3] (002/1173) Accurately ripped
13 [d7272ad2] (002/1148) Accurately ripped
Offsetted by -673:
01 [800f7b6c] (054/1197) Accurately ripped
02 [cc65d51b] (054/1198) Accurately ripped
03 [04dca346] (054/1202) Accurately ripped
04 [b15a7ebd] (055/1205) Accurately ripped
05 [c0800c8e] (054/1196) Accurately ripped
06 [48442fd2] (054/1203) Accurately ripped
07 [5262e986] (054/1193) Accurately ripped
08 [f52a3200] (054/1193) Accurately ripped
09 [4f0f5a57] (054/1194) Accurately ripped
10 [911a820a] (055/1193) Accurately ripped
11 [bcdfb1a4] (054/1188) Accurately ripped
12 [bace44a7] (055/1173) Accurately ripped
13 [9871402f] (051/1148) Accurately ripped
Offsetted by -667:
01 [9287ea1b] (003/1197) Accurately ripped
02 [839c4a2f] (003/1198) Accurately ripped
03 [85ed8d17] (003/1202) Accurately ripped
04 [7c5ecd32] (003/1205) Accurately ripped
05 [a5d771c8] (003/1196) Accurately ripped
06 [d910d2c9] (003/1203) Accurately ripped
07 [99e8f6d8] (003/1193) Accurately ripped
08 [daaef57d] (003/1193) Accurately ripped
09 [1ea128dd] (003/1194) Accurately ripped
10 [f9d14030] (003/1193) Accurately ripped
11 [2c359e2d] (003/1188) Accurately ripped
12 [8cc4fb7c] (003/1173) Accurately ripped
13 [118f540a] (003/1148) Accurately ripped
Offsetted by -666:
01 [fc1beff9] (021/1197) Accurately ripped
02 [0d11560c] (021/1198) Accurately ripped
03 [6620ef52] (021/1202) Accurately ripped
04 [be98368d] (021/1205) Accurately ripped
05 [320d08f8] (021/1196) Accurately ripped
06 [6d5fb45c] (021/1203) Accurately ripped
07 [1acebff3] (021/1193) Accurately ripped
08 [88b15a00] (021/1193) Accurately ripped
09 [ed053211] (020/1194) Accurately ripped
10 [1a4aa053] (021/1193) Accurately ripped
11 [ed8b1ad0] (020/1188) Accurately ripped
12 [434260f5] (021/1173) Accurately ripped
13 [ce770cc8] (021/1148) Accurately ripped
Offsetted by -664:
01 [ceccaf1d] (041/1197) Accurately ripped
02 [8c295873] (040/1198) Accurately ripped
03 [aa1dd56b] (041/1202) Accurately ripped
04 [b5ed3293] (041/1205) Accurately ripped
05 [45882978] (040/1196) Accurately ripped
06 [f19bf949] (041/1203) Accurately ripped
07 [4b7ddd82] (040/1193) Accurately ripped
08 [553727ef] (041/1193) Accurately ripped
09 [e9616e28] (040/1194) Accurately ripped
10 [3d691938] (039/1193) Accurately ripped
11 [db2d81f1] (040/1188) Accurately ripped
12 [2b131633] (039/1173) Accurately ripped
13 [45818a76] (036/1148) Accurately ripped
Offsetted by -661:
01 [721374b3] (013/1197) Accurately ripped
02 [d74d1294] (013/1198) Accurately ripped
03 [7e8dee79] (013/1202) Accurately ripped
04 [758a4046] (014/1205) Accurately ripped
05 [98666e75] (013/1196) Accurately ripped
06 [fdbed116] (013/1203) Accurately ripped
07 [af03b314] (013/1193) Accurately ripped
08 [baff548a] (013/1193) Accurately ripped
09 [238652c5] (013/1194) Accurately ripped
10 [4a367156] (013/1193) Accurately ripped
11 [f828acaf] (013/1188) Accurately ripped
12 [9f23e984] (013/1173) Accurately ripped
13 [71c5e512] (011/1148) Accurately ripped
Offsetted by -117:
01 [84b20aa1] (003/1197) Accurately ripped
02 [de6d484d] (003/1198) Accurately ripped
03 [bd851169] (003/1202) Accurately ripped
04 [8fe03354] (003/1205) Accurately ripped
05 [0693f23e] (003/1196) Accurately ripped
06 [5bb9b800] (003/1203) Accurately ripped
07 [e4211959] (003/1193) Accurately ripped
08 [d371aeda] (003/1193) Accurately ripped
09 [16955b5c] (003/1194) Accurately ripped
10 [d831c92f] (003/1193) Accurately ripped
11 [5c4d0f53] (003/1188) Accurately ripped
12 [ff24f721] (003/1173) Accurately ripped
13 [cbfb2088] (002/1148) Accurately ripped
Offsetted by -83:
01 [37e00f82] (010/1197) Accurately ripped
02 [b09849ad] (009/1198) Accurately ripped
03 [433e111e] (009/1202) Accurately ripped
04 [32476f8c] (009/1205) Accurately ripped
05 [c1c7a07d] (009/1196) Accurately ripped
06 [78552429] (009/1203) Accurately ripped
07 [e07105ba] (009/1193) Accurately ripped
08 [7e8568f5] (009/1193) Accurately ripped
09 [b62d0b87] (009/1194) Accurately ripped
10 [13273fcf] (008/1193) Accurately ripped
11 [969540ce] (009/1188) Accurately ripped
12 [217d5588] (007/1173) Accurately ripped
13 [713c0f9f] (009/1148) Accurately ripped
Offsetted by -77:
01 [ca9e6c7a] (002/1197) Accurately ripped
02 [ec8e9a18] (002/1198) Accurately ripped
03 [0c925703] (002/1202) Accurately ripped
04 [8cc400c1] (002/1205) Accurately ripped
05 [8d16701e] (002/1196) Accurately ripped
06 [0cb17ff4] (002/1203) Accurately ripped
07 [89fc0796] (002/1193) Accurately ripped
08 [b56a46dd] (002/1193) Accurately ripped
09 [c077166b] (002/1194) Accurately ripped
10 [905c1c02] (002/1193) Accurately ripped
11 [16557f2b] (002/1188) Accurately ripped
12 [528610ab] (002/1173) Accurately ripped
13 [9f3ada7d] (002/1148) Accurately ripped
Offsetted by -63:
01 [75b3211d] (006/1197) Accurately ripped
02 [d97738c5] (006/1198) Accurately ripped
03 [9760bb10] (006/1202) Accurately ripped
04 [8e7c43d3] (006/1205) Accurately ripped
05 [f29727ef] (004/1196) Accurately ripped
06 [1ea45a93] (006/1203) Accurately ripped
07 [6bb3c6f9] (006/1193) Accurately ripped
08 [1517a9f5] (006/1193) Accurately ripped
09 [831ad0e8] (006/1194) Accurately ripped
10 [8226cb5a] (006/1193) Accurately ripped
11 [84c99bea] (006/1188) Accurately ripped
12 [1a3ed64c] (005/1173) Accurately ripped
13 [d7153b58] (005/1148) Accurately ripped
Offsetted by -33:
01 [409162af] (007/1197) Accurately ripped
02 [48460353] (008/1198) Accurately ripped
03 [a6abce9b] (008/1202) Accurately ripped
04 [6b15c4c6] (008/1205) Accurately ripped
05 [60a98773] (008/1196) Accurately ripped
06 [1b0bb8f8] (008/1203) Accurately ripped
07 [ca7b9365] (008/1193) Accurately ripped
08 [8979ba51] (008/1193) Accurately ripped
09 [23d42401] (008/1194) Accurately ripped
10 [4559c0a9] (008/1193) Accurately ripped
11 [cd39ec68] (008/1188) Accurately ripped
12 [1947b4c2] (008/1173) Accurately ripped
13 [38267933] (008/1148) Accurately ripped
Offsetted by -2:
01 [42431288] (015/1197) Accurately ripped
02 [7c71cadd] (015/1198) Accurately ripped
03 [f8d94943] (015/1202) Accurately ripped
04 [02d54d55] (015/1205) Accurately ripped
05 [14268582] (015/1196) Accurately ripped
06 [d648e2d6] (015/1203) Accurately ripped
07 [2aaf8c11] (015/1193) Accurately ripped
08 [482f3173] (014/1193) Accurately ripped
09 [73325beb] (015/1194) Accurately ripped
10 [e328c15e] (015/1193) Accurately ripped
11 [3adbe6f1] (015/1188) Accurately ripped
12 [d014f983] (015/1173) Accurately ripped
13 [11eb4f1a] (015/1148) Accurately ripped
Offsetted by 3:
01 [7e229d73] (200/1197) Accurately ripped
02 [c291c683] (200/1198) Accurately ripped
03 [00037ccd] (200/1202) Accurately ripped
04 [bca6ff57] (200/1205) Accurately ripped
05 [a8fc2525] (200/1196) Accurately ripped
06 [0dc837b0] (200/1203) Accurately ripped
07 [ab08a76a] (200/1193) Accurately ripped
08 [31eccc8d] (200/1193) Accurately ripped
09 [593cdd04] (200/1194) Accurately ripped
10 [e3a09916] (200/1193) Accurately ripped
11 [47170a71] (200/1188) Accurately ripped
12 [41698306] (200/1173) Accurately ripped
13 [1645cf28] (200/1148) Accurately ripped
Offsetted by 9:
01 [3b9e24b5] (002/1197) Accurately ripped
02 [776e64cc] (002/1198) Accurately ripped
03 [d4db94df] (002/1202) Accurately ripped
04 [90e9f397] (002/1205) Accurately ripped
05 [eb192f83] (004/1196) Accurately ripped
06 [013a4395] (005/1203) Accurately ripped
07 [62f318dd] (002/1193) Accurately ripped
08 [afab3e2c] (002/1193) Accurately ripped
09 [731ab8e5] (002/1194) Accurately ripped
10 [27950e34] (002/1193) Accurately ripped
11 [3da6dd1c] (002/1188) Accurately ripped
12 [c441ae62] (003/1173) Accurately ripped
13 [0a90932a] (003/1148) Accurately ripped
Offsetted by 596:
01 [e3f22c5a] (127/1197) Accurately ripped
02 [a0b51611] (127/1198) Accurately ripped
03 [b1e268a9] (128/1202) Accurately ripped
04 [bbaa416d] (127/1205) Accurately ripped
05 [709a5365] (127/1196) Accurately ripped
06 [a6837449] (127/1203) Accurately ripped
07 [a0931971] (127/1193) Accurately ripped
08 [43d3bb55] (129/1193) Accurately ripped
09 [287c3b51] (129/1194) Accurately ripped
10 [4937ff8f] (128/1193) Accurately ripped
11 [d13d03b2] (127/1188) Accurately ripped
12 [0dbc74e0] (125/1173) Accurately ripped
13 [c7c359c7] (123/1148) Accurately ripped
Offsetted by -1736:
01 [67f3a24b] (003/1197) Accurately ripped
02 [47f66234] (003/1198) Accurately ripped
03 [24acfb74] (003/1202) Accurately ripped
04 [4c206bb4] (004/1205) Accurately ripped
05 [af41bbb1] (003/1196) Accurately ripped
06 [f93e2c36] (003/1203) Accurately ripped
07 [03a5e8a5] (003/1193) Accurately ripped
08 [189b9ccb] (003/1193) Accurately ripped
09 [dd0bde3c] (003/1194) Accurately ripped
10 [0efcd8f5] (003/1193) Accurately ripped
11 [0dace734] (002/1188) Accurately ripped
12 [a3ce2190] (000/1173) No match (V2 was not tested)
13 [87b40537] (000/1148) No match (V2 was not tested)
Offsetted by -1367:
01 [aa934583] (000/1197) No match (V2 was not tested)
02 [51000dd2] (000/1198) No match (V2 was not tested)
03 [6085919f] (000/1202) No match (V2 was not tested)
04 [a11dd4cf] (000/1205) No match (V2 was not tested)
05 [64e4dd51] (000/1196) No match (V2 was not tested)
06 [2a70b9a3] (000/1203) No match (V2 was not tested)
07 [eb5d3bbc] (000/1193) No match (V2 was not tested)
08 [751dc898] (000/1193) No match (V2 was not tested)
09 [84e67fd4] (000/1194) No match (V2 was not tested)
10 [82008b20] (000/1193) No match (V2 was not tested)
11 [24adac1f] (000/1188) No match (V2 was not tested)
12 [633fd340] (000/1173) No match (V2 was not tested)
13 [0aef0407] (000/1148) No match (V2 was not tested)
Offsetted by -1318:
01 [6bb6be58] (000/1197) No match
02 [76825884] (000/1198) No match (V2 was not tested)
03 [55fc90fa] (000/1202) No match
04 [ae1ac50d] (000/1205) No match
05 [a46bb726] (000/1196) No match
06 [06830793] (000/1203) No match
07 [7ee0d577] (000/1193) No match
08 [5174118c] (000/1193) No match
09 [c4ded5a7] (000/1194) No match
10 [7c3d32d4] (000/1193) No match
11 [7efc56c6] (000/1188) No match
12 [68426684] (000/1173) No match
13 [9456d460] (000/1148) No match
Offsetted by -1315:
01 [a31749c5] (000/1197) No match
02 [2f9b1f66] (000/1198) No match
03 [bc4695b1] (000/1202) No match (V2 was not tested)
04 [c2d6d564] (000/1205) No match
05 [cde558fe] (000/1196) No match
06 [2c8391af] (000/1203) No match
07 [5af61f0f] (000/1193) No match
08 [7f038b85] (000/1193) No match
09 [83608e2b] (000/1194) No match
10 [8048b9f5] (000/1193) No match
11 [85f3aae2] (000/1188) No match
12 [b0a29532] (000/1173) No match
13 [4a017fd8] (000/1148) No match
Offsetted by -1307:
01 [8aaabc37] (000/1197) No match
02 [6a8a2609] (000/1198) No match
03 [98f6404c] (000/1202) No match
04 [eb2115f7] (000/1205) No match (V2 was not tested)
05 [57aebfc6] (000/1196) No match
06 [675c6bb9] (000/1203) No match
07 [66bea659] (000/1193) No match
08 [a070a2cf] (000/1193) No match
09 [78d87f0a] (000/1194) No match
10 [6078a385] (000/1193) No match
11 [f5e54069] (000/1188) No match
12 [5ea6d3cd] (000/1173) No match
13 [17ffbc76] (000/1148) No match
Offsetted by -1303:
01 [0feac175] (000/1197) No match
02 [2164a607] (000/1198) No match
03 [24435773] (000/1202) No match
04 [417f35b8] (000/1205) No match
05 [ebefe092] (000/1196) No match (V2 was not tested)
06 [45398861] (000/1203) No match
07 [afd1383c] (000/1193) No match
08 [c617c16e] (000/1193) No match
09 [0b5cbe51] (000/1194) No match
10 [cd67cb68] (000/1193) No match
11 [b56278af] (000/1188) No match
12 [6d662f3e] (000/1173) No match
13 [d6954a8b] (000/1148) No match
Offsetted by -1297:
01 [8fb221f4] (000/1197) No match (V2 was not tested)
02 [cfdc7396] (000/1198) No match
03 [da1f0975] (000/1202) No match
04 [c42957e4] (000/1205) No match
05 [64901000] (000/1196) No match
06 [08ff5dd4] (000/1203) No match
07 [0744b4ef] (000/1193) No match
08 [4422722c] (000/1193) No match
09 [731ede8c] (000/1194) No match
10 [21200cb8] (000/1193) No match
11 [ea92e5ec] (000/1188) No match
12 [6d627589] (000/1173) No match
13 [6e56f31c] (000/1148) No match
Offsetted by -1278:
01 [92f81dbd] (000/1197) No match
02 [3c38d36d] (000/1198) No match
03 [88361175] (000/1202) No match
04 [19a3ef7a] (000/1205) No match
05 [2ac77b56] (000/1196) No match
06 [da6e01f3] (000/1203) No match (V2 was not tested)
07 [402d5d13] (000/1193) No match
08 [7c8b0d97] (000/1193) No match
09 [dd9b5952] (000/1194) No match
10 [54c3a2a3] (000/1193) No match
11 [b1806d5d] (000/1188) No match
12 [daf0788b] (000/1173) No match
13 [453d647b] (000/1148) No match
Offsetted by -1185:
01 [7d54445a] (002/1197) Accurately ripped
02 [12941d32] (002/1198) Accurately ripped
03 [6f96eb17] (002/1202) Accurately ripped
04 [cc5a1e75] (002/1205) Accurately ripped
05 [cf7e1e69] (002/1196) Accurately ripped
06 [ef8f8627] (002/1203) Accurately ripped
07 [bf85d6e0] (002/1193) Accurately ripped
08 [fa71161c] (002/1193) Accurately ripped
09 [1cbf6fc0] (002/1194) Accurately ripped
10 [1e6f74d1] (002/1193) Accurately ripped
11 [ee4a96ef] (002/1188) Accurately ripped
12 [e4f26440] (000/1173) No match (V2 was not tested)
13 [5122740f] (002/1148) Accurately ripped
Offsetted by -975:
01 [a6a8300f] (000/1197) No match
02 [c7e2f18e] (000/1198) No match
03 [ab9f5846] (000/1202) No match
04 [51d32e3e] (000/1205) No match
05 [78a50cbe] (000/1196) No match
06 [20186de3] (000/1203) No match
07 [c0310670] (000/1193) No match (V2 was not tested)
08 [8591d27d] (000/1193) No match (V2 was not tested)
09 [f04abbb5] (000/1194) No match (V2 was not tested)
10 [ae4beee9] (000/1193) No match (V2 was not tested)
11 [5a217c51] (000/1188) No match (V2 was not tested)
12 [251e36d4] (000/1173) No match (V2 was not tested)
13 [3333eb8f] (000/1148) No match (V2 was not tested)
Offsetted by -736:
01 [a18ecb04] (000/1197) No match (V2 was not tested)
02 [92f9041b] (000/1198) No match (V2 was not tested)
03 [0e080c48] (000/1202) No match (V2 was not tested)
04 [0726be37] (000/1205) No match (V2 was not tested)
05 [16c24ddb] (000/1196) No match (V2 was not tested)
06 [a4c1aa54] (000/1203) No match (V2 was not tested)
07 [67588c8d] (000/1193) No match (V2 was not tested)
08 [2c532aea] (000/1193) No match (V2 was not tested)
09 [81eaddaa] (000/1194) No match (V2 was not tested)
10 [5cb1265c] (000/1193) No match (V2 was not tested)
11 [9322a0fd] (000/1188) No match (V2 was not tested)
12 [7646887c] (000/1173) No match (V2 was not tested)
13 [ace665a7] (000/1148) No match (V2 was not tested)
Offsetted by -700:
01 [c0c3cab4] (000/1197) No match (V2 was not tested)
02 [c205620d] (000/1198) No match (V2 was not tested)
03 [f3465067] (000/1202) No match (V2 was not tested)
04 [7f47fda9] (000/1205) No match (V2 was not tested)
05 [a07b5c2b] (000/1196) No match (V2 was not tested)
06 [06833564] (000/1203) No match (V2 was not tested)
07 [60d444bb] (000/1193) No match (V2 was not tested)
08 [f7a9e1a0] (000/1193) No match (V2 was not tested)
09 [5a9d854d] (000/1194) No match (V2 was not tested)
10 [336606de] (000/1193) No match (V2 was not tested)
11 [a1907690] (000/1188) No match (V2 was not tested)
12 [87b7faed] (000/1173) No match (V2 was not tested)
13 [195c50a7] (000/1148) No match (V2 was not tested)
Offsetted by -682:
01 [cbb2332f] (000/1197) No match
02 [cece7811] (000/1198) No match
03 [5d8c42ab] (000/1202) No match (V2 was not tested)
04 [09ac6665] (000/1205) No match (V2 was not tested)
05 [9aaaf7a1] (000/1196) No match
06 [89808db3] (000/1203) No match
07 [9d6d2d63] (000/1193) No match
08 [8d2c8960] (000/1193) No match
09 [40896bf7] (000/1194) No match
10 [9f1d770e] (000/1193) No match
11 [076cc026] (000/1188) No match
12 [bcc6c1df] (000/1173) No match
13 [15a22813] (000/1148) No match
Offsetted by -676:
01 [5d20d1bc] (000/1197) No match
02 [bf675f5b] (000/1198) No match
03 [f52ab79d] (000/1202) No match (V2 was not tested)
04 [18c41b23] (000/1205) No match (V2 was not tested)
05 [d84bfd5e] (000/1196) No match (V2 was not tested)
06 [178c6d49] (000/1203) No match (V2 was not tested)
07 [dd999e21] (000/1193) No match
08 [48f8fdf3] (000/1193) No match (V2 was not tested)
09 [ab309937] (000/1194) No match
10 [4d0db62d] (000/1193) No match (V2 was not tested)
11 [835f1c91] (000/1188) No match
12 [896dee02] (000/1173) No match (V2 was not tested)
13 [59ba4085] (000/1148) No match
Offsetted by -671:
01 [1f59867a] (000/1197) No match
02 [697c494b] (002/1198) Accurately ripped
03 [8b35ef82] (002/1202) Accurately ripped
04 [292f0ab7] (002/1205) Accurately ripped
05 [7ae511d2] (002/1196) Accurately ripped
06 [fb961086] (002/1203) Accurately ripped
07 [61032f82] (002/1193) Accurately ripped
08 [7f69af77] (002/1193) Accurately ripped
09 [c660365a] (002/1194) Accurately ripped
10 [9af5f4e6] (002/1193) Accurately ripped
11 [201277f0] (002/1188) Accurately ripped
12 [c2741cf0] (002/1173) Accurately ripped
13 [17af9426] (002/1148) Accurately ripped
Offsetted by -670:
01 [3c89d8e1] (002/1197) Accurately ripped
02 [d51a5c54] (002/1198) Accurately ripped
03 [4fd6a243] (002/1202) Accurately ripped
04 [73d5df43] (002/1205) Accurately ripped
05 [9b687f20] (002/1196) Accurately ripped
06 [e2dc936c] (002/1203) Accurately ripped
07 [9db862fe] (002/1193) Accurately ripped
08 [38c48b91] (002/1193) Accurately ripped
09 [ed9300f2] (000/1194) No match (V2 was not tested)
10 [5466cf52] (002/1193) Accurately ripped
11 [39a53ec2] (002/1188) Accurately ripped
12 [a02f035e] (002/1173) Accurately ripped
13 [d6e33ffe] (000/1148) No match (V2 was not tested)
Offsetted by -669:
01 [5922de8f] (000/1197) No match (V2 was not tested)
02 [9119479b] (000/1198) No match (V2 was not tested)
03 [87ef7d05] (000/1202) No match (V2 was not tested)
04 [ea125ae3] (000/1205) No match (V2 was not tested)
05 [f8a9093b] (000/1196) No match (V2 was not tested)
06 [bd83f366] (000/1203) No match (V2 was not tested)
07 [38445180] (000/1193) No match (V2 was not tested)
08 [5509707e] (000/1193) No match (V2 was not tested)
09 [7bce0bf5] (000/1194) No match (V2 was not tested)
10 [2db29a27] (000/1193) No match (V2 was not tested)
11 [afde38f7] (000/1188) No match (V2 was not tested)
12 [462e53c4] (000/1173) No match (V2 was not tested)
13 [95abee27] (000/1148) No match (V2 was not tested)
More than 16 offsets match!

Track Peak [ CRC32 ] [W/O NULL] [ LOG ]
– 100,0 [9C8B4612] [DB086675] CRC32
01 78,3 [93B49A27] [E656CF80]
02 83,4 [5B88D5F7] [2DB1A718]
03 100,0 [EEE99BA9] [F27A4F4E]
04 100,0 [9FE7B4DC] [DA435E3C]
05 100,0 [43249FB3] [AB5A4D80]
06 100,0 [931D2E7D] [38659F60]
07 36,6 [0716ABC4] [1754FF5A]
08 99,6 [FB97258A] [3F39DB6A]
09 77,3 [93722519] [46B05D3B]
10 76,7 [6C69ED9C] [FB844528]
11 76,7 [9451F8AE] [DA11B690]
12 87,0 [DA69C130] [B70BCA2C]
13 99,2 [FF4F1F0D] [1711BA42]

Pink Floyd - Echoes: The Best Of Pink Floyd (2001) {2006, Japanese Reissue, Remastered}

Track List CD2:

01. Shine On You Crazy Diamond, Parts 1-7 [17:32]
02. Time [6:48]
03. The Fletcher Memorial Home [4:07]
04. Comfortably Numb [6:54]
05. When the Tigers Broke Free [3:43]
06. One of These Days [5:15]
07. Us and Them [7:51]
08. Learning to Fly [4:51]
09. Arnold Layne [2:53]
10. Wish You Were Here [5:21]
11. Jugband Blues [2:56]
12. High Hopes [7:00]
13. Bike [3:25]

Exact Audio Copy V1.3 from 2. September 2016

Отчёт EAC об извлечении, выполненном 5. ноября 2017, 22:17

Pink Floyd / Echoes: The Best of Pink Floyd

Дисковод: HL-DT-STDVDRAM GSA-4167B Adapter: 1 ID: 0

Режим чтения : Достоверность
Использование точного потока : Да
Отключение кэша аудио : Да
Использование указателей C2 : Нет

Коррекция смещения при чтении : 667
Способность читать области Lead-in и Lead-out : Нет
Заполнение пропущенных сэмплов тишиной : Да
Удаление блоков с тишиной в начале и конце : Нет
При вычислениях CRC использовались нулевые сэмплы : Да
Интерфейс : Встроенный Win32-интерфейс для Win NT/2000

Выходной формат : Внутренние WAV-операции
Формат сэмплов : 44.100 Гц; 16 бит; стерео


TOC извлечённого CD

Трек | Старт | Длительность | Начальный сектор | Конечный сектор
––––––––––––––––––––––––––––––––––-
1 | 0:00.00 | 17:32.34 | 0 | 78933
2 | 17:32.34 | 6:48.22 | 78934 | 109555
3 | 24:20.56 | 4:07.07 | 109556 | 128087
4 | 28:27.63 | 6:53.48 | 128088 | 159110
5 | 35:21.36 | 3:42.66 | 159111 | 175826
6 | 39:04.27 | 5:14.71 | 175827 | 199447
7 | 44:19.23 | 7:51.04 | 199448 | 234776
8 | 52:10.27 | 4:50.70 | 234777 | 256596
9 | 57:01.22 | 2:52.68 | 256597 | 269564
10 | 59:54.15 | 5:21.06 | 269565 | 293645
11 | 65:15.21 | 2:56.33 | 293646 | 306878
12 | 68:11.54 | 6:59.68 | 306879 | 338371
13 | 75:11.47 | 3:24.41 | 338372 | 353712


Характеристики диапазона извлечения и сообщения об ошибках

Выбранный диапазон

Имя файла C:\Users\khokh\Desktop\Pink Floyd - Echoes- The Best of Pink Floyd.wav

Пиковый уровень 100.0 %
Скорость извлечения 4.6 X
Качество диапазона 99.9 %
CRC теста EAD8335D
CRC копии EAD8335D
Копирование… OK

Ошибок не произошло


AccurateRip: сводка

Трек 1 : извлечено точно (доверие 200) [DFDBD436] (AR v2)
Трек 2 : извлечено точно (доверие 200) [4D037E41] (AR v2)
Трек 3 : извлечено точно (доверие 200) [25E59423] (AR v2)
Трек 4 : извлечено точно (доверие 200) [9DCB7093] (AR v2)
Трек 5 : извлечено точно (доверие 200) [75B7387A] (AR v2)
Трек 6 : извлечено точно (доверие 200) [2A1028A5] (AR v2)
Трек 7 : извлечено точно (доверие 200) [8B39031D] (AR v2)
Трек 8 : извлечено точно (доверие 200) [79922FB8] (AR v2)
Трек 9 : извлечено точно (доверие 200) [F783B742] (AR v2)
Трек 10 : извлечено точно (доверие 200) [70655172] (AR v2)
Трек 11 : извлечено точно (доверие 200) [C504D2F9] (AR v2)
Трек 12 : извлечено точно (доверие 200) [010AD431] (AR v2)
Трек 13 : извлечено точно (доверие 200) [C54BA5FD] (AR v2)

Все треки извлечены точно

Конец отчёта

–– CUETools DB Plugin V2.1.6

[CTDB TOCID: fpkDSH9FLGWRLUY6IjwMr2Q2kqs-] found
Submit result: already submitted
Track | CTDB Status
1 | (2770/2901) Accurately ripped
2 | (2848/2901) Accurately ripped
3 | (2866/2901) Accurately ripped
4 | (2849/2901) Accurately ripped
5 | (2862/2901) Accurately ripped
6 | (2858/2901) Accurately ripped
7 | (2847/2901) Accurately ripped, or (3/2901) differs in 216 samples @01:17:66-01:17:67,01:20:06,01:22:22,01:32:07,01:38:72,01:43:11,01:44:27,01:49:02,01:50:74-01:51:00,01:51:18,01:56:30,01:56:67,01:59:64,02:05:19-02:05:20
8 | (2528/2901) Accurately ripped
9 | (2851/2901) Accurately ripped
10 | (2843/2901) Accurately ripped
11 | (2848/2901) Accurately ripped
12 | (2802/2901) Accurately ripped, or (3/2901) differs in 6 samples @00:46:60-00:46:61
13 | (2469/2901) Accurately ripped


==== Контрольная сумма отчёта EF5C5CED05FE773085AC30A33193EA653D8847FA81149F9C79746B1BFBFFC3DE ====

foobar2000 1.3.16 / Dynamic Range Meter 1.1.1
log date: 2017-11-06 13:04:49

––––––––––––––––––––––––––––––––––––––––
Analyzed: Pink Floyd / Echoes: The Best of Pink Floyd
––––––––––––––––––––––––––––––––––––––––

DR Peak RMS Duration Track
––––––––––––––––––––––––––––––––––––––––
DR10 -0.01 dB -13.24 dB 17:32 01-Shine On You Crazy Diamond, Parts 1-7
DR10 -0.03 dB -12.05 dB 6:48 02-Time
DR7 0.00 dB -11.69 dB 4:07 03-The Fletcher Memorial Home
DR8 0.00 dB -10.71 dB 6:54 04-Comfortably Numb
DR10 0.00 dB -12.94 dB 3:43 05-When the Tigers Broke Free
DR10 -0.02 dB -12.67 dB 5:15 06-One of These Days
DR9 -0.37 dB -13.74 dB 7:51 07-Us and Them
DR9 0.00 dB -11.55 dB 4:51 08-Learning to Fly
DR9 -1.98 dB -12.59 dB 2:53 09-Arnold Layne
DR10 -0.04 dB -15.19 dB 5:21 10-Wish You Were Here
DR9 -4.24 dB -17.22 dB 2:56 11-Jugband Blues
DR11 -0.60 dB -15.01 dB 7:00 12-High Hopes
DR10 -3.15 dB -16.59 dB 3:25 13-Bike
––––––––––––––––––––––––––––––––––––––––

Number of tracks: 13
Official DR value: DR9

Samplerate: 44100 Hz
Channels: 2
Bits per sample: 16
Bitrate: 818 kbps
Codec: FLAC
================================================================================

[CUETools log; Date: 06.11.2017 13:05:19; Version: 2.1.5]
[CTDB TOCID: fpkDSH9FLGWRLUY6IjwMr2Q2kqs-] found.
Track | CTDB Status
1 | (2770/2901) Accurately ripped
2 | (2848/2901) Accurately ripped
3 | (2866/2901) Accurately ripped
4 | (2849/2901) Accurately ripped
5 | (2862/2901) Accurately ripped
6 | (2858/2901) Accurately ripped
7 | (2847/2901) Accurately ripped, or (3/2901) differs in 216 samples @01:17:66-01:17:67,01:20:06,01:22:22,01:32:07,01:38:72,01:43:11,01:44:27,01:49:02,01:50:74-01:51:00,01:51:18,01:56:30,01:56:67,01:59:64,02:05:19-02:05:20
8 | (2528/2901) Accurately ripped
9 | (2851/2901) Accurately ripped
10 | (2843/2901) Accurately ripped
11 | (2848/2901) Accurately ripped
12 | (2802/2901) Accurately ripped, or (3/2901) differs in 6 samples @00:46:60-00:46:61
13 | (2469/2901) Accurately ripped
[AccurateRip ID: 002c51c1-01a1f8fd-ad126c0d] found.
Track [ CRC | V2 ] Status
01 [1a4eeea2|dfdbd436] (200+200/1796) Accurately ripped
02 [2c1111be|4d037e41] (200+200/1811) Accurately ripped
03 [0836102d|25e59423] (200+200/1809) Accurately ripped
04 [2ac0122f|9dcb7093] (200+200/1808) Accurately ripped
05 [b377e077|75b7387a] (200+200/1807) Accurately ripped
06 [6c658bc4|2a1028a5] (200+200/1808) Accurately ripped
07 [b0e2bde5|8b39031d] (200+200/1798) Accurately ripped
08 [5af1dcc8|79922fb8] (200+200/2026) Accurately ripped
09 [1c61586a|f783b742] (200+200/1807) Accurately ripped
10 [282db74e|70655172] (200+200/1799) Accurately ripped
11 [d7b0a06d|c504d2f9] (200+200/1803) Accurately ripped
12 [ed117e5f|010ad431] (200+200/1792) Accurately ripped
13 [da391f81|c54ba5fd] (200+200/1969) Accurately ripped
Offsetted by -1736:
01 [ca4935d5] (003/1796) Accurately ripped
02 [46255a94] (003/1811) Accurately ripped
03 [35a69289] (003/1809) Accurately ripped
04 [6c3d1f9c] (003/1808) Accurately ripped
05 [a4ad7321] (003/1807) Accurately ripped
06 [91470d09] (003/1808) Accurately ripped
07 [a2faa30a] (003/1798) Accurately ripped
08 [279fa894] (003/2026) Accurately ripped
09 [0243f527] (003/1807) Accurately ripped
10 [4025a299] (003/1799) Accurately ripped
11 [7e880359] (003/1803) Accurately ripped
12 [0f2cf05e] (003/1792) Accurately ripped
13 [e4e3e878] (003/1969) Accurately ripped
Offsetted by -676:
01 [cf729ff4] (050/1796) Accurately ripped
02 [999d4517] (050/1811) Accurately ripped
03 [817c691e] (050/1809) Accurately ripped
04 [858e4b52] (050/1808) Accurately ripped
05 [c4f27022] (050/1807) Accurately ripped
06 [54d43750] (050/1808) Accurately ripped
07 [e2823a5a] (050/1798) Accurately ripped
08 [0a71c5e4] (048/2026) Accurately ripped
09 [85b3d545] (050/1807) Accurately ripped
10 [b3e8d56e] (050/1799) Accurately ripped
11 [127f62be] (049/1803) Accurately ripped
12 [fa054f16] (049/1792) Accurately ripped
13 [51fe9753] (046/1969) Accurately ripped
Offsetted by -667:
01 [0ea9bcb8] (004/1796) Accurately ripped
02 [0c42e236] (004/1811) Accurately ripped
03 [a31a333d] (004/1809) Accurately ripped
04 [28416bdf] (004/1808) Accurately ripped
05 [2a7ec500] (004/1807) Accurately ripped
06 [80a987cc] (004/1808) Accurately ripped
07 [ccac79ad] (004/1798) Accurately ripped
08 [cf114f04] (004/2026) Accurately ripped
09 [7657d53f] (004/1807) Accurately ripped
10 [0a2de98b] (004/1799) Accurately ripped
11 [f6538c8c] (004/1803) Accurately ripped
12 [269c559a] (004/1792) Accurately ripped
13 [bc9dfc21] (004/1969) Accurately ripped
Offsetted by -664:
01 [3c710d89] (010/1796) Accurately ripped
02 [3feccfb7] (010/1811) Accurately ripped
03 [6058059a] (010/1809) Accurately ripped
04 [c7375ffd] (010/1808) Accurately ripped
05 [85cd43d3] (010/1807) Accurately ripped
06 [a7145d2b] (010/1808) Accurately ripped
07 [19653d78] (010/1798) Accurately ripped
08 [68331ec2] (003/2026) Accurately ripped
09 [04312007] (010/1807) Accurately ripped
10 [bf4ee2fe] (008/1799) Accurately ripped
11 [d763af3b] (009/1803) Accurately ripped
12 [cf617497] (008/1792) Accurately ripped
13 [89f86fc3] (002/1969) Accurately ripped
Offsetted by -661:
01 [a06de76f] (006/1796) Accurately ripped
02 [b9d03c1c] (006/1811) Accurately ripped
03 [882fcac3] (006/1809) Accurately ripped
04 [4968748c] (006/1808) Accurately ripped
05 [b5cd79ac] (006/1807) Accurately ripped
06 [dabab66d] (006/1808) Accurately ripped
07 [d60d9944] (004/1798) Accurately ripped
08 [9870281e] (006/2026) Accurately ripped
09 [6136ce02] (006/1807) Accurately ripped
10 [4f06b4a1] (005/1799) Accurately ripped
11 [dbddae48] (005/1803) Accurately ripped
12 [e240e5ef] (004/1792) Accurately ripped
13 [5658e2fb] (006/1969) Accurately ripped
Offsetted by -313:
01 [45f749d0] (007/1796) Accurately ripped
02 [391d73d8] (007/1811) Accurately ripped
03 [39dd540f] (007/1809) Accurately ripped
04 [c04e0302] (007/1808) Accurately ripped
05 [53f0e77a] (007/1807) Accurately ripped
06 [059a2e23] (006/1808) Accurately ripped
07 [f0d15a8a] (007/1798) Accurately ripped
08 [44257606] (007/2026) Accurately ripped
09 [b21bc030] (007/1807) Accurately ripped
10 [6595e75e] (007/1799) Accurately ripped
11 [4bef9fd0] (007/1803) Accurately ripped
12 [f4b75bc6] (007/1792) Accurately ripped
13 [1d7eb478] (007/1969) Accurately ripped
Offsetted by -257:
01 [cb5edac3] (002/1796) Accurately ripped
02 [30afe452] (002/1811) Accurately ripped
03 [aa4260b3] (002/1809) Accurately ripped
04 [31c7f2dc] (002/1808) Accurately ripped
05 [c4033db6] (002/1807) Accurately ripped
06 [1ba205cb] (002/1808) Accurately ripped
07 [e2f69bac] (002/1798) Accurately ripped
08 [d7a6dec6] (002/2026) Accurately ripped
09 [d9bc1dd4] (002/1807) Accurately ripped
10 [7076eba6] (002/1799) Accurately ripped
11 [84d12d5d] (002/1803) Accurately ripped
12 [a2e8f7d9] (002/1792) Accurately ripped
13 [667d8a1b] (002/1969) Accurately ripped
Offsetted by -227:
01 [69abbfd3] (200/1796) Accurately ripped
02 [8cd11f92] (200/1811) Accurately ripped
03 [76033871] (200/1809) Accurately ripped
04 [006db698] (200/1808) Accurately ripped
05 [f5952a13] (200/1807) Accurately ripped
06 [859422cf] (200/1808) Accurately ripped
07 [4d01be73] (200/1798) Accurately ripped
08 [8833b03b] (200/2026) Accurately ripped
09 [a61f9eea] (200/1807) Accurately ripped
10 [a48b7127] (200/1799) Accurately ripped
11 [5f62203d] (200/1803) Accurately ripped
12 [9f4104c6] (200/1792) Accurately ripped
13 [05cbf6da] (200/1969) Accurately ripped
Offsetted by -120:
01 [3e88311c] (002/1796) Accurately ripped
02 [48d57885] (002/1811) Accurately ripped
03 [f9f44d48] (002/1809) Accurately ripped
04 [77515855] (002/1808) Accurately ripped
05 [f2bc3887] (002/1807) Accurately ripped
06 [2ed8db1c] (002/1808) Accurately ripped
07 [3865c69d] (002/1798) Accurately ripped
08 [a9df0ef5] (002/2026) Accurately ripped
09 [20767705] (002/1807) Accurately ripped
10 [7a600a08] (002/1799) Accurately ripped
11 [0bd19e1f] (002/1803) Accurately ripped
12 [ffacb7a8] (002/1792) Accurately ripped
13 [3ba2d71e] (002/1969) Accurately ripped
Offsetted by -77:
01 [02baf3c4] (002/1796) Accurately ripped
02 [d980294d] (002/1811) Accurately ripped
03 [4690b720] (002/1809) Accurately ripped
04 [69019b7e] (002/1808) Accurately ripped
05 [9ef33aa9] (002/1807) Accurately ripped
06 [16427604] (002/1808) Accurately ripped
07 [7554e216] (002/1798) Accurately ripped
08 [50740ddb] (002/2026) Accurately ripped
09 [b546ad4c] (002/1807) Accurately ripped
10 [2cbc87d9] (002/1799) Accurately ripped
11 [57c9147e] (002/1803) Accurately ripped
12 [c6884e53] (002/1792) Accurately ripped
13 [230dd9f7] (002/1969) Accurately ripped
Offsetted by -30:
01 [dc2950ce] (003/1796) Accurately ripped
02 [6f88f8d0] (003/1811) Accurately ripped
03 [ca26267c] (003/1809) Accurately ripped
04 [84708288] (003/1808) Accurately ripped
05 [423228d3] (003/1807) Accurately ripped
06 [58bb8d47] (003/1808) Accurately ripped
07 [e13ab4dd] (003/1798) Accurately ripped
08 [0aa8fcdd] (002/2026) Accurately ripped
09 [b3f4a389] (003/1807) Accurately ripped
10 [79e9786f] (003/1799) Accurately ripped
11 [978eaeae] (003/1803) Accurately ripped
12 [44d1e80b] (003/1792) Accurately ripped
13 [9c3ffd8c] (002/1969) Accurately ripped
Offsetted by -15:
01 [d3c8aa10] (004/1796) Accurately ripped
02 [0bff2230] (004/1811) Accurately ripped
03 [fcd87d37] (004/1809) Accurately ripped
04 [587632a3] (004/1808) Accurately ripped
05 [e96f4d1e] (004/1807) Accurately ripped
06 [fc792a50] (004/1808) Accurately ripped
07 [eb4cf8d4] (004/1798) Accurately ripped
08 [fd1ee4c3] (004/2026) Accurately ripped
09 [c4772415] (004/1807) Accurately ripped
10 [4cac5cf9] (004/1799) Accurately ripped
11 [9210b072] (004/1803) Accurately ripped
12 [57cb5877] (004/1792) Accurately ripped
13 [444f9b2e] (004/1969) Accurately ripped
Offsetted by 3:
01 [8477f249] (200/1796) Accurately ripped
02 [0a73d841] (200/1811) Accurately ripped
03 [4151439f] (200/1809) Accurately ripped
04 [021b9763] (200/1808) Accurately ripped
05 [0b1f7a6b] (200/1807) Accurately ripped
06 [363007bc] (200/1808) Accurately ripped
07 [b246583f] (200/1798) Accurately ripped
08 [6c4e3ce8] (200/2026) Accurately ripped
09 [78d63202] (200/1807) Accurately ripped
10 [ffb0516e] (200/1799) Accurately ripped
11 [f451d911] (200/1803) Accurately ripped
12 [58a95dbc] (200/1792) Accurately ripped
13 [c2d4d0e3] (200/1969) Accurately ripped
Offsetted by 596:
01 [e4770501] (127/1796) Accurately ripped
02 [4d49c8e6] (128/1811) Accurately ripped
03 [d866f7e7] (127/1809) Accurately ripped
04 [f73e34af] (127/1808) Accurately ripped
05 [130e9545] (129/1807) Accurately ripped
06 [956254a1] (127/1808) Accurately ripped
07 [c8026208] (127/1798) Accurately ripped
08 [6d28cb0b] (126/2026) Accurately ripped
09 [179cecaf] (127/1807) Accurately ripped
10 [4942b80d] (123/1799) Accurately ripped
11 [813ca5f8] (126/1803) Accurately ripped
12 [8f643de4] (126/1792) Accurately ripped
13 [f3339a63] (119/1969) Accurately ripped
Offsetted by -2128:
01 [692ad175] (004/1796) Accurately ripped
02 [ed57fd8d] (004/1811) Accurately ripped
03 [da1667ea] (004/1809) Accurately ripped
04 [0ea8087d] (004/1808) Accurately ripped
05 [7e48e447] (004/1807) Accurately ripped
06 [35001f18] (004/1808) Accurately ripped
07 [2b5a1ad1] (004/1798) Accurately ripped
08 [80142f15] (004/2026) Accurately ripped
09 [088409d7] (003/1807) Accurately ripped
10 [5991c70e] (003/1799) Accurately ripped
11 [8c4f513d] (003/1803) Accurately ripped
12 [4719cb07] (003/1792) Accurately ripped
13 [79af76aa] (000/1969) No match
Offsetted by -1550:
01 [31d93496] (000/1796) No match
02 [10d70b66] (000/1811) No match
03 [17170e0a] (000/1809) No match
04 [a64d0b75] (000/1808) No match
05 [5d7a477b] (000/1807) No match
06 [fc628087] (000/1808) No match
07 [e90cf142] (000/1798) No match
08 [9d3d081b] (000/2026) No match
09 [6852cc89] (000/1807) No match
10 [8a0327fc] (000/1799) No match
11 [fe90be87] (000/1803) No match
12 [433b1803] (000/1792) No match
13 [cbc89842] (000/1969) No match (V2 was not tested)
Offsetted by -1303:
01 [032f7bde] (000/1796) No match (V2 was not tested)
02 [af5737e3] (000/1811) No match
03 [c22baa8b] (000/1809) No match
04 [188a79ed] (000/1808) No match
05 [5f8891ff] (000/1807) No match
06 [dd98db7b] (000/1808) No match
07 [d7d49f03] (000/1798) No match
08 [427e9fca] (000/2026) No match
09 [84bea834] (000/1807) No match
10 [5b9f6603] (000/1799) No match
11 [29eb9df7] (000/1803) No match
12 [1a8de40f] (000/1792) No match
13 [5954d1ff] (000/1969) No match
Offsetted by -1301:
01 [ca456ee7] (000/1796) No match
02 [9e612433] (000/1811) No match (V2 was not tested)
03 [cb35221f] (000/1809) No match
04 [37bc2e3a] (000/1808) No match
05 [36ab1e0f] (000/1807) No match
06 [43b4e2c7] (000/1808) No match
07 [55972567] (000/1798) No match
08 [be426bc2] (000/2026) No match
09 [0ef2203c] (000/1807) No match
10 [ea6da602] (000/1799) No match
11 [57231986] (000/1803) No match
12 [d2dfba85] (000/1792) No match
13 [fd521da7] (000/1969) No match
Offsetted by -1291:
01 [23c1f378] (000/1796) No match
02 [c5839438] (000/1811) No match
03 [e4a7e993] (000/1809) No match (V2 was not tested)
04 [88da52e7] (000/1808) No match
05 [141b5bdf] (000/1807) No match
06 [73e40a03] (000/1808) No match
07 [cc133b41] (000/1798) No match
08 [6fb21cff] (000/2026) No match
09 [97dd1a9c] (000/1807) No match
10 [5baaa003] (000/1799) No match
11 [e1776eaa] (000/1803) No match
12 [57eb8339] (000/1792) No match
13 [31d69762] (000/1969) No match
Offsetted by -1284:
01 [eef50d47] (000/1796) No match
02 [609a6617] (000/1811) No match
03 [a2e066fc] (000/1809) No match
04 [186c1b29] (000/1808) No match (V2 was not tested)
05 [7591a67a] (000/1807) No match
06 [add8beec] (000/1808) No match
07 [23ad098f] (000/1798) No match
08 [23035dd4] (000/2026) No match
09 [0a895d22] (000/1807) No match
10 [a24fbf0f] (000/1799) No match
11 [b1d9b504] (000/1803) No match
12 [324f70d2] (000/1792) No match
13 [6fa99f72] (000/1969) No match
Offsetted by -1188:
01 [c6366d51] (000/1796) No match (V2 was not tested)
02 [b74ddcb3] (000/1811) No match (V2 was not tested)
03 [5732d0f6] (000/1809) No match (V2 was not tested)
04 [6004cbf6] (000/1808) No match (V2 was not tested)
05 [63ae3f56] (000/1807) No match (V2 was not tested)
06 [dbaaf760] (000/1808) No match (V2 was not tested)
07 [05f3a3b3] (000/1798) No match (V2 was not tested)
08 [6cbfe632] (000/2026) No match (V2 was not tested)
09 [f6fabd0d] (000/1807) No match (V2 was not tested)
10 [bd9e5857] (000/1799) No match (V2 was not tested)
11 [61934c67] (000/1803) No match (V2 was not tested)
12 [3e25dd2e] (000/1792) No match (V2 was not tested)
13 [129839cd] (000/1969) No match (V2 was not tested)
Offsetted by -978:
01 [447f887c] (000/1796) No match
02 [af9198aa] (000/1811) No match
03 [92028d7b] (000/1809) No match
04 [f98b348c] (000/1808) No match
05 [fc27a6a5] (000/1807) No match (V2 was not tested)
06 [527933ab] (000/1808) No match (V2 was not tested)
07 [4449997d] (000/1798) No match (V2 was not tested)
08 [19a19910] (000/2026) No match (V2 was not tested)
09 [e35caabc] (000/1807) No match (V2 was not tested)
10 [7fdabedb] (000/1799) No match (V2 was not tested)
11 [47407313] (000/1803) No match (V2 was not tested)
12 [0bf27b43] (000/1792) No match (V2 was not tested)
13 [ab165848] (000/1969) No match
Offsetted by -939:
01 [e6fd05c9] (000/1796) No match (V2 was not tested)
02 [db77ef21] (000/1811) No match (V2 was not tested)
03 [3d41c8aa] (000/1809) No match (V2 was not tested)
04 [0a2e0cfd] (000/1808) No match (V2 was not tested)
05 [6d7f1049] (000/1807) No match (V2 was not tested)
06 [15f52b5c] (000/1808) No match (V2 was not tested)
07 [de054cfc] (000/1798) No match (V2 was not tested)
08 [86d6b897] (000/2026) No match (V2 was not tested)
09 [72ab7e06] (000/1807) No match (V2 was not tested)
10 [de7383a3] (000/1799) No match (V2 was not tested)
11 [c03e8b54] (000/1803) No match (V2 was not tested)
12 [f70938fe] (000/1792) No match (V2 was not tested)
13 [488e5e4c] (000/1969) No match
Offsetted by -930:
01 [dc855d32] (000/1796) No match (V2 was not tested)
02 [62b73d77] (000/1811) No match (V2 was not tested)
03 [73debac6] (000/1809) No match (V2 was not tested)
04 [7bb34fd2] (000/1808) No match (V2 was not tested)
05 [25774b6e] (000/1807) No match (V2 was not tested)
06 [3ffec1be] (000/1808) No match (V2 was not tested)
07 [6e069f3b] (000/1798) No match (V2 was not tested)
08 [0df7f8ca] (000/2026) No match (V2 was not tested)
09 [75a74ddd] (000/1807) No match (V2 was not tested)
10 [b7bfb7cd] (000/1799) No match (V2 was not tested)
11 [70f620ef] (000/1803) No match (V2 was not tested)
12 [cf464ac7] (000/1792) No match (V2 was not tested)
13 [eed3c2e9] (000/1969) No match (V2 was not tested)
Offsetted by -906:
01 [e01d65b6] (000/1796) No match (V2 was not tested)
02 [57c59712] (000/1811) No match (V2 was not tested)
03 [c6377619] (000/1809) No match
04 [2dad9884] (000/1808) No match (V2 was not tested)
05 [1e6cb7bd] (000/1807) No match
06 [0c31822b] (000/1808) No match
07 [2f4e39b1] (000/1798) No match (V2 was not tested)
08 [7285367c] (000/2026) No match
09 [86edc3f1] (000/1807) No match
10 [5a3fe558] (000/1799) No match (V2 was not tested)
11 [c25aa44b] (000/1803) No match
12 [2be566b7] (000/1792) No match
13 [e14988b6] (000/1969) No match
Offsetted by -806:
01 [9d402e25] (000/1796) No match (V2 was not tested)
02 [9d6e1fdb] (000/1811) No match (V2 was not tested)
03 [45efa3c9] (000/1809) No match (V2 was not tested)
04 [238fb0ea] (000/1808) No match (V2 was not tested)
05 [9ec4868d] (000/1807) No match (V2 was not tested)
06 [9d732957] (000/1808) No match (V2 was not tested)
07 [44b1be0f] (000/1798) No match (V2 was not tested)
08 [4dc6c003] (000/2026) No match (V2 was not tested)
09 [30692d8c] (000/1807) No match (V2 was not tested)
10 [2c9b52cc] (000/1799) No match (V2 was not tested)
11 [5a03102d] (000/1803) No match (V2 was not tested)
12 [6b64a36a] (000/1792) No match (V2 was not tested)
13 [9991e46b] (000/1969) No match
Offsetted by -739:
01 [f849501d] (000/1796) No match (V2 was not tested)
02 [877350be] (000/1811) No match (V2 was not tested)
03 [a7610f2f] (000/1809) No match (V2 was not tested)
04 [895bbe2c] (000/1808) No match (V2 was not tested)
05 [d0943ee5] (000/1807) No match (V2 was not tested)
06 [3083ec6f] (000/1808) No match (V2 was not tested)
07 [c18b8804] (000/1798) No match (V2 was not tested)
08 [3cb1b8f8] (000/2026) No match (V2 was not tested)
09 [24700a91] (000/1807) No match (V2 was not tested)
10 [40f438b7] (000/1799) No match (V2 was not tested)
11 [49e61fbc] (000/1803) No match (V2 was not tested)
12 [24e81c54] (000/1792) No match (V2 was not tested)
13 [5b3956be] (000/1969) No match
Offsetted by -721:
01 [de281e2c] (000/1796) No match (V2 was not tested)
02 [6e6c93db] (000/1811) No match (V2 was not tested)
03 [a9399522] (000/1809) No match (V2 was not tested)
04 [598e37cf] (000/1808) No match (V2 was not tested)
05 [eed56270] (000/1807) No match (V2 was not tested)
06 [b5168440] (000/1808) No match (V2 was not tested)
07 [cae34f0b] (000/1798) No match (V2 was not tested)
08 [859d3a64] (000/2026) No match (V2 was not tested)
09 [658d64dc] (000/1807) No match (V2 was not tested)
10 [57670777] (000/1799) No match (V2 was not tested)
11 [d82f93fe] (000/1803) No match (V2 was not tested)
12 [09eb0d7b] (000/1792) No match (V2 was not tested)
13 [430956ff] (000/1969) No match (V2 was not tested)
Offsetted by -697:
01 [8d710f41] (000/1796) No match (V2 was not tested)
02 [2420d3ee] (000/1811) No match (V2 was not tested)
03 [3290eaf9] (000/1809) No match (V2 was not tested)
04 [12c02528] (000/1808) No match (V2 was not tested)
05 [6fc7a6b4] (000/1807) No match (V2 was not tested)
06 [ef423bd7] (000/1808) No match (V2 was not tested)
07 [f514484f] (000/1798) No match (V2 was not tested)
08 [16a0efd9] (000/2026) No match (V2 was not tested)
09 [6ada9b49] (000/1807) No match (V2 was not tested)
10 [1ea0c24d] (000/1799) No match (V2 was not tested)
11 [77a7bed4] (000/1803) No match (V2 was not tested)
12 [e63dccdb] (000/1792) No match (V2 was not tested)
13 [ba623d86] (000/1969) No match (V2 was not tested)
Offsetted by -673:
01 [e63519b4] (003/1796) Accurately ripped
02 [5b82e595] (003/1811) Accurately ripped
03 [6cbb7707] (002/1809) Accurately ripped
04 [2defaf3e] (003/1808) Accurately ripped
05 [6b04fa07] (003/1807) Accurately ripped
06 [529ed19d] (003/1808) Accurately ripped
07 [1e184246] (003/1798) Accurately ripped
08 [08779a1a] (002/2026) Accurately ripped
09 [dc1cb013] (000/1807) No match (V2 was not tested)
10 [8e299cb0] (002/1799) Accurately ripped
11 [7793f60d] (003/1803) Accurately ripped
12 [747cccd5] (002/1792) Accurately ripped
13 [203c1057] (002/1969) Accurately ripped
Offsetted by -663:
01 [eff02ddd] (000/1796) No match (V2 was not tested)
02 [136a0981] (000/1811) No match (V2 was not tested)
03 [feef9f26] (000/1809) No match (V2 was not tested)
04 [c61d4ee7] (000/1808) No match (V2 was not tested)
05 [6bbea713] (000/1807) No match (V2 was not tested)
06 [d2199648] (000/1808) No match (V2 was not tested)
07 [17f62bec] (000/1798) No match (V2 was not tested)
08 [f2539ead] (000/2026) No match (V2 was not tested)
09 [b573407c] (000/1807) No match (V2 was not tested)
10 [17423c3d] (000/1799) No match (V2 was not tested)
11 [00d47039] (000/1803) No match (V2 was not tested)
12 [6827544a] (000/1792) No match (V2 was not tested)
13 [ce34962d] (000/1969) No match (V2 was not tested)
More than 16 offsets match!

Track Peak [ CRC32 ] [W/O NULL] [ LOG ]
– 100,0 [EAD8335D] [97D62ECC] CRC32
01 99,8 [43413EBA] [90CB505C]
02 99,6 [269466D6] [C3D0494D]
03 100,0 [8F4E7B71] [5F000A46]
04 100,0 [276DC586] [57AF577A]
05 100,0 [F66EF889] [2DE09855]
06 99,7 [6DD07C31] [8C8C700E]
07 95,8 [DBBF062C] [E466EB69]
08 100,0 [76B36956] [711BAA1D]
09 79,6 [9153CC07] [C25F9D70]
10 99,5 [51615337] [2AF8F7F1]
11 61,3 [C916DCF0] [D0D237CF]
12 93,3 [35C77401] [A158A7A0]
13 69,6 [A08BBAF9] [550F8C94]

Pink Floyd - Echoes: The Best Of Pink Floyd (2001) {2006, Japanese Reissue, Remastered}


All thanks go to xoxol

>>> Pink Floyd in my Blog <<<

Download: