Tags
Language
Tags

Pink Floyd - Live At Fillmore West 1970 (1992) {Japanese Edition}

Posted By: popsakov
Pink Floyd - Live At Fillmore West 1970 (1992) {Japanese Edition}

Pink Floyd - Live At Fillmore West 1970 (1992) {Japanese Edition}
EAC Rip | FLAC (Img) + Cue + Log ~ 262 Mb | MP3 CBR320 ~ 153 Mb
Full Scans | 00:57:14 | RAR 5% Recovery
Progressive Rock, Psychedelic Rock | Black Panther Records #ABP-065 | Bootleg

~ Recorded live in San Francisco, Fillmore West, October, 1970. ~


***************

Track List:

01. Cymbaline [0:08:43.70]
02. Grantchester Meadows [0:07:32.17]
03. Green is the Color [0:03:33.48]
04. Carreful with that Axe [0:09:05.05]
05. Atom Heart Mother [0:16:48.12]
06. Set the Control for the Heart of the Sun [0:11:30.70]

Personnel:
Bass Guitar, Vocals - Roger Waters
Keyboards - Richard Wright
Lead Guitar, Vocals - David Gilmour
Percussion - Nick Mason

Exact Audio Copy V1.5 from 20. February 2020

EAC extraction logfile from 6. June 2021, 14:12

Pink Floyd / Live at Fillmore West 1970 [ABP-065]

Used drive : HL-DT-STBD-RE BH10LS38 Adapter: 1 ID: 0

Read mode : Secure
Utilize accurate stream : Yes
Defeat audio cache : Yes
Make use of C2 pointers : No

Read offset correction : 667
Overread into Lead-In and Lead-Out : No
Fill up missing offset samples with silence : Yes
Delete leading and trailing silent blocks : No
Null samples used in CRC calculations : Yes
Used interface : Native Win32 interface for Win NT & 2000

Used output format : User Defined Encoder
Selected bitrate : 128 kBit/s
Quality : High
Add ID3 tag : No
Command line compressor : C:\Program Files (x86)\Exact Audio Copy\Flac\flac.exe
Additional command line options : -V -8 -T "Date=%year%" -T "Genre=%genre%" %source%


TOC of the extracted CD

Track | Start | Length | Start sector | End sector
––––––––––––––––––––––––––––-
1 | 0:00.33 | 8:43.70 | 33 | 39327
2 | 8:44.28 | 7:32.17 | 39328 | 73244
3 | 16:16.45 | 3:33.48 | 73245 | 89267
4 | 19:50.18 | 9:05.05 | 89268 | 130147
5 | 28:55.23 | 16:48.12 | 130148 | 205759
6 | 45:43.35 | 11:30.70 | 205760 | 257579


Range status and errors

Selected range

Filename D:\Rips by Alder\Pink Floyd - Live at Fillmore West 1970 [ABP-065].wav

Peak level 97.7 %
Extraction speed 8.0 X
Range quality 100.0 %
Test CRC 98AC2DC7
Copy CRC 98AC2DC7
Copy OK

No errors occurred


AccurateRip summary

Track 1 accurately ripped (confidence 2) [C933FBE5] (AR v2)
Track 2 accurately ripped (confidence 2) [5AB900D0] (AR v2)
Track 3 accurately ripped (confidence 2) [ACA0AAC2] (AR v2)
Track 4 accurately ripped (confidence 2) [4D9677F2] (AR v2)
Track 5 accurately ripped (confidence 2) [2B96B745] (AR v2)
Track 6 accurately ripped (confidence 2) [7A9FAFC9] (AR v2)

All tracks accurately ripped

End of status report

–– CUETools DB Plugin V2.1.6

[CTDB TOCID: chVElcFoW9Sjq2R1ik9x956aPuM-] found
Submit result: chVElcFoW9Sjq2R1ik9x956aPuM- has been confirmed
Track | CTDB Status
1 | (5/5) Accurately ripped
2 | (5/5) Accurately ripped
3 | (5/5) Accurately ripped
4 | (5/5) Accurately ripped
5 | (5/5) Accurately ripped
6 | (5/5) Accurately ripped


==== Log checksum 3211B3292ECF5E5CF76F31A0F1989D5507ED529FF2CFAD588D12FE3B9A4124EB ====

[CUETools log; Date: 06.06.2021 18:39:37; Version: 2.1.6]
Pregap length 00:00:33.
[CTDB TOCID: chVElcFoW9Sjq2R1ik9x956aPuM-] found.
Track | CTDB Status
1 | (6/6) Accurately ripped
2 | (6/6) Accurately ripped
3 | (6/6) Accurately ripped
4 | (6/6) Accurately ripped
5 | (6/6) Accurately ripped
6 | (6/6) Accurately ripped
[AccurateRip ID: 000c22e2-00424830-580d6a06] found.
Track [ CRC | V2 ] Status
01 [0c86240f|c933fbe5] (0+2/2) Accurately ripped
02 [eea96299|5ab900d0] (0+2/2) Accurately ripped
03 [fbbb1e97|aca0aac2] (0+2/2) Accurately ripped
04 [2b971449|4d9677f2] (0+2/2) Accurately ripped
05 [9a7bd608|2b96b745] (0+2/2) Accurately ripped
06 [0462e1e6|7a9fafc9] (0+2/2) Accurately ripped

Track Peak [ CRC32 ] [W/O NULL] [ LOG ]
– 97,7 [98AC2DC7] [844A8F2E] CRC32
01 97,7 [B2E03BB4] [B971D028]
02 83,0 [166D5F14] [55BDAD5D]
03 70,3 [4501E191] [0F916ED6]
04 97,7 [06253061] [2DF8D63E]
05 97,7 [9010ECB4] [959C19E4]
06 97,7 [51F73EF5] [D78EEE5D]

Pink Floyd - Live At Fillmore West 1970 (1992) {Japanese Edition}


All thanks go to Alder

>>> Pink Floyd in my Blog <<<

DOWNLOAD: