Tags
Language
Tags

Pink Floyd - Live At Knebworth 1990 (2021) {Japanese Edition}

Posted By: popsakov
Pink Floyd - Live At Knebworth 1990 (2021) {Japanese Edition}

Pink Floyd - Live At Knebworth 1990 (2021) {Japanese Edition}
EAC Rip | FLAC (Img) + Cue + Log ~ 407 Mb | MP3 CBR320 ~ 166 Mb
Full Scans | 00:55:46 | RAR 5% Recovery
Progressive Rock, Psychedelic Rock | Sony Music Labels #SICP-6382

Pink Floyd Live At Knebworth 1990 for the first time on CD, double vinyl and digital platforms. This headline show was part of the star-studded 1990 Silver Clef Winners performance at Knebworth House, Hertfordshire that saw Pink Floyd topping the all-star bill that included Paul McCartney, Dire Straits, Genesis, Phil Collins, Mark Knopfler, Robert Plant (with Jimmy Page), Cliff Richard, Eric Clapton and Tears For Fears. Around 120,000 music fans saw these giants of rock appear on the hallowed stage of Knebworth, all in aid of the Nordoff Robbins charity, profits from which went towards setting up the BRIT School. The concert was broadcast globally on MTV.

This stunning live concert features many of the bands best known songs including Comfortably Numb, The Great Gig In The Sky, and Wish You Were Here. Alongside David Gilmour, Nick Mason and Richard Wright, the album also features original The Great Gig In The Sky vocalist Clare Torry, plus guest musicians including sax player Candy Dulfer and keyboard player and composer Michael Kamen.

David Gilmour and Andy Jackson have remixed the audio from this iconic concert featuring all seven tracks performed on the day, and the album features new artwork shot by Floyd collaborator Aubrey ‘Po’ Powell of Hipgnosis and designed by Peter Curzon of Storm Studios. The concert, previously unreleased until it appeared on 2019’s Later Years box set, is now available as a CD set for the first time as a stand-alone album.

***************

Track List:

01. Shine On You Crazy Diamond, Parts 1–5 [11:07]
02. The Great Gig in the Sky [5:05]
03. Wish You Were Here [4:48]
04. Sorrow [9:35]
05. Money [10:11]
06. Comfortably Numb [7:48]
07. Run Like Hell [7:15]

Exact Audio Copy V1.5 from 20. February 2020

EAC extraction logfile from 8. May 2021, 15:01

Pink Floyd / Live at Knebworth 1990 (SICP-6382)

Used drive : TSSTcorpDVDWBD SH-B123L Adapter: 1 ID: 1

Read mode : Secure
Utilize accurate stream : Yes
Defeat audio cache : Yes
Make use of C2 pointers : No

Read offset correction : 6
Overread into Lead-In and Lead-Out : No
Fill up missing offset samples with silence : Yes
Delete leading and trailing silent blocks : No
Null samples used in CRC calculations : Yes
Used interface : Native Win32 interface for Win NT & 2000

Used output format : User Defined Encoder
Selected bitrate : 896 kBit/s
Quality : High
Add ID3 tag : No
Command line compressor : C:\Program Files (x86)\Exact Audio Copy\FLAC\FLAC.EXE
Additional command line options : -6 -V -T "ARTIST=%artist%" -T "TITLE=%title%" -T "ALBUM=%albumtitle%" -T "DATE=%year%" -T "TRACKNUMBER=%tracknr%" -T "GENRE=%genre%" -T "COMMENT=%comment%" -T "BAND=%albuminterpret%" -T "ALBUMARTIST=%albuminterpret%" -T "COMPOSER=%composer%" %haslyrics%–tag-from-file=LYRICS="%lyricsfile%"%haslyrics% -T "DISCNUMBER=%cdnumber%" -T "TOTALDISCS=%totalcds%" -T "TOTALTRACKS=%numtracks%" %hascover%–picture="%coverfile%"%hascover% %source% -o %dest%


TOC of the extracted CD

Track | Start | Length | Start sector | End sector
––––––––––––––––––––––––––––-
1 | 0:00.00 | 11:06.03 | 0 | 49952
2 | 11:06.03 | 5:04.65 | 49953 | 72817
3 | 16:10.68 | 4:47.46 | 72818 | 94388
4 | 20:58.39 | 9:34.34 | 94389 | 137472
5 | 30:32.73 | 10:10.62 | 137473 | 183284
6 | 40:43.60 | 7:47.32 | 183285 | 218341
7 | 48:31.17 | 7:14.52 | 218342 | 250943


Range status and errors

Selected range

Filename E:\MUSIC\Pink Floyd - Live at Knebworth 1990 (SICP-6382).wav

Peak level 96.5 %
Extraction speed 5.8 X
Range quality 99.9 %
Test CRC 4D4FA293
Copy CRC 4D4FA293
Copy OK

No errors occurred


AccurateRip summary

Track 1 cannot be verified as accurate (confidence 48) [CB19096B], AccurateRip returned [507CC393] (AR v2)
Track 2 cannot be verified as accurate (confidence 51) [05700B45], AccurateRip returned [3E5B0959] (AR v2)
Track 3 cannot be verified as accurate (confidence 51) [E2910FCA], AccurateRip returned [B45E87B0] (AR v2)
Track 4 cannot be verified as accurate (confidence 51) [97474B61], AccurateRip returned [470AE884] (AR v2)
Track 5 cannot be verified as accurate (confidence 51) [873F9F0E], AccurateRip returned [2889BED0] (AR v2)
Track 6 cannot be verified as accurate (confidence 51) [968ECCF3], AccurateRip returned [E6947A94] (AR v2)
Track 7 cannot be verified as accurate (confidence 51) [352B45F8], AccurateRip returned [688D0C6D] (AR v2)

No tracks could be verified as accurate
You may have a different pressing from the one(s) in the database

End of status report

–– CUETools DB Plugin V2.1.6

[CTDB TOCID: RC1GVY5bFcE7rQBc.axNsLF4CBg-] found
Submit result: RC1GVY5bFcE7rQBc.axNsLF4CBg- has been confirmed
Track | CTDB Status
1 | ( 31/273) Accurately ripped
2 | ( 31/273) Accurately ripped
3 | ( 31/273) Accurately ripped
4 | ( 31/273) Accurately ripped
5 | ( 31/273) Accurately ripped
6 | ( 31/273) Accurately ripped
7 | ( 31/273) Accurately ripped


==== Log checksum 420EE22D00EB5808C4FD2EA71813CD457A300C3DC442A4C644E40BF1DABC8C4E ====

Pink Floyd - Live At Knebworth 1990 (2021) {Japanese Edition}


All thanks go to HaRD

>>> Pink Floyd in my Blog <<<

DOWNLOAD: