Subcategories

Pink Floyd: Remastered Collection (1967 - 2016) [Vinyl Rip 16/44 & mp3-320]

Posted By: v3122
Pink Floyd: Remastered Collection (1967 - 2016) [Vinyl Rip 16/44 & mp3-320]

Pink Floyd: Remastered Collection (1967 - 2016)
10 x Vinyl Rip 16/44 | Flac(Image + Cue) > 2948 Mb
MP3 CBR 320Kbps > 1234 Mb | Artwork(jpg) > 669 Mb
2016 | Sony Music, Pink Floyd Music, Decca | Remastered
Progressive / Psychedelic Rock

Pink Floyd were an English rock band formed in London in 1965. They achieved international acclaim with their progressive and psychedelic music. Distinguished by their use of philosophical lyrics, sonic experimentation, extended compositions, and elaborate live shows, they are one of the most commercially successful and influential groups in popular music history.

Pink Floyd were founded by students Syd Barrett on guitar and lead vocals, Nick Mason on drums, Roger Waters on bass and vocals, and Richard Wright on keyboards and vocals. They gained popularity performing in London's underground music scene during the late 1960s, and under Barrett's leadership released two charting singles and a successful debut album, The Piper at the Gates of Dawn (1967). Guitarist and vocalist David Gilmour joined in December 1967; Barrett left in April 1968 due to deteriorating mental health. Waters became the band's primary lyricist and conceptual leader, devising the concepts behind their albums The Dark Side of the Moon (1973), Wish You Were Here (1975), Animals (1977), The Wall (1979) and The Final Cut (1983). The Dark Side of the Moon and The Wall became two of the best-selling albums of all time.

Following creative tensions, Wright left Pink Floyd in 1979, followed by Waters in 1985. Gilmour and Mason continued as Pink Floyd; Wright rejoined them as a session musician and, later, a band member. The three produced two more albums—A Momentary Lapse of Reason (1987) and The Division Bell (1994)—and toured through 1994. After nearly two decades of enmity, Gilmour, Wright, and Mason reunited with Waters in 2005 to perform as Pink Floyd in London as part of the global awareness event Live 8; Gilmour and Waters later stated they had no plans to reunite as a band again. Barrett died in 2006, and Wright in 2008. The final Pink Floyd studio album, The Endless River (2014), was recorded without Waters and based almost entirely on unreleased material.

Pink Floyd were inducted into the American Rock and Roll Hall of Fame in 1996 and the UK Music Hall of Fame in 2005. By 2013, the band had sold more than 250 million records worldwide…

~ wiki
Pink Floyd: Remastered Collection (1967 - 2016):

Pink Floyd: Remastered Collection (1967 - 2016) [Vinyl Rip 16/44 & mp3-320]

Tracklist VNL01 - The Piper At The Gates Of Dawn 1967:
JP LP 2016 Sony Music Labels Inc., Tokyo • SIJP 11

01.A1. Astronomy Domine [4:09]
02.A2. Lucifer Sam [3:08]
03.A3. Matilda Mother [3:08]
04.A4. Flaming [2:47]
05.A5. Pow R. Toc H. [4:26]
06.A6. Take Up Thy Stethoscope And Walk [3:07]
07.B1. Interstellar Overdrive [9:42]
08.B2. The Gnome [2:11]
09.B3. Chapter 24 [3:42]
10.B4. The Scarecrow [2:12]
11.B5. Bike [3:24]

foobar2000 1.1.18 / Dynamic Range Meter 1.1.1
log date: 2017-11-07 20:55:51

––––––––––––––––––––––––––––––––––––––––
Analyzed: PINK FLOYD / «The Piper At The Gates Of Dawn» (Japan, SIJP 11)
––––––––––––––––––––––––––––––––––––––––

DR Peak RMS Duration Track
––––––––––––––––––––––––––––––––––––––––
DR9 -0.43 dB -12.21 dB 4:09 01-Astronomy Domine
DR10 -0.84 dB -12.95 dB 3:08 02-Lucifer Sam
DR9 -0.97 dB -13.19 dB 3:08 03-Matilda Mother
DR11 -0.96 dB -14.01 dB 2:47 04-Flaming
DR10 -0.29 dB -13.46 dB 4:26 05-Pow R. Toc H.
DR10 -1.00 dB -12.68 dB 3:07 06-Take Up Thy Stethoscope And Walk
DR11 -0.44 dB -13.59 dB 9:42 07-Interstellar Overdrive
DR10 -1.30 dB -13.97 dB 2:11 08-The Gnome
DR10 -0.95 dB -13.88 dB 3:42 09-Chapter 24
DR11 -1.30 dB -17.40 dB 2:12 10-The Scarecrow
DR10 -1.72 dB -15.15 dB 3:24 11-Bike
––––––––––––––––––––––––––––––––––––––––

Number of tracks: 11
Official DR value: DR10

Samplerate: 88200 Hz
Channels: 2
Bits per sample: 32
Bitrate: 3683 kbps
Codec: WavPack
================================================================================




Original ripper: bazar
Original format: 24/192
Vinyl Condition: Mint
Cleaning:
Direct Drive Turntable: Technics SL-1200MK5
Cartridge: Lyra Skala
Amplifier: Whest 40RDT SE
ADC: Lynx Hilo
Postprocessing:

Downsampled to 16/44

Pink Floyd: Remastered Collection (1967 - 2016) [Vinyl Rip 16/44 & mp3-320]

Tracklist VNL02 - Meddle 1971:
JP LP 2016 Sony Music Labels Inc., Tokyo • SIJP 17

01.A1. One Of These Days [5:58]
02.A2. A Pillow Of Winds [5:07]
03.A3. Fearless [6:10]
04.A4. San Tropez [3:41]
05.A5. Seamus [2:17]
06.B1. Echoes [23:35]

foobar2000 1.1.18 / Dynamic Range Meter 1.1.1
log date: 2017-11-07 21:51:48

––––––––––––––––––––––––––––––––––––––––
Analyzed: PINK FLOYD / «Meddle» (Japan, SIJP 17)
––––––––––––––––––––––––––––––––––––––––

DR Peak RMS Duration Track
––––––––––––––––––––––––––––––––––––––––
DR13 -1.22 dB -17.87 dB 5:58 01-One Of These Days
DR12 -4.34 dB -19.77 dB 5:07 02-A Pillow Of Winds
DR15 -0.93 dB -20.13 dB 6:10 03-Fearless
DR14 -3.23 dB -20.79 dB 3:41 04-San Tropez
DR14 -4.32 dB -23.58 dB 2:17 05-Seamus
DR14 -1.40 dB -19.16 dB 23:35 06-Echoes
––––––––––––––––––––––––––––––––––––––––

Number of tracks: 6
Official DR value: DR14

Samplerate: 88200 Hz
Channels: 2
Bits per sample: 32
Bitrate: 3588 kbps
Codec: WavPack
================================================================================




Original ripper: bazar
Original format: 24/192
Vinyl Condition: Mint
Cleaning:
Direct Drive Turntable: Technics SL-1200MK5
Cartridge: Lyra Skala
Amplifier: Whest 40RDT SE
ADC: Lynx Hilo
Postprocessing:

Downsampled to 16/44

Pink Floyd: Remastered Collection (1967 - 2016) [Vinyl Rip 16/44 & mp3-320]

Tracklist VNL03 - The Dark Side of the Moon 1973:
EU LP 2016 Pink Floyd Music Ltd. • PFRLP 8

01.A1a. Speak To Me [1:11]
02.A1b. Breathe [2:45]
03.A2. On The Run [3:35]
04.A3. Time [7:03]
05.A4. The Great Gig In The Sky [4:46]
06.B1. Money [6:41]
07.B2. Us And Them [7:38]
08.B3. Any Colour You Like [2:57]
09.B4. Brain Damage [4:19]
10.B5. Eclipse [2:10]

foobar2000 1.1.18 / Dynamic Range Meter 1.1.1
log date: 2017-11-07 22:12:50

––––––––––––––––––––––––––––––––––––––––
Analyzed: PINK FLOYD / «The Dark Side of the Moon» (Europe, PFRLP8)
––––––––––––––––––––––––––––––––––––––––

DR Peak RMS Duration Track
––––––––––––––––––––––––––––––––––––––––
DR9 -4.43 dB -22.07 dB 1:11 01-Speak To Me
DR12 -2.27 dB -15.99 dB 2:45 02-Breathe
DR11 -1.11 dB -17.34 dB 3:35 03-On The Run
DR11 -1.34 dB -15.19 dB 7:03 04-Time
DR10 -1.32 dB -16.83 dB 4:46 05-The Great Gig In The Sky
DR12 -0.53 dB -15.97 dB 6:41 06-Money
DR10 -3.60 dB -17.57 dB 7:38 07-Us And Them
DR12 -1.33 dB -15.69 dB 2:57 08-Any Colour You Like
DR11 -1.81 dB -17.10 dB 4:19 09-Brain Damage
DR9 -1.17 dB -14.10 dB 2:10 10-Eclipse
––––––––––––––––––––––––––––––––––––––––

Number of tracks: 10
Official DR value: DR11

Samplerate: 88200 Hz
Channels: 2
Bits per sample: 32
Bitrate: 3582 kbps
Codec: WavPack
================================================================================




Original ripper: bazar
Original format: 24/192
Vinyl Condition: Mint
Cleaning:
Direct Drive Turntable: Technics SL-1200MK5
Cartridge: Lyra Skala
Amplifier: Whest 40RDT SE
ADC: Lynx Hilo
Postprocessing:

Downsampled to 16/44

Pink Floyd: Remastered Collection (1967 - 2016) [Vinyl Rip 16/44 & mp3-320]

Tracklist VNL04 - Wish You Were Here 1975:
JP LP 2016 Sony Music Labels Inc., Tokyo • SIJP 20

01.A1. Shine On You Crazy Diamond (I-V) [13:28]
02.A2. Welcome To The Machine [7:36]
03.B1. Have A Cigar [5:10]
04.B2. Wish You Were Here [5:38]
05.B3. Shine On You Crazy Diamond (VI-IX) [12:23]

foobar2000 1.1.18 / Dynamic Range Meter 1.1.1
log date: 2017-11-08 08:51:43

––––––––––––––––––––––––––––––––––––––––
Analyzed: PINK FLOYD / «Wish You Were Here» (Japan, SIJP 20)
––––––––––––––––––––––––––––––––––––––––

DR Peak RMS Duration Track
––––––––––––––––––––––––––––––––––––––––
DR14 -2.89 dB -20.77 dB 13:28 01-Shine On You Crazy Diamond (I-V)
DR13 -2.88 dB -20.23 dB 7:36 02-Welcome To The Machine
DR15 -1.27 dB -19.94 dB 5:10 03-Have A Cigar
DR15 -2.90 dB -23.03 dB 5:38 04-Wish You Were Here
DR14 -3.90 dB -21.10 dB 12:23 05-Shine On You Crazy Diamond (VI-IX)
––––––––––––––––––––––––––––––––––––––––

Number of tracks: 5
Official DR value: DR14

Samplerate: 88200 Hz
Channels: 2
Bits per sample: 32
Bitrate: 3993 kbps
Codec: WavPack
================================================================================




Original ripper: 190162
Original format: 24/192
Vinyl Condition:
Cleaning:
Direct Drive Turntable: EMT 930
Cartridge: EMT TSD-15 VDH
Amplifier: Tube Phono Preamp
ADC: Korg DS-DAC-10R
Postprocessing:

Downsampled to 16/44

Pink Floyd: Remastered Collection (1967 - 2016) [Vinyl Rip 16/44 & mp3-320]

Tracklist VNL05 - Animals 1977:
JP LP 2016 Sony Music Labels Inc., Tokyo • SIJP 21

01.A1. Pigs On The Wing (Part One) [1:25]
02.A2. Dogs [17:08]
03.B1. Pigs (Three Different Ones) [11:26]
04.B2. Sheep [10:16]
05.B3. Pigs On The Wing (Part Two) [1:30]




Original ripper: 190162
Original format: 24/192
Vinyl Condition:
Cleaning:
Direct Drive Turntable: EMT 930
Cartridge: EMT TSD-15 VDH
Amplifier: Tube Phono Preamp
ADC: Korg DS-DAC-10R
Postprocessing:

Downsampled to 16/44

Pink Floyd: Remastered Collection (1967 - 2016) [Vinyl Rip 16/44 & mp3-320]

Tracklist VNL06 - The Wall 1979:
JP LP 2016 Sony Music Labels Inc., Tokyo • SIJP 22~3

01.A1. In The Flesh? [3:21]
02.A2. The Thin Ice [2:27]
03.A3. Another Brick In The Wall (Part 1) [3:21]
04.A4. The Happiest Days Of Our Lives [1:44]
05.A5. Another Brick In The Wall (Part 2) [3:59]
06.A6. Mother [5:35]
07.B1. Goodbye Blue Sky [2:49]
08.B2. Empty Spaces [2:05]
09.B3. Young Lust [3:34]
10.B4. One Of My Turns [3:34]
11.B5. Don't Leave Me Now [4:17]
12.B6. Another Brick In The Wall (Part 3) [1:13]
13.B7. Goodbye Cruel World [1:18]
14.C1. Hey You [4:39]
15.C2. Is There Anybody Out There? [2:40]
16.C3. Nobody Home [3:31]
17.C4. Vera [1:28]
18.C5. Bring The Boys Back Home [1:26]
19.C6. Comfortably Numb [6:26]
20.D1. The Show Must Go On [1:42]
21.D2. In The Flesh [4:14]
22.D3. Run Like Hell [4:20]
23.D4. Waiting For The Worms [4:02]
24.D5. Stop [0:32]
25.D6. The Trial [5:19]
26.D7. Outside The Wall [1:49]

foobar2000 1.1.18 / Dynamic Range Meter 1.1.1
log date: 2017-11-08 01:43:21

––––––––––––––––––––––––––––––––––––––––
Analyzed: PINK FLOYD / «The Wall» (Japan, SIJP 22~3)
––––––––––––––––––––––––––––––––––––––––

DR Peak RMS Duration Track
––––––––––––––––––––––––––––––––––––––––
DR13 -2.49 dB -20.22 dB 3:21 01-In The Flesh?
DR14 -4.80 dB -24.24 dB 2:27 02-The Thin Ice
DR12 -4.83 dB -24.32 dB 3:21 03-Another Brick In The Wall (Part 1)
DR14 -2.79 dB -20.97 dB 1:44 04-The Happiest Days Of Our Lives
DR15 -4.27 dB -21.86 dB 3:59 05-Another Brick In The Wall (Part 2)
DR17 -3.51 dB -24.31 dB 5:35 06-Mother
DR11 -5.63 dB -24.04 dB 2:49 07-Goodbye Blue Sky
DR11 -7.46 dB -23.80 dB 2:05 08-Empty Spaces
DR16 -2.44 dB -21.49 dB 3:34 09-Young Lust
DR16 -2.84 dB -23.68 dB 3:34 10-One Of My Turns
DR14 -5.55 dB -24.11 dB 4:17 11-Don't Leave Me Now
DR16 -1.26 dB -20.45 dB 1:13 12-Another Brick In The Wall (Part 3)
DR8 -12.44 dB -30.43 dB 1:18 13-Goodbye Cruel World
DR14 -1.79 dB -21.41 dB 4:39 14-Hey You
DR13 -4.93 dB -26.34 dB 2:40 15-Is There Anybody Out There?
DR12 -7.77 dB -25.72 dB 3:31 16-Nobody Home
DR10 -9.81 dB -25.98 dB 1:28 17-Vera
DR12 -6.23 dB -23.27 dB 1:26 18-Bring The Boys Back Home
DR13 -2.71 dB -19.05 dB 6:26 19-Comfortably Numb
DR14 -6.72 dB -23.47 dB 1:42 20-The Show Must Go On
DR16 -2.63 dB -21.59 dB 4:14 21-In The Flesh
DR16 -3.60 dB -21.25 dB 4:20 22-Run Like Hell
DR13 -2.93 dB -20.18 dB 4:02 23-Waiting For The Worms
DR2 -2.53 dB -31.62 dB 0:32 24-Stop
DR15 -3.23 dB -22.91 dB 5:19 25-The Trial
DR13 -16.76 dB -39.83 dB 1:49 26-Outside The Wall
––––––––––––––––––––––––––––––––––––––––

Number of tracks: 26
Official DR value: DR13

Samplerate: 88200 Hz
Channels: 2
Bits per sample: 32
Bitrate: 3861 kbps
Codec: WavPack
================================================================================




Original ripper: 190162
Original format: 24/192
Vinyl Condition:
Cleaning:
Direct Drive Turntable: EMT 930
Cartridge: EMT TSD-15 VDH
Amplifier: Tube Phono Preamp
ADC: Korg DS-DAC-10R
Postprocessing:

Downsampled to 16/44

Pink Floyd: Remastered Collection (1967 - 2016) [Vinyl Rip 16/44 & mp3-320]

Tracklist VNL07 - The Final Cut 1983:
EU LP 2016 Pink Floyd Music Ltd. • PFRLP 12

01.A1. The Post War Dream [3:03]
02.A2. Your Possible Pasts [4:22]
03.A3. One Of The Few [1:19]
04.A4. When The Tigers Broke Free [3:11]
05.A5. The Hero's Return [2:43]
06.A6. The Gunners Dream [5:19]
07.A7. Paranoid Eyes [3:39]
08.B1. Get Your Filthy Hands Off My Desert [1:17]
09.B2. The Fletcher Memorial Home [4:12]
10.B3. Southampton Dock [2:09]
11.B4. The Final Cut [4:46]
12.B5. Not Now John [5:00]
13.B6. Two Suns In The Sunset [5:17]

foobar2000 1.1.18 / Dynamic Range Meter 1.1.1
log date: 2017-11-07 23:04:46

––––––––––––––––––––––––––––––––––––––––
Analyzed: PINK FLOYD / «The Final Cut» (Europe, PFRLP12)
––––––––––––––––––––––––––––––––––––––––

DR Peak RMS Duration Track
––––––––––––––––––––––––––––––––––––––––
DR13 -0.44 dB -20.34 dB 3:03 01-The Post War Dream
DR13 -0.31 dB -17.88 dB 4:22 02-Your Possible Pasts
DR11 -8.66 dB -23.51 dB 1:19 03-One Of The Few
DR11 -5.41 dB -20.33 dB 3:11 04-When The Tigers Broke Free
DR13 -1.83 dB -18.78 dB 2:43 05-The Hero's Return
DR13 -1.22 dB -19.98 dB 5:19 06-The Gunners Dream
DR13 -2.47 dB -22.20 dB 3:39 07-Paranoid Eyes
DR13 -2.21 dB -21.80 dB 1:17 08-Get Your Filthy Hands Off My Desert
DR11 -0.29 dB -17.05 dB 4:12 09-The Fletcher Memorial Home
DR13 -5.94 dB -23.62 dB 2:09 10-Southampton Dock
DR11 -0.84 dB -16.27 dB 4:46 11-The Final Cut
DR13 -0.50 dB -15.16 dB 5:00 12-Not Now John
DR13 -1.82 dB -20.27 dB 5:17 13-Two Suns In The Sunset
––––––––––––––––––––––––––––––––––––––––

Number of tracks: 13
Official DR value: DR12

Samplerate: 88200 Hz
Channels: 2
Bits per sample: 32
Bitrate: 3702 kbps
Codec: WavPack
================================================================================




Original ripper: alvaedis
Original format: 24/192
Vinyl Condition: Mint
Cleaning:
Direct Drive Turntable: Michell Gyrodec (Orbe Platter upgrade)
Cartridge: Lyra Delos
Amplifier: PS audio GCPH (mod)
ADC: Prism Sound Lyra 2
Postprocessing:

Downsampled to 16/44

Pink Floyd: Remastered Collection (1967 - 2016) [Vinyl Rip 16/44 & mp3-320]

Tracklist VNL08 - A Momentary Lapse Of Reason 1987:
EU LP 2016 Pink Floyd Music Ltd. • PFRLP 13

01.A1. Signs Of Life [4:22]
02.A2. Learning To Fly [4:52]
03.A3. The Dogs Of War [6:13]
04.A4. One Slip [5:00]
05.A5. On The Turning Away [5:40]
06.B1. Yet Another Movie [5:56]
07.B2. Round And Around [1:30]
08.B3. A New Machine (Part 1) [1:48]
09.B4. Terminal Frost [6:16]
10.B5. A New Machine (Part 2) [0:39]
11.B6. Sorrow [8:53]

foobar2000 1.1.18 / Dynamic Range Meter 1.1.1
log date: 2017-11-08 00:11:24

––––––––––––––––––––––––––––––––––––––––
Analyzed: PINK FLOYD / «A Momentary Lapse Of Reason» (Europe, PFRLP13)
––––––––––––––––––––––––––––––––––––––––

DR Peak RMS Duration Track
––––––––––––––––––––––––––––––––––––––––
DR12 -6.52 dB -23.02 dB 4:22 01-Signs Of Life
DR12 -0.78 dB -15.40 dB 4:52 02-Learning To Fly
DR11 -2.29 dB -16.46 dB 6:13 03-The Dogs Of War
DR12 -3.29 dB -17.50 dB 5:00 04-One Slip
DR11 -3.64 dB -17.44 dB 5:40 05-On The Turning Away
DR12 -1.08 dB -16.80 dB 5:56 06-Yet Another Movie
DR10 -2.46 dB -18.14 dB 1:30 07-Round And Around
DR12 -7.90 dB -25.40 dB 1:48 08-A New Machine (Part 1)
DR12 -2.20 dB -18.24 dB 6:16 09-Terminal Frost
DR10 -7.60 dB -23.71 dB 0:39 10-A New Machine (Part 2)
DR12 -0.54 dB -16.14 dB 8:53 11-Sorrow
––––––––––––––––––––––––––––––––––––––––

Number of tracks: 11
Official DR value: DR12

Samplerate: 88200 Hz
Channels: 2
Bits per sample: 32
Bitrate: 3639 kbps
Codec: WavPack
================================================================================




Original ripper: bazar
Original format: 24/192
Vinyl Condition: Mint
Cleaning:
Direct Drive Turntable: Technics SL-1200MK5
Cartridge: Lyra Skala
Amplifier: Whest 40RDT SE
ADC: Lynx Hilo
Postprocessing:

Downsampled to 16/44

Pink Floyd: Remastered Collection (1967 - 2016) [Vinyl Rip 16/44 & mp3-320]

Tracklist VNL09 - The Division Bell 1994:
EU 2 x LP 2016 Pink Floyd Music Ltd. • PFRLP 14

01.A1. Cluster One [5:54]
02.A2. What Do You Want From Me [4:22]
03.A3. Poles Apart [7:05]
04.B1. Marooned [5:33]
05.B2. A Great Day For Freedom [4:15]
06.B3. Wearing The Inside Out [6:48]
07.C1. Take It Back [6:16]
08.C2. Coming Back To Life [6:16]
09.C3. Keep Talking [6:10]
10.D1. Lost For Words [5:16]
11.D2. High Hopes [8:32]

foobar2000 1.1.18 / Dynamic Range Meter 1.1.1
log date: 2017-11-08 00:48:13

––––––––––––––––––––––––––––––––––––––––
Analyzed: PINK FLOYD / «The Division Bell» (Europe, PFRLP14)
––––––––––––––––––––––––––––––––––––––––

DR Peak RMS Duration Track
––––––––––––––––––––––––––––––––––––––––
DR12 -3.84 dB -20.59 dB 5:54 01-Cluster One
DR10 -0.80 dB -12.82 dB 4:22 02-What Do You Want From Me
DR10 -1.41 dB -14.68 dB 7:05 03-Poles Apart
DR11 -2.28 dB -16.66 dB 5:33 04-Marooned
DR11 -1.20 dB -15.73 dB 4:15 05-A Great Day For Freedom
DR11 -3.00 dB -17.50 dB 6:48 06-Wearing The Inside Out
DR10 -0.97 dB -14.72 dB 6:16 07-Take It Back
DR10 -1.79 dB -15.65 dB 6:16 08-Coming Back To Life
DR10 -1.74 dB -15.04 dB 6:10 09-Keep Talking
DR12 -1.44 dB -16.63 dB 5:16 10-Lost For Words
DR12 -1.03 dB -16.84 dB 8:33 11-High Hopes
––––––––––––––––––––––––––––––––––––––––

Number of tracks: 11
Official DR value: DR11

Samplerate: 88200 Hz
Channels: 2
Bits per sample: 32
Bitrate: 3624 kbps
Codec: WavPack
================================================================================




Original ripper: alvaedis
Original format: 24/192
Vinyl Condition: Mint
Cleaning:
Direct Drive Turntable: Michell Gyrodec (Orbe Platter upgrade)
Cartridge: Lyra Delos
Amplifier: PS audio GCPH (mod)
ADC: Prism Sound Lyra 2
Postprocessing:

Downsampled to 16/44

Pink Floyd: Remastered Collection (1967 - 2016) [Vinyl Rip 16/44 & mp3-320]

Tracklist VNL10 - Peter Scholes - Pink Floyd's Wish You Were Here Symphonic 2016:
NL LP 2016 Decca Music Group Ltd. • 478 9678

01.A1. Wish You Were Here (Vocal) [5:05]
02.A2. Shine On You Crazy Diamond (Part I-V) [13:17]
03.A3. Welcome To The Machine [7:11]
04.B1. Have A Cigar [5:17]
05.B2. Wish You Were Here (Instrumental) [4:53]
06.B3. Shine On You Crazy Diamond (Part VI-IX) [13:00]
07.B4. Eclipse (Bonus track)* [1:28]




Original ripper: 190162
Original format: 24/192
Vinyl Condition:
Cleaning:
Direct Drive Turntable: EMT 930
Cartridge: EMT TSD-15 VDH
Amplifier: Tube Phono Preamp
ADC: Korg DS-DAC-10R
Postprocessing:

Downsampled to 16/44

David Gilmour - Rattle That Lo...Vinyl Rip 16/44 & mp3-320]
Depeche Mode: Collection (1981 - 2013) [Vinyl Rip 16/44 & mp3-320]
Sade: Discography (1984 - 2010) [Vinyl Rip 16/44 & MP3-320]



Deep Purple: Collection (1968 - 2017) [Vinyl Rip 16/44 & mp3-320]
Queen: Collection (1973 - 1995) [Vinyl Rip 16/44 & MP3-320]
The Cars: Collection (1978 - 1987) [Vinyl Rip 16/44 & mp3-320]
Metallica: Discography (1983 - 2016) [Vinyl Rip 16/44 & mp3-320]
Bon Jovi - The Albums (2017) [...320, Limited Edition Box set]
The Doors: Collection (1967 - 1971) [Vinyl Rip 16/44 & mp3-320]
Black Sabbath: Collection (197...Vinyl Rip 16/44 & mp3-320]
The Beatles: Discography (1963...inyl Rip 16/44 & mp3-320]
Joe Cocker: Collection (1969 - 1991) [Vinyl Rip 16/44 & mp3-320]
Frank Zappa: Collection (1969 - 1981) [Vinyl Rip 16/44 & mp3-320]
Ten Years After: Collection (1...Vinyl Rip 16/44 & mp3-320]
Dire Straits: Discography (197...Vinyl Rip 16/44 & mp3-320]
Bonnie Tyler: Collection (1977 - 1986) [Vinyl Rip 16/44 & mp3-320]
The Beatles: Stereo Vinyl Box ...Vinyl Rip 16/44 & mp3-320]
Wolfgang Amadeus Mozart - Die ...Vinyl Rip 16/44 & mp3-320]
Eagles - The Studio Albums 197...Vinyl Rip 16/44 & mp3-320]
Pink Floyd: Discography (1967 - 2014) [Vinyl Rip 16/44 & mp3-320]
Led Zeppelin: Discography (196...Vinyl Rip 16/44 & mp3-320]
Manowar: Collection (1982 - 2012) [Vinyl Rip 16/44 & mp3-320]
A-HA: Collection (1985-2015) [Vinyl Rip 16/44 & mp3-320]
Decca, Wiener Philharmoniker -...e LPs (2014) [Vinyl Rip 16/44]
Beethoven - Chicago Symphony O...Vinyl Rip 16/44 & mp3-320]
Scorpions: Collection (1974 - 2015) [Vinyl Rip 16/44 & mp3-320]
Pink Floyd - Echoes: The Best Of Pink Floyd (2001) [Vinyl Rip 16/44]
Alice Cooper - Paranormal (2017) [Vinyl Rip 16/44 & mp3-320]
Manfred Mann's Earth Band: Col...Vinyl Rip 16/44 & mp3-320]
Rainbow: Discography (1975 - 1986) [Vinyl Rip 16/44 & mp3-320]
Amanda Lear: Collection (1978 - 1986) [Vinyl Rip 16/44 & mp3-320]
Space & Didier Marouani: C...Vinyl Rip 16/44 & mp3-320]
Rod Stewart: Collection (1969 - 1988) [Vinyl Rip 16/44 & mp3-320]
Kraftwerk: Collection (1974 - 1991) [Vinyl Rip 16/44 & mp3-320]
Roger Waters: Vinyl Collection...inyl Rip 16/44 & MP3-320]



Pink Floyd or Pink Floyd in my Blog

Download Pink Floyd: Remastered Collection (1967 - 2016):