Tags
Language
Tags

Pink Floyd - Wish You Were Here (1975) {1986, Reissue}

Posted By: popsakov
Pink Floyd - Wish You Were Here (1975) {1986, Reissue}

Pink Floyd - Wish You Were Here (1975) {1986, Reissue}
EAC Rip | FLAC (Img) + Cue + Log ~ 273 Mb | MP3 CBR320 ~ 128 Mb
Scans Included (JPG, 600 dpi) | RAR 5% Recovery
Psychedelic Rock, Progressive Rock | Harvest #CDP 7 46035 2

Wish You Were Here is the ninth studio album by English rock band Pink Floyd. It was released on 12 September 1975 by Harvest Records in the United Kingdom and a day later by Columbia Records in the United States. The album topped record charts in both regions.

Inspired by material the group composed while performing around Europe, Wish You Were Here was recorded during numerous recording sessions at Abbey Road Studios in London, England. Two of the album's four songs criticise the music business, another expresses alienation and the multi-part track "Shine On You Crazy Diamond" is a tribute to Syd Barrett. Barrett's mental breakdown had forced him to leave the group seven years earlier, prior to the release of the group's second studio album A Saucerful of Secrets (on which he only appeared on three tracks). It was lead writer Roger Waters' idea to split "Shine On You Crazy Diamond" into two parts that would bookend the album around three new compositions and to introduce a concept linking them all. As with their previous album The Dark Side of the Moon (1973), the band used studio effects and synthesizers, and brought in guest singers to supply vocals on some tracks of the album. These singers were Roy Harper, who provided the lead vocals on "Have a Cigar", and the Blackberries, who added backing vocals to "Shine On You Crazy Diamond".

Wish You Were Here was an instant commercial success (despite the fact that Harvest Records' parent company EMI was unable to print enough copies of the album to satisfy commercial demand), and although it initially received mixed reviews, the album has since gone on to receive critical acclaim. It appears on Rolling Stone's lists of "The 500 Greatest Albums of All Time" and the "50 Greatest Prog Rock Albums of All Time". Band members Richard Wright and David Gilmour have cited Wish You Were Here as their favourite Pink Floyd album.
~ Wiki

***************

Pink Floyd - Wish You Were Here (1975) {1986, Reissue}

Pink Floyd - Wish You Were Here (1975) {1986, Reissue}

Track List:

01. Shine On You Crazy Diamond [Part One] [13:33]
02. Welcome To The Machine [7:26]
03. Have A Cigar [5:08]
04. Wish You Were Here [5:40]
05. Shine On You Crazy Diamond [Part Two] [12:23]

Exact Audio Copy V1.3 from 2. September 2016

EAC extraction logfile from 10. November 2017, 19:50

Pink Floyd / Wish You Were Here

Used drive : TSSTcorpCDDVDW TS-L633B Adapter: 1 ID: 0

Read mode : Secure
Utilize accurate stream : Yes
Defeat audio cache : Yes
Make use of C2 pointers : No

Read offset correction : 6
Overread into Lead-In and Lead-Out : No
Fill up missing offset samples with silence : Yes
Delete leading and trailing silent blocks : No
Null samples used in CRC calculations : Yes
Used interface : Native Win32 interface for Win NT & 2000

Used output format : Internal WAV Routines
Sample format : 44.100 Hz; 16 Bit; Stereo


TOC of the extracted CD

Track | Start | Length | Start sector | End sector
––––––––––––––––––––––––––––-
1 | 0:00.00 | 13:33.00 | 0 | 60974
2 | 13:33.00 | 7:26.25 | 60975 | 94449
3 | 20:59.25 | 5:07.72 | 94450 | 117546
4 | 26:07.22 | 5:40.15 | 117547 | 143061
5 | 31:47.37 | 12:22.48 | 143062 | 198759


Range status and errors

Selected range

Filename F:\Alexharvey\Pink Floyd - Wish You Were Here.wav

Peak level 100.0 %
Extraction speed 2.7 X
Range quality 100.0 %
Test CRC 2D0CA1A9
Copy CRC 2D0CA1A9
Copy OK

No errors occurred


AccurateRip summary

Track 1 accurately ripped (confidence 51) [E8A92003] (AR v2)
Track 2 accurately ripped (confidence 52) [C2A427C8] (AR v2)
Track 3 accurately ripped (confidence 52) [B4EC7AC6] (AR v2)
Track 4 accurately ripped (confidence 51) [E72B23DE] (AR v2)
Track 5 accurately ripped (confidence 52) [125481FC] (AR v2)

All tracks accurately ripped

End of status report

–– CUETools DB Plugin V2.1.6

[CTDB TOCID: Ge0VDzHINm0SI7L5bJntLYPRK0c-] found
Submit result: Ge0VDzHINm0SI7L5bJntLYPRK0c- has been confirmed
Track | CTDB Status
1 | (622/634) Accurately ripped
2 | (627/634) Accurately ripped
3 | (628/634) Accurately ripped
4 | (624/634) Accurately ripped
5 | (624/634) Accurately ripped


==== Log checksum 8F034974E3323E0CFAF6A7A65190A5BF3F51A953173A1791AB9912F060ACE377 ====

foobar2000 1.3.16 / Dynamic Range Meter 1.1.1
log date: 2017-11-10 22:42:30

––––––––––––––––––––––––––––––––––––––––
Analyzed: Pink Floyd / Wish You Were Here
––––––––––––––––––––––––––––––––––––––––

DR Peak RMS Duration Track
––––––––––––––––––––––––––––––––––––––––
DR13 -0.45 dB -17.13 dB 13:33 01-Shine On You Crazy Diamond [Part One]
DR11 0.00 dB -16.97 dB 7:26 02-Welcome To The Machine
DR13 -0.43 dB -15.86 dB 5:08 03-Have A Cigar
DR13 -0.86 dB -19.23 dB 5:40 04-Wish You Were Here
DR12 -1.06 dB -16.70 dB 12:23 05-Shine On You Crazy Diamond [Part Two]
––––––––––––––––––––––––––––––––––––––––

Number of tracks: 5
Official DR value: DR12

Samplerate: 44100 Hz
Channels: 2
Bits per sample: 16
Bitrate: 756 kbps
Codec: FLAC
================================================================================

[CUETools log; Date: 10.11.2017 22:42:36; Version: 2.1.5]
[CTDB TOCID: Ge0VDzHINm0SI7L5bJntLYPRK0c-] found.
Track | CTDB Status
1 | (623/635) Accurately ripped
2 | (628/635) Accurately ripped
3 | (629/635) Accurately ripped
4 | (625/635) Accurately ripped
5 | (625/635) Accurately ripped
[AccurateRip ID: 0009618a-002a787f-420a5a05] found.
Track [ CRC | V2 ] Status
01 [f7b5f1a5|e8a92003] (057+051/564) Accurately ripped
02 [112f3f58|c2a427c8] (056+052/566) Accurately ripped
03 [682344c5|b4ec7ac6] (056+052/566) Accurately ripped
04 [4009f8a5|e72b23de] (054+051/563) Accurately ripped
05 [ec9dc031|125481fc] (054+052/557) Accurately ripped
Offsetted by -190:
01 [4cf324ec] (034/564) Accurately ripped
02 [821b19b7] (034/566) Accurately ripped
03 [7a4b6625] (033/566) Accurately ripped
04 [f8f73bdf] (035/563) Accurately ripped
05 [812019b9] (033/557) Accurately ripped
Offsetted by -42:
01 [cca14f4a] (030/564) Accurately ripped
02 [17abe902] (031/566) Accurately ripped
03 [84779545] (031/566) Accurately ripped
04 [9f14fe2e] (030/563) Accurately ripped
05 [1a95a479] (030/557) Accurately ripped
Offsetted by 34:
01 [7c89abe4] (015/564) Accurately ripped
02 [b0198b2d] (015/566) Accurately ripped
03 [ee8f652f] (015/566) Accurately ripped
04 [fe0b7cd2] (015/563) Accurately ripped
05 [7320a32e] (014/557) Accurately ripped
Offsetted by 103:
01 [28596fed] (048/564) Accurately ripped
02 [9e30dbcc] (048/566) Accurately ripped
03 [2cccc87f] (050/566) Accurately ripped
04 [57eec2ac] (048/563) Accurately ripped
05 [c0159500] (046/557) Accurately ripped
Offsetted by 108:
01 [546cbccf] (025/564) Accurately ripped
02 [c8e4ead6] (026/566) Accurately ripped
03 [2ed7d0c3] (027/566) Accurately ripped
04 [890e383e] (027/563) Accurately ripped
05 [9d3e043e] (026/557) Accurately ripped
Offsetted by 288:
01 [864055ff] (049/564) Accurately ripped
02 [804c1586] (050/566) Accurately ripped
03 [5d66ddcb] (048/566) Accurately ripped
04 [8409bcdf] (049/563) Accurately ripped
05 [8832b189] (049/557) Accurately ripped

Track Peak [ CRC32 ] [W/O NULL] [ LOG ]
– 100,0 [2D0CA1A9] [10BA79EA] CRC32
01 94,9 [B8A53CDD] [81AD497B]
02 100,0 [F89C93D7] [71F74809]
03 95,1 [4075933A] [B9E7752C]
04 90,5 [B94B76A1] [E5CE3708]
05 88,5 [B9C063A2] [17452687]

Pink Floyd - Wish You Were Here (1975) {1986, Reissue}

All thanks go to Alexharvey

>>> Pink Floyd in my Blog <<<

Download from icerbox.com: