Subcategories

Pink Floyd - Relics (1971) {1987, Reissue}

Posted By: popsakov
Pink Floyd - Relics (1971) {1987, Reissue}

Pink Floyd - Relics (1971) {1987, Reissue}
EAC Rip | FLAC (Img) + Cue + Log ~ 274 Mb | MP3 CBR320 ~ 118 Mb
Full Scans ~ 42 Mb | RAR 5% Recovery
Progressive Rock / Psychedelic Rock / Space Rock / Experimental Rock
EMI / Axis #CDAX 701290 | Australia

Relics is a 1971 compilation album by Pink Floyd. The album was released in the UK on 14 May 1971 and in the United States on the following day. Initially released by Starline, the compilation was reissued by Music for Pleasure in the United Kingdom; Harvest and Capitol distributed the album in the United States. A remastered CD was released in 1996 with a different album cover, picturing a three-dimensional model based on the sketch drawn by drummer Nick Mason for the initial release. Relics has been rereleased on numerous occasions, and at times without the proper authority. One such incident involved EMI Australia releasing the album without the band's consent. This led to the LP being withdrawn and the album as a result became a rarity.
~ Wiki

Since Relics is a compilation and not a regular studio album, it tends to be overlooked when thought of as one of Pink Floyd's better releases. It might not be regarded as a classic psychedelic masterpiece in the manner of The Piper at the Gates of Dawn, and it certainly won't ever achieve the multiple platinum status of Dark Side of the Moon, but it's a pretty good place to start with the band's early catalog. Originally issued in 1971, Relics culls from the band's first five singles (two A-sides and three B-sides, including the non-album pop classics "See Emily Play" and "Arnold Layne") and picks album material that capitalizes on the band's versatility while making it a thoroughly palatable listen. From Piper, you get the goofy childishness of "Bike" and the mesmerizing "Interstellar Overdrive," one of the band's trademark instrumental freak-outs; "The Nile Song," taken from the More soundtrack, is one of the heaviest songs the band recorded. A little bit of everything that made early Pink Floyd can be found here. Without a doubt, the disc is an essential part of the band's discography, not to be disregarded due to its overlap with studio album material.

~ Andy Kellman, All Music

***************

Pink Floyd - Relics (1971) {1987, Reissue}

Pink Floyd - Relics (1971) {1987, Reissue}

Track List:

01. Arnold Layne (Simulated Stereo) [0:02:55.15]
02. Interstellar Overdrive [0:09:36.67]
03. See Emily Play (Simulated Stereo) [0:02:51.63]
04. Remember A Day [0:04:27.62]
05. Paintbox [0:03:30.60]
06. Julia Dream [0:02:36.15]
07. Careful With That Axe, Eugene [0:05:44.08]
08. Cirrus Minor [0:05:15.52]
09. The Nile Song [0:03:23.40]
10. Biding My Time [0:05:15.68]
11. Bike [0:03:22.42]

Exact Audio Copy V1.3 from 2. September 2016

EAC extraction logfile from 12. March 2019, 19:38

Pink Floyd / Relics (CDAX 701290)

Used drive : PLEXTOR DVDR PX-L890SA Adapter: 1 ID: 1

Read mode : Secure
Utilize accurate stream : Yes
Defeat audio cache : Yes
Make use of C2 pointers : No

Read offset correction : 6
Overread into Lead-In and Lead-Out : No
Fill up missing offset samples with silence : Yes
Delete leading and trailing silent blocks : No
Null samples used in CRC calculations : Yes
Used interface : Native Win32 interface for Win NT & 2000

Used output format : User Defined Encoder
Selected bitrate : 1024 kBit/s
Quality : High
Add ID3 tag : No
Command line compressor : C:\Program Files (x86)\Exact Audio Copy\Flac\flac.exe
Additional command line options : -V -8 -T "Date=%year%" -T "Genre=%genre%" %source%


TOC of the extracted CD

Track | Start | Length | Start sector | End sector
––––––––––––––––––––––––––––-
1 | 0:00.00 | 2:55.15 | 0 | 13139
2 | 2:55.15 | 9:36.67 | 13140 | 56406
3 | 12:32.07 | 2:51.63 | 56407 | 69294
4 | 15:23.70 | 4:27.62 | 69295 | 89381
5 | 19:51.57 | 3:30.60 | 89382 | 105191
6 | 23:22.42 | 2:36.15 | 105192 | 116906
7 | 25:58.57 | 5:44.08 | 116907 | 142714
8 | 31:42.65 | 5:15.52 | 142715 | 166391
9 | 36:58.42 | 3:23.40 | 166392 | 181656
10 | 40:22.07 | 5:15.68 | 181657 | 205349
11 | 45:38.00 | 3:22.42 | 205350 | 220541


Range status and errors

Selected range

Filename H:\AUDIO\MUSIC\1971. Pink Floyd - Relics (EMI CDAX 701290, Australia)\Pink Floyd - Relics (CDAX 701290).wav

Peak level 100.0 %
Extraction speed 5.9 X
Range quality 99.9 %
Test CRC 62F0B773
Copy CRC 62F0B773
Copy OK

No errors occurred


AccurateRip summary

Track 1 accurately ripped (confidence 23) [0C3F92B5] (AR v2)
Track 2 accurately ripped (confidence 23) [180CF184] (AR v2)
Track 3 accurately ripped (confidence 23) [1B5D3DD4] (AR v2)
Track 4 accurately ripped (confidence 23) [B953A33F] (AR v2)
Track 5 accurately ripped (confidence 23) [CC0ED2D4] (AR v2)
Track 6 accurately ripped (confidence 23) [090A3A69] (AR v2)
Track 7 accurately ripped (confidence 23) [22B73557] (AR v2)
Track 8 accurately ripped (confidence 23) [234C68B8] (AR v2)
Track 9 accurately ripped (confidence 23) [7D1BA356] (AR v2)
Track 10 accurately ripped (confidence 25) [F03EEA2E] (AR v2)
Track 11 accurately ripped (confidence 23) [388A5440] (AR v2)

All tracks accurately ripped

End of status report

==== Log checksum A8FEDE1161F5DA5AEF86FBAEA71C99AF32D25B5720251CD38EC30007BF3CF69F ====

[CUETools log; Date: 07.04.2019 15:31:21; Version: 2.1.4]
[CTDB TOCID: e0MeB6xBKdneuqcTEw81ALQBoRI-] found.
Track | CTDB Status
1 | (63/64) Accurately ripped
2 | (63/64) Accurately ripped
3 | (63/64) Accurately ripped
4 | (64/64) Accurately ripped
5 | (64/64) Accurately ripped
6 | (63/64) Accurately ripped
7 | (63/64) Accurately ripped
8 | (64/64) Accurately ripped
9 | (63/64) Accurately ripped
10 | (64/64) Accurately ripped
11 | (63/64) Accurately ripped
[AccurateRip ID: 0014dbc3-00b2fd59-810b7c0b] found.
Track [ CRC | V2 ] Status
01 [064ef642|0c3f92b5] (19+23/42) Accurately ripped
02 [ec6bcc87|180cf184] (19+23/42) Accurately ripped
03 [c698ff23|1b5d3dd4] (19+23/42) Accurately ripped
04 [1fa30230|b953a33f] (19+23/42) Accurately ripped
05 [dd693784|cc0ed2d4] (19+23/42) Accurately ripped
06 [fc5c6935|090a3a69] (19+23/42) Accurately ripped
07 [71683e74|22b73557] (19+23/42) Accurately ripped
08 [3d765804|234c68b8] (19+23/42) Accurately ripped
09 [09f92d77|7d1ba356] (19+23/42) Accurately ripped
10 [3a56c357|f03eea2e] (19+25/44) Accurately ripped
11 [551c4f74|388a5440] (19+23/42) Accurately ripped

Track Peak [ CRC32 ] [W/O NULL] [ LOG ]
– 100,0 [62F0B773] [DCD201F8] CRC32
01 84,0 [CFA7B16F] [354BC30B]
02 79,1 [CF46C5F4] [1657BEE9]
03 70,7 [63B46A92] [3CB04310]
04 68,2 [386ADEFA] [A44B0ADE]
05 76,1 [4172B264] [480DE0A1]
06 73,2 [EA02F4E8] [60C385D7]
07 64,1 [CB0A4805] [D2E7FECD]
08 43,7 [134DCD1F] [8F7AE69F]
09 82,7 [8D8C8C1B] [B4A3A5C1]
10 100,0 [988FF69E] [E7E8D01F]
11 60,3 [0961E678] [8C62DE72]

Pink Floyd - Relics (1971) {1987, Reissue}

All thanks go to snakesharmer

>>> My Blog <<<

Download from icerbox.com: