Subcategories

Pink Floyd - The Dark Side Of The Moon (2011) [Immersion Edition, Box Set 3CD+2DVD+1Blu-ray]

Posted By: Andi_Deris
Pink Floyd - The Dark Side Of The Moon (2011) [Immersion Edition, Box Set 3CD+2DVD+1Blu-ray]

Pink Floyd - The Dark Side Of The Moon (2011) [Immersion Edition, Box Set 3CD+2DVD+1Blu-ray]
EAC Rip | FLAC: Image+Cue+Log | 1 Gb | MP3 CBR 320 kbps | 413 Mb
DVD5+DVD9 | Video: | NTSC 19:9 (720x480) | Audio: LPCM 2.0, 4.0, 5.1 | 2 Gb+6.2 Gb
Blu-ray | BDMV | Video: H.264, MPEG-4 AVC / 1920:1080i / 29.970 fps / 16:9 / High Profile 4.1 | Audio: LPCM, AC3 | 31.5 Gb
Full Scans | Photo Book | Booklet | Png (300 dpi HQ) | 1.5 Gg
Genre: Progressive Rock | Label: Pink Floyd Music Ltd., EMI Rec. Ltd., Capitol Rec., LLC | Cat.: 5099902943121

As a cornerstone release of the epic Why Pink Floyd? reissue programme, The Dark Side of The Moon was treated to a stunning 2011 remaster, and released in Discovery, Experience and Immersion editions. Featuring newly minted packaging across the range, the highly collectable Immersion edition featured a host of rare, unreleased and alternate audio and video content in both standard and high resolution across CD/DVD and Blu-ray. The Dark Side Of The Moon was the first record to get this reissue treatment, followed by Wish You Were Here and The Wall.

The Immersion edition features the classic studio album digitally remastered and presented as a limited edition high quality boxset featuring six discs of rare and unreleased audio and video material, plus a new 36-page oversized perfect-bound booklet, a book of original photographs edited by Jill Furmanovsky, exclusive merchandise and facsimile collectables.

Pink Floyd - The Dark Side Of The Moon (2011) [Immersion Edition, Box Set 3CD+2DVD+1Blu-ray]


Pink Floyd | Why Pink Floyd? | YouTube

Brain Damage | Pink Floyd UK Store

DAVID GILMOUR Vocals, Guitars, VCS3 | NICK MASON Percussion, Tape effects | RICHARD WRIGHT Keyboards, Vocals, VCS3 | ROGER WATERS Bass Guitar, Vocals, VCS3, Tape effects

All lyrics by Roger Waters


Pink Floyd - The Dark Side Of The Moon (2011) [Immersion Edition, Box Set 3CD+2DVD+1Blu-ray]


Disc 1 - CD: The Dark Side Of The Moon
The original album, remastered in 2011


01. Speak To Me (1:07)
02. Breathe (In The Air) (2:49)
03. On The Run (3:45)
04. Time (6:53)
05. The Great Gig In The Sky (4:44)
06. Money (6:23)
07. Us & Them (7:49)
08. Any Colour You Like (3:26)
09. Brain Damage (3:46)
10. Eclipse (2:12)

Pink Floyd - The Dark Side Of The Moon (2011) [Immersion Edition, Box Set 3CD+2DVD+1Blu-ray]


Disc 2 - CD: Live At The Empire Pool. Wembley, London 1974
Previously unreleased


01. Speak To Me (2:45)
02. Breathe (In The Air) (2:50)
03. On The Run (5:08)
04. Time (6:31)
05. The Great Gig In The Sky (6:50)
06. Money (8:41)
07. Us And Them (8:09)
08. Any Colour You Like (8:10)
09. Brian Damage (3:43)
10. Eclipse (2:19)

Pink Floyd - The Dark Side Of The Moon (2011) [Immersion Edition, Box Set 3CD+2DVD+1Blu-ray]


Disc 3 - DVD: (Audio Only)
The Dark Side Of The Moon Multi-Channel Audio Mixes


- 5.1 Surround Mix (2003) 448kbps
- 4.0 Quad Mix (1973) 448kbps
- LPCM Stereo mix (1973) remastered in 2011
- 5.1 Surround Mix (2003) 448kbps
- 4.0 Quad Mix (1973) 640kbps

Pink Floyd - The Dark Side Of The Moon (2011) [Immersion Edition, Box Set 3CD+2DVD+1Blu-ray]

Pink Floyd - The Dark Side Of The Moon (2011) [Immersion Edition, Box Set 3CD+2DVD+1Blu-ray]


Pink Floyd - The Dark Side Of The Moon (2011) [Immersion Edition, Box Set 3CD+2DVD+1Blu-ray]


Disc 4 - DVD: Audio Visual Material


- Careful With That Axe, Eugene (Live In Brighton, 1972)
- Set The Controls For The Heart Of The Sun (Live In Brighton, 1972)
-The Dark Side Of The Moon, 2003 documentary (25 min)
- Concert Screen Films in LPCM Stereo and 5.1 Surround Mixes* (59 min)
British Tour 1974, French Tour 1974, North American Tour 1975
* Previously unreleased

Subtitles: English, Francais, Italiano, Deutsch, Espanol, Portugues, Chinese, Japanese

Pink Floyd - The Dark Side Of The Moon (2011) [Immersion Edition, Box Set 3CD+2DVD+1Blu-ray]

Pink Floyd - The Dark Side Of The Moon (2011) [Immersion Edition, Box Set 3CD+2DVD+1Blu-ray]
Pink Floyd - The Dark Side Of The Moon (2011) [Immersion Edition, Box Set 3CD+2DVD+1Blu-ray]


Pink Floyd - The Dark Side Of The Moon (2011) [Immersion Edition, Box Set 3CD+2DVD+1Blu-ray]


Disc 5: Blu-ray - High Res. Audio and Visual Material


-AUDIO: The Dark Side Of The Moon, James Guthrie 2003 5.1 Surround Mix (previously released only on SACD) in high resolution audio at 96 kHz/24-bit
-AUDIO: The Dark Side Of The Moon, Original stereo mix (1973) mastered in high resolution audio at 96 kHz/24-bit
-AUDIO VISUAL: Live In Brighton 1972:
Careful With That Axe, Eugene (previously unreleased on DVD/BluRay)
Set The Controls For The Heart Of The Sun (previously unreleased on DVD/BluRay)
-AUDIO VISUAL: The Dark Side Of The Moon, 2003 documentary (EPK)
-AUDIO VISUAL: Concert Screen Films (5.1 Surround Mix):

British Tour 1974
French Tour 1974
North American Tour 1975

-AUDIO VISUAL: Concert Screen Films (High Resolution Stereo Mix):

British Tour 1974
French Tour 1974
North American Tour 1975

Subtitles: English, French, Italian, German, Spanish, Portuguese, Chinese, Japanese

Pink Floyd - The Dark Side Of The Moon (2011) [Immersion Edition, Box Set 3CD+2DVD+1Blu-ray]
Pink Floyd - The Dark Side Of The Moon (2011) [Immersion Edition, Box Set 3CD+2DVD+1Blu-ray]

Pink Floyd - The Dark Side Of The Moon (2011) [Immersion Edition, Box Set 3CD+2DVD+1Blu-ray]
Pink Floyd - The Dark Side Of The Moon (2011) [Immersion Edition, Box Set 3CD+2DVD+1Blu-ray]
Pink Floyd - The Dark Side Of The Moon (2011) [Immersion Edition, Box Set 3CD+2DVD+1Blu-ray]
Pink Floyd - The Dark Side Of The Moon (2011) [Immersion Edition, Box Set 3CD+2DVD+1Blu-ray]
Pink Floyd - The Dark Side Of The Moon (2011) [Immersion Edition, Box Set 3CD+2DVD+1Blu-ray]
Pink Floyd - The Dark Side Of The Moon (2011) [Immersion Edition, Box Set 3CD+2DVD+1Blu-ray]
Pink Floyd - The Dark Side Of The Moon (2011) [Immersion Edition, Box Set 3CD+2DVD+1Blu-ray]
Pink Floyd - The Dark Side Of The Moon (2011) [Immersion Edition, Box Set 3CD+2DVD+1Blu-ray]


Pink Floyd - The Dark Side Of The Moon (2011) [Immersion Edition, Box Set 3CD+2DVD+1Blu-ray]


Disc 6: Extra Audio Tracks


01. Breathe (In The Air) [Early Mix 1972] (3:10)
02. On The Run [Early Mix 1972] (3:30)
03. Time [Early Mix 1972] (6:56)
04. The Great Gig In The Sky [Early Mix 1972] (4:11)
05. Money [Early Mix 1972] (6:52)
06. Us And Them [Early Mix 1972] (7:15)
07. Any Colour You Like [Early Mix 1972] (3:25)
08. Brain Damage [Early Mix 1972] (3:50)
09. Eclipse [Early Mix 1972] (1:38)
10. The Hard Way (Household Objects Project) (3:09)
11. Us And Them (Richard Wright Demo) (5:39)
12. The Travel Sequence (Live 1972 (4:36)
13. The Morality Sequence (Live 1972) (3:24)
14. Any Colour You Like (Live 1972) (4:44)
15. The Travel Sequence (prev. unreleased) (2:21)
16. Money (Roger Waters Demo) (2:37)

-The Dark Side Of The Moon 1972 Early Album Mix engineered by Alan Parsons (previously unreleased)
- The Hard Way (from ‘Household Objects’ project)
- Us And Them, Richard Wright Demo (previously unreleased)
- The Travel Sequence, live from Brighton June 1972 (previously unreleased)
- The Mortality Sequence, live from Brighton June 1972 (previously unreleased)
- Any Colour You Like, live from Brighton June 1972 (previously unreleased)
- The Travel Sequence, studio recording 1972 (previously unreleased)
- Money, Roger Waters’ demo (previously unreleased)

All lyrics by Roger Waters
Produced by (in alphabetical order) Bob Ezrin, David Gilmour, Roger Waters

Co-produced and Engineered by James Guthrie
Digitally remastered by James Guthrie

PLUS: Full Scans

56 Page 27cm x 27cm booklet designed by Storm Thorgerson
Exclusive photo book
27cm x 27cm Exclusive Gerald Scarfe Art Print
4 x Collectors’ Cards featuring art and lyrics
Replica of The Wall Tour Ticket
Replica of The Wall Backstage Pass
Scarf
Prints/Cards of Mark Fisher’s stage drawings
3 x white marbles with design of bricks
9 x Coasters (unique to this box)
8 page credits booklet
96cm x 81cm booklet with all lyrics handwritten by Gerald Scarfe

Pink Floyd - The Dark Side Of The Moon (2011) [Immersion Edition, Box Set 3CD+2DVD+1Blu-ray]
Pink Floyd - The Dark Side Of The Moon (2011) [Immersion Edition, Box Set 3CD+2DVD+1Blu-ray]


Exact Audio Copy V1.0 beta 3 from 29. August 2011

EAC extraction logfile from 9. January 2013, 9:58

Pink Floyd / The Dark Side Of The Moon (Remaster 2011) [EMI - 5099902895529]

Used drive : ATAPI iHAS124 B Adapter: 2 ID: 0

Read mode : Secure
Utilize accurate stream : Yes
Defeat audio cache : Yes
Make use of C2 pointers : No

Read offset correction : 6
Overread into Lead-In and Lead-Out : No
Fill up missing offset samples with silence : Yes
Delete leading and trailing silent blocks : No
Null samples used in CRC calculations : Yes
Used interface : Native Win32 interface for Win NT & 2000

Used output format : User Defined Encoder
Selected bitrate : 1024 kBit/s
Quality : High
Add ID3 tag : No
Command line compressor : C:\Program Files (x86)\Exact Audio Copy\FLAC\FLAC.EXE
Additional command line options : -8 -V -T "ARTIST=%artist%" -T "TITLE=%title%" -T "ALBUM=%albumtitle%" -T "DATE=%year%" -T "TRACKNUMBER=%tracknr%" -T "GENRE=%genre%" -T "PERFORMER=%albuminterpret%" -T "COMPOSER=%composer%" %haslyrics%–tag-from-file=LYRICS="%lyricsfile%"%haslyrics% -T "ALBUMARTIST=%albumartist%" -T "DISCNUMBER=%cdnumber%" -T "TOTALDISCS=%totalcds%" -T "TOTALTRACKS=%numtracks%" -T "COMMENT=%comment%" %source% -o %dest%


TOC of the extracted CD

Track | Start | Length | Start sector | End sector
––––––––––––––––––––––––––––-
1 | 0:02.00 | 1:07.13 | 150 | 5187
2 | 1:09.13 | 2:49.40 | 5188 | 17902
3 | 3:58.53 | 3:45.29 | 17903 | 34806
4 | 7:44.07 | 6:53.29 | 34807 | 65810
5 | 14:37.36 | 4:44.05 | 65811 | 87115
6 | 19:21.41 | 6:23.15 | 87116 | 115855
7 | 25:44.56 | 7:49.17 | 115856 | 151047
8 | 33:33.73 | 3:26.32 | 151048 | 166529
9 | 37:00.30 | 3:46.50 | 166530 | 183529
10 | 40:47.05 | 2:12.45 | 183530 | 193474


Range status and errors

Selected range

Filename G:\CD\Pink Floyd - The Dark Side Of The Moon CD1 (2011).wav

Peak level 100.0 %
Extraction speed 5.2 X
Range quality 99.9 %
Test CRC F6D7255B
Copy CRC F6D7255B
Copy OK

No errors occurred


AccurateRip summary

Track 1 accurately ripped (confidence 30) [CA52D863] (AR v2)
Track 2 accurately ripped (confidence 29) [D42FC629] (AR v2)
Track 3 accurately ripped (confidence 29) [CDEFC4DB] (AR v2)
Track 4 accurately ripped (confidence 29) [BF67ADC3] (AR v2)
Track 5 accurately ripped (confidence 29) [659BE70B] (AR v2)
Track 6 accurately ripped (confidence 29) [17BEA0DB] (AR v2)
Track 7 accurately ripped (confidence 29) [58662A1D] (AR v2)
Track 8 accurately ripped (confidence 28) [0D969105] (AR v2)
Track 9 accurately ripped (confidence 29) [92D4AE12] (AR v2)
Track 10 accurately ripped (confidence 28) [6F4AAE70] (AR v2)

All tracks accurately ripped

End of status report

==== Log checksum 0D7881ABF74BA6A6B4A1EA632D17E90E98436B2898171D3FEBBBE9327ABB6C7C ====

Exact Audio Copy V1.0 beta 3 from 29. August 2011

EAC extraction logfile from 9. January 2013, 10:22

Pink Floyd / The Dark Side Of The Moon (Immersion Edition) CD2

Used drive : ATAPI iHAS124 B Adapter: 2 ID: 0

Read mode : Secure
Utilize accurate stream : Yes
Defeat audio cache : Yes
Make use of C2 pointers : No

Read offset correction : 6
Overread into Lead-In and Lead-Out : No
Fill up missing offset samples with silence : Yes
Delete leading and trailing silent blocks : No
Null samples used in CRC calculations : Yes
Used interface : Native Win32 interface for Win NT & 2000

Used output format : User Defined Encoder
Selected bitrate : 1024 kBit/s
Quality : High
Add ID3 tag : No
Command line compressor : C:\Program Files (x86)\Exact Audio Copy\FLAC\FLAC.EXE
Additional command line options : -8 -V -T "ARTIST=%artist%" -T "TITLE=%title%" -T "ALBUM=%albumtitle%" -T "DATE=%year%" -T "TRACKNUMBER=%tracknr%" -T "GENRE=%genre%" -T "PERFORMER=%albuminterpret%" -T "COMPOSER=%composer%" %haslyrics%–tag-from-file=LYRICS="%lyricsfile%"%haslyrics% -T "ALBUMARTIST=%albumartist%" -T "DISCNUMBER=%cdnumber%" -T "TOTALDISCS=%totalcds%" -T "TOTALTRACKS=%numtracks%" -T "COMMENT=%comment%" %source% -o %dest%


TOC of the extracted CD

Track | Start | Length | Start sector | End sector
––––––––––––––––––––––––––––-
1 | 0:00.00 | 2:45.69 | 0 | 12443
2 | 2:45.69 | 2:50.74 | 12444 | 25267
3 | 5:36.68 | 5:08.54 | 25268 | 48421
4 | 10:45.47 | 6:31.40 | 48422 | 77786
5 | 17:17.12 | 6:50.04 | 77787 | 108540
6 | 24:07.16 | 8:41.00 | 108541 | 147615
7 | 32:48.16 | 8:09.50 | 147616 | 184340
8 | 40:57.66 | 8:10.64 | 184341 | 221154
9 | 49:08.55 | 3:43.59 | 221155 | 237938
10 | 52:52.39 | 2:19.02 | 237939 | 248365


Range status and errors

Selected range

Filename G:\CD\Pink Floyd - The Dark Side Of The Moon CD2 (2011).wav

Peak level 99.6 %
Extraction speed 6.1 X
Range quality 100.0 %
Test CRC 570225BE
Copy CRC 570225BE
Copy OK

No errors occurred


AccurateRip summary

Track 1 accurately ripped (confidence 11) [C015AB30] (AR v2)
Track 2 accurately ripped (confidence 12) [09AECF38] (AR v2)
Track 3 accurately ripped (confidence 12) [1A7977B9] (AR v2)
Track 4 accurately ripped (confidence 12) [82FD8DE0] (AR v2)
Track 5 accurately ripped (confidence 12) [DAB735F8] (AR v2)
Track 6 accurately ripped (confidence 12) [3644570A] (AR v2)
Track 7 accurately ripped (confidence 12) [CD8AAFE4] (AR v2)
Track 8 accurately ripped (confidence 12) [B2BBF482] (AR v2)
Track 9 accurately ripped (confidence 12) [C3C0D047] (AR v2)
Track 10 accurately ripped (confidence 12) [92BEEF21] (AR v2)

All tracks accurately ripped

End of status report

==== Log checksum 6F39829CF66F5E687ADCA97720B16A90D03689C76D482E05DDC75269BDB68C80 ====

Size: 2.12 Gb ( 2 218 742,00 KBytes ) - DVD-5
Enabled regions: 1, 2, 3, 4, 5, 6, 7, 8

VTS_01 :
Play Length: 00:00:00+00:00:00
Video: NTSC 16:9 (720x480) VBR, Auto Letterboxed

VTS_02 :
Play Length: 00:43:06+{00:00:01}+00:00:00+00:00:04+00:00:04+00:00:04+00:00:04+00:00:04+{00:00:01}+{00:00:01}+00:00:06+00:00:06+00:00:06+00:00:06+00:00:06
Video: NTSC 16:9 (720x480) VBR, Auto Letterboxed
Audio:
English, AC3, 3/2 (L,C,R,SL,SR)+LFE ch, 448 kbps, Delay 1001 mSec
English, AC3, 3/2 (L,C,R,SL,SR)+LFE ch, 640 kbps, Delay 1001 mSec
English, LPCM, Delay = 1001 mSec
English, AC3, 2/2 (L,R,SL,SR) ch, 448 kbps, Delay 1001 mSec
English, AC3, 2/2 (L,R,SL,SR) ch, 640 kbps, Delay 1001 mSec


VTS_03 :
Play Length: 00:00:16+00:00:16+00:00:16+00:00:16+00:00:16+00:00:16+00:00:00+00:00:04+00:00:04+00:00:04+00:00:03+00:00:03+00:00:04+{00:00:00}+00:00:00+00:00:00+00:00:00+00:00:00+00:00:00
Video: NTSC 16:9 (720x480) VBR, Auto Letterboxed
Audio:
English, AC3, 3/2 (L,C,R,SL,SR)+LFE ch, 448 kbps, Delay 0 mSec

Subtitles:
English

VTS_04 :
Play Length: 00:00:06+00:00:12+00:00:00+{00:00:00}
Video: NTSC 16:9 (720x480) VBR, Auto Letterboxed
Audio:
English, AC3, 2/0 (L,R) ch, 448 kbps, Delay 0 mSec
English, AC3, 2/0 (L,R) ch, 448 kbps, Delay 0 mSec
English, AC3, 2/0 (L,R) ch, 448 kbps, Delay 0 mSec
English, AC3, 2/0 (L,R) ch, 448 kbps, Delay 0 mSec
English, AC3, 2/0 (L,R) ch, 448 kbps, Delay 0 mSec

Size: 7.14 Gb ( 7 483 760,00 KBytes ) - DVD-9
Enabled regions: 1, 2, 3, 4, 5, 6, 7, 8

VTS_01 :
Play Length: 00:00:00
Video: NTSC 16:9 (720x480) VBR, Auto Letterboxed

VTS_02 :
Play Length: 00:07:44+00:09:13+00:16:37+00:18:32+00:24:05+00:25:32+{00:59:14}+00:00:00
Video: NTSC 16:9 (720x480) VBR, Auto Letterboxed
Audio:
English, LPCM, Delay = 0 mSec
English,

Subtitles:
English
Francais
Italiano
Deutsch
Espanol
Portugues
Chinese
Japanese

VTS_03 :
Play Length: 00:18:12
Video: NTSC 16:9 (720x480) VBR, Auto Letterboxed
Audio:
English, AC3, 2/0 (L,R) ch, 192 kbps, Delay 0 mSec

Disc Title: The Dark Side Of The Moon (Immersion Box - Disc 5)
Disc Size: 36 861 475 195 bytes
Protection: AACS
BD-Java: Yes
BDInfo: 0.5.6

Notes:

BDINFO HOME:
Cinema Squid
http://www.cinemasquid.com/blu-ray/tools/bdinfo

INCLUDES FORUMS REPORT FOR:
AVS Forum Blu-ray Audio and Video Specifications Thread
http://www.avsforum.com/avs-vb/showthread.php?t=1155731

********************
PLAYLIST: 00011.MPLS
********************

<–- BEGIN FORUMS PASTE –->
Код:
Total Video
Title Codec Length Movie Size Disc Size Bitrate Bitrate Main Audio Track Secondary Audio Track
––- ––– –––- ––––––– ––––––– –––- –––- ––––––––– ––––––––––-
00011.MPLS AVC 0:43:26 10 264 172 544 36 861 475 195 31,50 1,99 LPCM 5.1 13824Kbps (96kHz/24-bit) LPCM 4.0 9216Kbps (96kHz/24-bit)
Код:
DISC INFO:

Disc Title: The Dark Side Of The Moon (Immersion Box - Disc 5)
Disc Size: 36 861 475 195 bytes
Protection: AACS
BD-Java: Yes
BDInfo: 0.5.6

PLAYLIST REPORT:

Name: 00011.MPLS
Length: 0:43:26 (h:m:s)
Size: 10 264 172 544 bytes
Total Bitrate: 31,50 Mbps

VIDEO:

Codec Bitrate Description
––- –––- –––––-
MPEG-4 AVC Video 1989 kbps 1080i / 29,970 fps / 16:9 / High Profile 4.1

AUDIO:

Codec Language Bitrate Description
––- –––– –––- –––––-
LPCM Audio English 13824 kbps 5.1 / 96 kHz / 13824 kbps / 24-bit
LPCM Audio English 9216 kbps 4.0 / 96 kHz / 9216 kbps / 24-bit
LPCM Audio English 4608 kbps 2.0 / 96 kHz / 4608 kbps / 24-bit

FILES:

Name Time In Length Size Total Bitrate
–– –––- ––– –– ––––––-
00014.M2TS 0:00:00.000 0:43:25.936 10 264 154 112 31 510
00011.M2TS 0:43:25.936 0:00:00.500 18 432 295

CHAPTERS:

Number Time In Length Avg Video Rate Max 1-Sec Rate Max 1-Sec Time Max 5-Sec Rate Max 5-Sec Time Max 10Sec Rate Max 10Sec Time Avg Frame Size Max Frame Size Max Frame Time
––– –––- ––– ––––––– ––––––– ––––––– ––––––– ––––––– ––––––– ––––––– ––––––– ––––––– –––––––
1 0:00:00.000 0:01:12.672 1 616 kbps 2 000 kbps 00:00:17.684 2 000 kbps 00:00:16.983 2 000 kbps 00:00:23.890 6 735 bytes 8 342 bytes 00:00:14.948
2 0:01:12.672 0:02:51.171 2 000 kbps 2 000 kbps 00:01:12.672 2 000 kbps 00:01:12.672 2 000 kbps 00:01:12.672 8 342 bytes 8 342 bytes 00:01:12.705
3 0:04:03.843 0:03:31.411 2 000 kbps 2 000 kbps 00:04:03.843 2 000 kbps 00:04:03.843 2 000 kbps 00:04:03.843 8 342 bytes 8 342 bytes 00:04:03.876
4 0:07:35.254 0:07:07.627 2 000 kbps 2 000 kbps 00:08:29.976 2 000 kbps 00:08:25.972 2 000 kbps 00:08:20.967 8 342 bytes 8 342 bytes 00:07:35.288
5 0:14:42.881 0:04:42.882 2 000 kbps 2 000 kbps 00:19:10.716 2 000 kbps 00:19:06.712 2 000 kbps 00:19:01.707 8 342 bytes 8 342 bytes 00:14:42.915
6 0:19:25.764 0:06:25.585 2 000 kbps 2 000 kbps 00:19:25.764 2 000 kbps 00:19:25.764 2 000 kbps 00:19:25.764 8 342 bytes 8 342 bytes 00:19:25.797
7 0:25:51.349 0:07:48.467 2 000 kbps 2 000 kbps 00:25:51.349 2 000 kbps 00:25:51.349 2 000 kbps 00:25:51.349 8 342 bytes 8 342 bytes 00:25:51.383
8 0:33:39.817 0:03:25.405 2 000 kbps 2 000 kbps 00:33:39.817 2 000 kbps 00:33:39.817 2 000 kbps 00:33:39.817 8 342 bytes 8 342 bytes 00:33:39.851
9 0:37:05.223 0:03:51.831 2 000 kbps 2 000 kbps 00:37:05.223 2 000 kbps 00:37:05.223 2 000 kbps 00:37:05.223 8 342 bytes 8 342 bytes 00:37:05.256
10 0:40:57.054 0:02:29.382 1 993 kbps 2 000 kbps 00:43:24.902 2 000 kbps 00:43:20.898 2 000 kbps 00:43:15.893 8 316 bytes 8 346 bytes 00:43:25.903

STREAM DIAGNOSTICS:

File PID Type Codec Language Seconds Bitrate Bytes Packets
–– –- –– ––- –––– ––––––– ––––––– ––––––- ––-
00014.M2TS 4113 (0x1011) 0x1B AVC 2605,803 1 989 647 984 240 3 573 623
00014.M2TS 4352 (0x1100) 0x80 LPCM eng (English) 2605,803 13 828 4 504 276 028 25 012 176
00014.M2TS 4353 (0x1101) 0x80 LPCM eng (English) 2605,803 4 571 1 488 989 012 8 260 688
00014.M2TS 4354 (0x1102) 0x80 LPCM eng (English) 2605,803 9 138 2 976 627 588 16 525 344
00011.M2TS 4113 (0x1011) 0x1B AVC 0,400 163 8 152 56
<–– END FORUMS PASTE ––>

QUICK SUMMARY:

Disc Title: The Dark Side Of The Moon (Immersion Box - Disc 5)
Disc Size: 36 861 475 195 bytes
Protection: AACS
BD-Java: Yes
Playlist: 00011.MPLS
Size: 10 264 172 544 bytes
Length: 0:43:26
Total Bitrate: 31,50 Mbps
Video: MPEG-4 AVC Video / 1989 kbps / 1080i / 29,970 fps / 16:9 / High Profile 4.1
Audio: English / LPCM Audio / 5.1 / 96 kHz / 13824 kbps / 24-bit
Audio: English / LPCM Audio / 4.0 / 96 kHz / 9216 kbps / 24-bit
Audio: English / LPCM Audio / 2.0 / 96 kHz / 4608 kbps / 24-bit

********************
PLAYLIST: 00027.MPLS
********************

<–- BEGIN FORUMS PASTE –->
Код:
Total Video
Title Codec Length Movie Size Disc Size Bitrate Bitrate Main Audio Track Secondary Audio Track
––- ––– –––- ––––––– ––––––– –––- –––- ––––––––– ––––––––––-
00027.MPLS AVC 0:43:26 10 264 172 544 36 861 475 195 31,50 1,99 LPCM 5.1 13824Kbps (96kHz/24-bit) LPCM 4.0 9216Kbps (96kHz/24-bit)
Код:
DISC INFO:

Disc Title: The Dark Side Of The Moon (Immersion Box - Disc 5)
Disc Size: 36 861 475 195 bytes
Protection: AACS
BD-Java: Yes
BDInfo: 0.5.6

PLAYLIST REPORT:

Name: 00027.MPLS
Length: 0:43:26 (h:m:s)
Size: 10 264 172 544 bytes
Total Bitrate: 31,50 Mbps

VIDEO:

Codec Bitrate Description
––- –––- –––––-
MPEG-4 AVC Video 1989 kbps 1080i / 29,970 fps / 16:9 / High Profile 4.1

AUDIO:

Codec Language Bitrate Description
––- –––– –––- –––––-
LPCM Audio English 13824 kbps 5.1 / 96 kHz / 13824 kbps / 24-bit
LPCM Audio English 9216 kbps 4.0 / 96 kHz / 9216 kbps / 24-bit
LPCM Audio English 4608 kbps 2.0 / 96 kHz / 4608 kbps / 24-bit

FILES:

Name Time In Length Size Total Bitrate
–– –––- ––– –– ––––––-
00014.M2TS 0:00:00.000 0:43:25.936 10 264 154 112 31 510
00011.M2TS 0:43:25.936 0:00:00.500 18 432 295

CHAPTERS:

Number Time In Length Avg Video Rate Max 1-Sec Rate Max 1-Sec Time Max 5-Sec Rate Max 5-Sec Time Max 10Sec Rate Max 10Sec Time Avg Frame Size Max Frame Size Max Frame Time
––– –––- ––– ––––––– ––––––– ––––––– ––––––– ––––––– ––––––– ––––––– ––––––– ––––––– –––––––
1 0:00:00.000 0:01:12.672 1 616 kbps 2 000 kbps 00:00:17.684 2 000 kbps 00:00:16.983 2 000 kbps 00:00:23.890 6 735 bytes 8 342 bytes 00:00:14.948
2 0:01:12.672 0:02:51.171 2 000 kbps 2 000 kbps 00:01:12.672 2 000 kbps 00:01:12.672 2 000 kbps 00:01:12.672 8 342 bytes 8 342 bytes 00:01:12.705
3 0:04:03.843 0:03:31.411 2 000 kbps 2 000 kbps 00:04:03.843 2 000 kbps 00:04:03.843 2 000 kbps 00:04:03.843 8 342 bytes 8 342 bytes 00:04:03.876
4 0:07:35.254 0:07:07.627 2 000 kbps 2 000 kbps 00:08:29.976 2 000 kbps 00:08:25.972 2 000 kbps 00:08:20.967 8 342 bytes 8 342 bytes 00:07:35.288
5 0:14:42.881 0:04:42.882 2 000 kbps 2 000 kbps 00:19:10.716 2 000 kbps 00:19:06.712 2 000 kbps 00:19:01.707 8 342 bytes 8 342 bytes 00:14:42.915
6 0:19:25.764 0:06:25.585 2 000 kbps 2 000 kbps 00:19:25.764 2 000 kbps 00:19:25.764 2 000 kbps 00:19:25.764 8 342 bytes 8 342 bytes 00:19:25.797
7 0:25:51.349 0:07:48.467 2 000 kbps 2 000 kbps 00:25:51.349 2 000 kbps 00:25:51.349 2 000 kbps 00:25:51.349 8 342 bytes 8 342 bytes 00:25:51.383
8 0:33:39.817 0:03:25.405 2 000 kbps 2 000 kbps 00:33:39.817 2 000 kbps 00:33:39.817 2 000 kbps 00:33:39.817 8 342 bytes 8 342 bytes 00:33:39.851
9 0:37:05.223 0:03:51.831 2 000 kbps 2 000 kbps 00:37:05.223 2 000 kbps 00:37:05.223 2 000 kbps 00:37:05.223 8 342 bytes 8 342 bytes 00:37:05.256
10 0:40:57.054 0:02:29.382 1 993 kbps 2 000 kbps 00:43:24.902 2 000 kbps 00:43:20.898 2 000 kbps 00:43:15.893 8 316 bytes 8 346 bytes 00:43:25.903

STREAM DIAGNOSTICS:

File PID Type Codec Language Seconds Bitrate Bytes Packets
–– –- –– ––- –––– ––––––– ––––––– ––––––- ––-
00014.M2TS 4113 (0x1011) 0x1B AVC 2605,803 1 989 647 984 240 3 573 623
00014.M2TS 4352 (0x1100) 0x80 LPCM eng (English) 2605,803 13 828 4 504 276 028 25 012 176
00014.M2TS 4353 (0x1101) 0x80 LPCM eng (English) 2605,803 4 571 1 488 989 012 8 260 688
00014.M2TS 4354 (0x1102) 0x80 LPCM eng (English) 2605,803 9 138 2 976 627 588 16 525 344
00011.M2TS 4113 (0x1011) 0x1B AVC 0,400 163 8 152 56
<–– END FORUMS PASTE ––>

QUICK SUMMARY:

Disc Title: The Dark Side Of The Moon (Immersion Box - Disc 5)
Disc Size: 36 861 475 195 bytes
Protection: AACS
BD-Java: Yes
Playlist: 00027.MPLS
Size: 10 264 172 544 bytes
Length: 0:43:26
Total Bitrate: 31,50 Mbps
Video: MPEG-4 AVC Video / 1989 kbps / 1080i / 29,970 fps / 16:9 / High Profile 4.1
Audio: English / LPCM Audio / 5.1 / 96 kHz / 13824 kbps / 24-bit
Audio: English / LPCM Audio / 4.0 / 96 kHz / 9216 kbps / 24-bit
Audio: English / LPCM Audio / 2.0 / 96 kHz / 4608 kbps / 24-bit

********************
PLAYLIST: 00013.MPLS
********************

<–- BEGIN FORUMS PASTE –->
Код:
Total Video
Title Codec Length Movie Size Disc Size Bitrate Bitrate Main Audio Track Secondary Audio Track
––- ––– –––- ––––––– ––––––– –––- –––- ––––––––– ––––––––––-
00013.MPLS AVC 0:25:33 4 899 360 768 36 861 475 195 25,57 22,25 LPCM 2.0 1536Kbps (48kHz/16-bit)
Код:
DISC INFO:

Disc Title: The Dark Side Of The Moon (Immersion Box - Disc 5)
Disc Size: 36 861 475 195 bytes
Protection: AACS
BD-Java: Yes
BDInfo: 0.5.6

PLAYLIST REPORT:

Name: 00013.MPLS
Length: 0:25:33 (h:m:s)
Size: 4 899 360 768 bytes
Total Bitrate: 25,57 Mbps

VIDEO:

Codec Bitrate Description
––- –––- –––––-
MPEG-4 AVC Video 22254 kbps 1080i / 29,970 fps / 16:9 / High Profile 4.1

AUDIO:

Codec Language Bitrate Description
––- –––– –––- –––––-
LPCM Audio English 1536 kbps 2.0 / 48 kHz / 1536 kbps / 16-bit

SUBTITLES:

Codec Language Bitrate Description
––- –––– –––- –––––-
Presentation Graphics English 54,437 kbps
Presentation Graphics Chinese 42,859 kbps
Presentation Graphics French 51,049 kbps
Presentation Graphics German 54,819 kbps
Presentation Graphics Italian 49,493 kbps
Presentation Graphics Japanese 34,515 kbps
Presentation Graphics Portuguese 48,308 kbps
Presentation Graphics Spanish 53,365 kbps

FILES:

Name Time In Length Size Total Bitrate
–– –––- ––– –– ––––––-
00017.M2TS 0:00:00.000 0:25:32.597 4 899 342 336 25 574
00011.M2TS 0:25:32.597 0:00:00.500 18 432 295

CHAPTERS:

Number Time In Length Avg Video Rate Max 1-Sec Rate Max 1-Sec Time Max 5-Sec Rate Max 5-Sec Time Max 10Sec Rate Max 10Sec Time Avg Frame Size Max Frame Size Max Frame Time
––– –––- ––– ––––––– ––––––– ––––––– ––––––– ––––––– ––––––– ––––––– ––––––– ––––––– –––––––
1 0:00:00.000 0:05:48.715 23 380 kbps 36 341 kbps 00:00:39.606 31 769 kbps 00:00:37.203 29 340 kbps 00:04:09.148 97 504 bytes 466 632 bytes 00:03:59.072
2 0:05:48.715 0:04:29.602 20 382 kbps 35 837 kbps 00:08:24.270 32 817 kbps 00:08:21.868 31 823 kbps 00:08:17.096 85 008 bytes 505 656 bytes 00:07:00.186
3 0:10:18.317 0:05:42.809 23 602 kbps 39 626 kbps 00:11:24.950 32 957 kbps 00:13:12.525 31 451 kbps 00:14:47.586 98 440 bytes 610 702 bytes 00:15:28.527
4 0:16:01.126 0:05:08.975 22 756 kbps 33 388 kbps 00:20:19.017 30 838 kbps 00:16:08.000 29 788 kbps 00:20:28.560 94 912 bytes 711 972 bytes 00:17:48.534
5 0:21:10.102 0:04:22.996 20 336 kbps 37 272 kbps 00:23:17.262 32 910 kbps 00:23:15.927 31 811 kbps 00:23:15.427 84 829 bytes 447 183 bytes 00:23:16.261

STREAM DIAGNOSTICS:

File PID Type Codec Language Seconds Bitrate Bytes Packets
–– –- –– ––- –––– ––––––– ––––––– ––––––- ––-
00017.M2TS 4113 (0x1011) 0x1B AVC 1532,531 22 263 4 264 762 053 23 204 908
00017.M2TS 4352 (0x1100) 0x80 LPCM eng (English) 1532,531 1 542 295 485 280 1 839 120
00017.M2TS 4608 (0x1200) 0x90 PGS eng (English) 1532,531 54 10 432 241 58 796
00017.M2TS 4609 (0x1201) 0x90 PGS fra (French) 1532,531 51 9 782 834 55 293
00017.M2TS 4610 (0x1202) 0x90 PGS ita (Italian) 1532,531 50 9 484 657 53 677
00017.M2TS 4611 (0x1203) 0x90 PGS deu (German) 1532,531 55 10 505 442 59 217
00017.M2TS 4612 (0x1204) 0x90 PGS spa (Spanish) 1532,531 53 10 226 814 57 715
00017.M2TS 4613 (0x1205) 0x90 PGS por (Portuguese) 1532,531 48 9 257 587 52 445
00017.M2TS 4614 (0x1206) 0x90 PGS zho (Chinese) 1532,531 43 8 213 364 46 770
00017.M2TS 4615 (0x1207) 0x90 PGS jpn (Japanese) 1532,531 35 6 614 399 38 118
00011.M2TS 4113 (0x1011) 0x1B AVC 0,400 163 8 152 56
<–– END FORUMS PASTE ––>

QUICK SUMMARY:

Disc Title: The Dark Side Of The Moon (Immersion Box - Disc 5)
Disc Size: 36 861 475 195 bytes
Protection: AACS
BD-Java: Yes
Playlist: 00013.MPLS
Size: 4 899 360 768 bytes
Length: 0:25:33
Total Bitrate: 25,57 Mbps
Video: MPEG-4 AVC Video / 22254 kbps / 1080i / 29,970 fps / 16:9 / High Profile 4.1
Audio: English / LPCM Audio / 2.0 / 48 kHz / 1536 kbps / 16-bit
Subtitle: English / 54,437 kbps
Subtitle: Chinese / 42,859 kbps
Subtitle: French / 51,049 kbps
Subtitle: German / 54,819 kbps
Subtitle: Italian / 49,493 kbps
Subtitle: Japanese / 34,515 kbps
Subtitle: Portuguese / 48,308 kbps
Subtitle: Spanish / 53,365 kbps

********************
PLAYLIST: 00023.MPLS
********************

<–- BEGIN FORUMS PASTE –->
Код:
Total Video
Title Codec Length Movie Size Disc Size Bitrate Bitrate Main Audio Track Secondary Audio Track
––- ––– –––- ––––––– ––––––– –––- –––- ––––––––– ––––––––––-
00023.MPLS AVC 0:25:33 4 899 360 768 36 861 475 195 25,57 22,25 LPCM 2.0 1536Kbps (48kHz/16-bit)
Код:
DISC INFO:

Disc Title: The Dark Side Of The Moon (Immersion Box - Disc 5)
Disc Size: 36 861 475 195 bytes
Protection: AACS
BD-Java: Yes
BDInfo: 0.5.6

PLAYLIST REPORT:

Name: 00023.MPLS
Length: 0:25:33 (h:m:s)
Size: 4 899 360 768 bytes
Total Bitrate: 25,57 Mbps

VIDEO:

Codec Bitrate Description
––- –––- –––––-
MPEG-4 AVC Video 22254 kbps 1080i / 29,970 fps / 16:9 / High Profile 4.1

AUDIO:

Codec Language Bitrate Description
––- –––– –––- –––––-
LPCM Audio English 1536 kbps 2.0 / 48 kHz / 1536 kbps / 16-bit

SUBTITLES:

Codec Language Bitrate Description
––- –––– –––- –––––-
Presentation Graphics English 54,437 kbps
Presentation Graphics Chinese 42,859 kbps
Presentation Graphics French 51,049 kbps
Presentation Graphics German 54,819 kbps
Presentation Graphics Italian 49,493 kbps
Presentation Graphics Japanese 34,515 kbps
Presentation Graphics Portuguese 48,308 kbps
Presentation Graphics Spanish 53,365 kbps

FILES:

Name Time In Length Size Total Bitrate
–– –––- ––– –– ––––––-
00017.M2TS 0:00:00.000 0:25:32.597 4 899 342 336 25 574
00011.M2TS 0:25:32.597 0:00:00.500 18 432 295

CHAPTERS:

Number Time In Length Avg Video Rate Max 1-Sec Rate Max 1-Sec Time Max 5-Sec Rate Max 5-Sec Time Max 10Sec Rate Max 10Sec Time Avg Frame Size Max Frame Size Max Frame Time
––– –––- ––– ––––––– ––––––– ––––––– ––––––– ––––––– ––––––– ––––––– ––––––– ––––––– –––––––
1 0:00:00.000 0:05:48.715 23 380 kbps 36 341 kbps 00:00:39.606 31 769 kbps 00:00:37.203 29 340 kbps 00:04:09.148 97 504 bytes 466 632 bytes 00:03:59.072
2 0:05:48.715 0:04:29.602 20 382 kbps 35 837 kbps 00:08:24.270 32 817 kbps 00:08:21.868 31 823 kbps 00:08:17.096 85 008 bytes 505 656 bytes 00:07:00.186
3 0:10:18.317 0:05:42.809 23 602 kbps 39 626 kbps 00:11:24.950 32 957 kbps 00:13:12.525 31 451 kbps 00:14:47.586 98 440 bytes 610 702 bytes 00:15:28.527
4 0:16:01.126 0:05:08.975 22 756 kbps 33 388 kbps 00:20:19.017 30 838 kbps 00:16:08.000 29 788 kbps 00:20:28.560 94 912 bytes 711 972 bytes 00:17:48.534
5 0:21:10.102 0:04:22.996 20 336 kbps 37 272 kbps 00:23:17.262 32 910 kbps 00:23:15.927 31 811 kbps 00:23:15.427 84 829 bytes 447 183 bytes 00:23:16.261

STREAM DIAGNOSTICS:

File PID Type Codec Language Seconds Bitrate Bytes Packets
–– –- –– ––- –––– ––––––– ––––––– ––––––- ––-
00017.M2TS 4113 (0x1011) 0x1B AVC 1532,531 22 263 4 264 762 053 23 204 908
00017.M2TS 4352 (0x1100) 0x80 LPCM eng (English) 1532,531 1 542 295 485 280 1 839 120
00017.M2TS 4608 (0x1200) 0x90 PGS eng (English) 1532,531 54 10 432 241 58 796
00017.M2TS 4609 (0x1201) 0x90 PGS fra (French) 1532,531 51 9 782 834 55 293
00017.M2TS 4610 (0x1202) 0x90 PGS ita (Italian) 1532,531 50 9 484 657 53 677
00017.M2TS 4611 (0x1203) 0x90 PGS deu (German) 1532,531 55 10 505 442 59 217
00017.M2TS 4612 (0x1204) 0x90 PGS spa (Spanish) 1532,531 53 10 226 814 57 715
00017.M2TS 4613 (0x1205) 0x90 PGS por (Portuguese) 1532,531 48 9 257 587 52 445
00017.M2TS 4614 (0x1206) 0x90 PGS zho (Chinese) 1532,531 43 8 213 364 46 770
00017.M2TS 4615 (0x1207) 0x90 PGS jpn (Japanese) 1532,531 35 6 614 399 38 118
00011.M2TS 4113 (0x1011) 0x1B AVC 0,400 163 8 152 56
<–– END FORUMS PASTE ––>

QUICK SUMMARY:

Disc Title: The Dark Side Of The Moon (Immersion Box - Disc 5)
Disc Size: 36 861 475 195 bytes
Protection: AACS
BD-Java: Yes
Playlist: 00023.MPLS
Size: 4 899 360 768 bytes
Length: 0:25:33
Total Bitrate: 25,57 Mbps
Video: MPEG-4 AVC Video / 22254 kbps / 1080i / 29,970 fps / 16:9 / High Profile 4.1
Audio: English / LPCM Audio / 2.0 / 48 kHz / 1536 kbps / 16-bit
Subtitle: English / 54,437 kbps
Subtitle: Chinese / 42,859 kbps
Subtitle: French / 51,049 kbps
Subtitle: German / 54,819 kbps
Subtitle: Italian / 49,493 kbps
Subtitle: Japanese / 34,515 kbps
Subtitle: Portuguese / 48,308 kbps
Subtitle: Spanish / 53,365 kbps

********************
PLAYLIST: 00015.MPLS
********************

<–- BEGIN FORUMS PASTE –->
Код:
Total Video
Title Codec Length Movie Size Disc Size Bitrate Bitrate Main Audio Track Secondary Audio Track
––- ––– –––- ––––––– ––––––– –––- –––- ––––––––– ––––––––––-
00015.MPLS AVC 0:24:06 6 360 256 512 36 861 475 195 35,17 24,21 LPCM 5.1 6912Kbps (48kHz/24-bit) LPCM 2.0 2304Kbps (48kHz/24-bit)
Код:
DISC INFO:

Disc Title: The Dark Side Of The Moon (Immersion Box - Disc 5)
Disc Size: 36 861 475 195 bytes
Protection: AACS
BD-Java: Yes
BDInfo: 0.5.6

PLAYLIST REPORT:

Name: 00015.MPLS
Length: 0:24:06 (h:m:s)
Size: 6 360 256 512 bytes
Total Bitrate: 35,17 Mbps

VIDEO:

Codec Bitrate Description
––- –––- –––––-
MPEG-4 AVC Video 24210 kbps 1080i / 29,970 fps / 16:9 / High Profile 4.1

AUDIO:

Codec Language Bitrate Description
––- –––– –––- –––––-
LPCM Audio English 6912 kbps 5.1 / 48 kHz / 6912 kbps / 24-bit
LPCM Audio English 2304 kbps 2.0 / 48 kHz / 2304 kbps / 24-bit

FILES:

Name Time In Length Size Total Bitrate
–– –––- ––– –– ––––––-
00019.M2TS 0:00:00.000 0:24:06.311 6 360 238 080 35 180
00011.M2TS 0:24:06.311 0:00:00.500 18 432 295

CHAPTERS:

Number Time In Length Avg Video Rate Max 1-Sec Rate Max 1-Sec Time Max 5-Sec Rate Max 5-Sec Time Max 10Sec Rate Max 10Sec Time Avg Frame Size Max Frame Size Max Frame Time
––– –––- ––– ––––––– ––––––– ––––––– ––––––– ––––––– ––––––– ––––––– ––––––– ––––––– –––––––
1 0:00:00.000 0:04:00.473 20 727 kbps 33 423 kbps 00:01:49.909 31 416 kbps 00:01:49.909 30 929 kbps 00:01:45.905 86 437 bytes 479 597 bytes 00:01:53.213
2 0:04:00.473 0:04:33.806 25 777 kbps 37 267 kbps 00:07:17.904 32 410 kbps 00:07:14.700 30 998 kbps 00:04:32.805 107 514 bytes 503 396 bytes 00:04:35.608
3 0:08:34.280 0:02:16.202 23 979 kbps 35 136 kbps 00:08:46.092 29 211 kbps 00:08:45.124 28 513 kbps 00:09:05.077 100 013 bytes 331 817 bytes 00:10:32.498
4 0:10:50.483 0:04:09.048 25 439 kbps 36 264 kbps 00:10:55.654 33 128 kbps 00:10:54.820 30 796 kbps 00:10:54.653 106 102 bytes 351 757 bytes 00:11:34.160
5 0:14:59.531 0:02:19.005 25 513 kbps 35 993 kbps 00:15:09.908 30 312 kbps 00:15:06.939 29 731 kbps 00:15:01.934 106 412 bytes 357 409 bytes 00:15:11.911
6 0:17:18.537 0:04:55.962 24 997 kbps 37 585 kbps 00:19:33.205 34 443 kbps 00:19:32.538 31 312 kbps 00:19:32.538 104 257 bytes 453 961 bytes 00:21:09.334
7 0:22:14.499 0:01:52.312 21 716 kbps 35 654 kbps 00:23:14.626 32 089 kbps 00:23:05.617 30 610 kbps 00:23:05.884 90 600 bytes 505 150 bytes 00:23:10.288

STREAM DIAGNOSTICS:

File PID Type Codec Language Seconds Bitrate Bytes Packets
–– –- –– ––- –––– ––––––– ––––––– ––––––- ––-
00019.M2TS 4113 (0x1011) 0x1B AVC 1446,245 24 220 4 378 426 399 23 821 536
00019.M2TS 4352 (0x1100) 0x80 LPCM eng (English) 1446,245 2 310 417 688 552 2 314 064
00019.M2TS 4353 (0x1101) 0x80 LPCM eng (English) 1446,245 6 919 1 250 747 268 6 942 168
00011.M2TS 4113 (0x1011) 0x1B AVC 0,400 163 8 152 56
<–– END FORUMS PASTE ––>

QUICK SUMMARY:

Disc Title: The Dark Side Of The Moon (Immersion Box - Disc 5)
Disc Size: 36 861 475 195 bytes
Protection: AACS
BD-Java: Yes
Playlist: 00015.MPLS
Size: 6 360 256 512 bytes
Length: 0:24:06
Total Bitrate: 35,17 Mbps
Video: MPEG-4 AVC Video / 24210 kbps / 1080i / 29,970 fps / 16:9 / High Profile 4.1
Audio: English / LPCM Audio / 5.1 / 48 kHz / 6912 kbps / 24-bit
Audio: English / LPCM Audio / 2.0 / 48 kHz / 2304 kbps / 24-bit

********************
PLAYLIST: 00025.MPLS
********************

<–- BEGIN FORUMS PASTE –->
Код:
Total Video
Title Codec Length Movie Size Disc Size Bitrate Bitrate Main Audio Track Secondary Audio Track
––- ––– –––- ––––––– ––––––– –––- –––- ––––––––– ––––––––––-
00025.MPLS AVC 0:24:06 6 360 256 512 36 861 475 195 35,17 24,21 LPCM 5.1 6912Kbps (48kHz/24-bit) LPCM 2.0 2304Kbps (48kHz/24-bit)
Код:
DISC INFO:

Disc Title: The Dark Side Of The Moon (Immersion Box - Disc 5)
Disc Size: 36 861 475 195 bytes
Protection: AACS
BD-Java: Yes
BDInfo: 0.5.6

PLAYLIST REPORT:

Name: 00025.MPLS
Length: 0:24:06 (h:m:s)
Size: 6 360 256 512 bytes
Total Bitrate: 35,17 Mbps

VIDEO:

Codec Bitrate Description
––- –––- –––––-
MPEG-4 AVC Video 24210 kbps 1080i / 29,970 fps / 16:9 / High Profile 4.1

AUDIO:

Codec Language Bitrate Description
––- –––– –––- –––––-
LPCM Audio English 6912 kbps 5.1 / 48 kHz / 6912 kbps / 24-bit
LPCM Audio English 2304 kbps 2.0 / 48 kHz / 2304 kbps / 24-bit

FILES:

Name Time In Length Size Total Bitrate
–– –––- ––– –– ––––––-
00019.M2TS 0:00:00.000 0:24:06.311 6 360 238 080 35 180
00011.M2TS 0:24:06.311 0:00:00.500 18 432 295

CHAPTERS:

Number Time In Length Avg Video Rate Max 1-Sec Rate Max 1-Sec Time Max 5-Sec Rate Max 5-Sec Time Max 10Sec Rate Max 10Sec Time Avg Frame Size Max Frame Size Max Frame Time
––– –––- ––– ––––––– ––––––– ––––––– ––––––– ––––––– ––––––– ––––––– ––––––– ––––––– –––––––
1 0:00:00.000 0:04:00.473 20 727 kbps 33 423 kbps 00:01:49.909 31 416 kbps 00:01:49.909 30 929 kbps 00:01:45.905 86 437 bytes 479 597 bytes 00:01:53.213
2 0:04:00.473 0:04:33.806 25 777 kbps 37 267 kbps 00:07:17.904 32 410 kbps 00:07:14.700 30 998 kbps 00:04:32.805 107 514 bytes 503 396 bytes 00:04:35.608
3 0:08:34.280 0:02:16.202 23 979 kbps 35 136 kbps 00:08:46.092 29 211 kbps 00:08:45.124 28 513 kbps 00:09:05.077 100 013 bytes 331 817 bytes 00:10:32.498
4 0:10:50.483 0:04:09.048 25 439 kbps 36 264 kbps 00:10:55.654 33 128 kbps 00:10:54.820 30 796 kbps 00:10:54.653 106 102 bytes 351 757 bytes 00:11:34.160
5 0:14:59.531 0:02:19.005 25 513 kbps 35 993 kbps 00:15:09.908 30 312 kbps 00:15:06.939 29 731 kbps 00:15:01.934 106 412 bytes 357 409 bytes 00:15:11.911
6 0:17:18.537 0:04:55.962 24 997 kbps 37 585 kbps 00:19:33.205 34 443 kbps 00:19:32.538 31 312 kbps 00:19:32.538 104 257 bytes 453 961 bytes 00:21:09.334
7 0:22:14.499 0:01:52.312 21 716 kbps 35 654 kbps 00:23:14.626 32 089 kbps 00:23:05.617 30 610 kbps 00:23:05.884 90 600 bytes 505 150 bytes 00:23:10.288

STREAM DIAGNOSTICS:

File PID Type Codec Language Seconds Bitrate Bytes Packets
–– –- –– ––- –––– ––––––– ––––––– ––––––- ––-
00019.M2TS 4113 (0x1011) 0x1B AVC 1446,245 24 220 4 378 426 399 23 821 536
00019.M2TS 4352 (0x1100) 0x80 LPCM eng (English) 1446,245 2 310 417 688 552 2 314 064
00019.M2TS 4353 (0x1101) 0x80 LPCM eng (English) 1446,245 6 919 1 250 747 268 6 942 168
00011.M2TS 4113 (0x1011) 0x1B AVC 0,400 163 8 152 56
<–– END FORUMS PASTE ––>

QUICK SUMMARY:

Disc Title: The Dark Side Of The Moon (Immersion Box - Disc 5)
Disc Size: 36 861 475 195 bytes
Protection: AACS
BD-Java: Yes
Playlist: 00025.MPLS
Size: 6 360 256 512 bytes
Length: 0:24:06
Total Bitrate: 35,17 Mbps
Video: MPEG-4 AVC Video / 24210 kbps / 1080i / 29,970 fps / 16:9 / High Profile 4.1
Audio: English / LPCM Audio / 5.1 / 48 kHz / 6912 kbps / 24-bit
Audio: English / LPCM Audio / 2.0 / 48 kHz / 2304 kbps / 24-bit

********************
PLAYLIST: 00014.MPLS
********************

<–- BEGIN FORUMS PASTE –->
Код:
Total Video
Title Codec Length Movie Size Disc Size Bitrate Bitrate Main Audio Track Secondary Audio Track
––- ––– –––- ––––––– ––––––– –––- –––- ––––––––– ––––––––––-
00014.MPLS AVC 0:18:33 4 784 977 920 36 861 475 195 34,38 23,45 LPCM 5.1 6912Kbps (48kHz/24-bit) LPCM 2.0 2304Kbps (48kHz/24-bit)
Код:
DISC INFO:

Disc Title: The Dark Side Of The Moon (Immersion Box - Disc 5)
Disc Size: 36 861 475 195 bytes
Protection: AACS
BD-Java: Yes
BDInfo: 0.5.6

PLAYLIST REPORT:

Name: 00014.MPLS
Length: 0:18:33 (h:m:s)
Size: 4 784 977 920 bytes
Total Bitrate: 34,38 Mbps

VIDEO:

Codec Bitrate Description
––- –––- –––––-
MPEG-4 AVC Video 23453 kbps 1080i / 29,970 fps / 16:9 / High Profile 4.1

AUDIO:

Codec Language Bitrate Description
––- –––– –––- –––––-
LPCM Audio English 6912 kbps 5.1 / 48 kHz / 6912 kbps / 24-bit
LPCM Audio English 2304 kbps 2.0 / 48 kHz / 2304 kbps / 24-bit

FILES:

Name Time In Length Size Total Bitrate
–– –––- ––– –– ––––––-
00018.M2TS 0:00:00.000 0:18:33.011 4 784 959 488 34 393
00011.M2TS 0:18:33.011 0:00:00.500 18 432 295

CHAPTERS:

Number Time In Length Avg Video Rate Max 1-Sec Rate Max 1-Sec Time Max 5-Sec Rate Max 5-Sec Time Max 10Sec Rate Max 10Sec Time Avg Frame Size Max Frame Size Max Frame Time
––– –––- ––– ––––––– ––––––– ––––––– ––––––– ––––––– ––––––– ––––––– ––––––– ––––––– –––––––
1 0:00:00.000 0:03:16.496 22 669 kbps 33 497 kbps 00:02:07.293 30 957 kbps 00:02:04.891 30 212 kbps 00:02:00.086 94 532 bytes 414 003 bytes 00:00:34.434
2 0:03:16.496 0:01:27.353 24 150 kbps 36 461 kbps 00:03:47.293 32 462 kbps 00:03:45.291 28 507 kbps 00:03:44.524 100 724 bytes 312 770 bytes 00:03:43.256
3 0:04:43.850 0:02:12.665 26 242 kbps 31 949 kbps 00:04:48.054 28 851 kbps 00:04:50.857 28 644 kbps 00:04:50.089 109 451 bytes 347 779 bytes 00:04:48.087
4 0:06:56.516 0:04:37.944 25 600 kbps 32 517 kbps 00:07:48.935 31 298 kbps 00:07:44.897 30 752 kbps 00:07:40.092 106 774 bytes 277 029 bytes 00:09:56.829
5 0:11:34.460 0:02:28.081 23 157 kbps 35 342 kbps 00:12:31.884 31 272 kbps 00:11:47.006 29 519 kbps 00:11:46.472 96 583 bytes 351 186 bytes 00:12:18.037
6 0:14:02.541 0:00:52.986 19 247 kbps 32 484 kbps 00:14:32.338 31 067 kbps 00:14:28.367 29 563 kbps 00:14:24.096 80 275 bytes 288 680 bytes 00:14:32.504
7 0:14:55.527 0:01:16.009 20 255 kbps 29 405 kbps 00:14:57.696 26 872 kbps 00:15:09.742 26 125 kbps 00:15:07.439 84 479 bytes 326 468 bytes 00:15:36.235
8 0:16:11.537 0:02:21.975 20 891 kbps 33 697 kbps 00:16:50.142 30 012 kbps 00:16:48.540 28 929 kbps 00:16:43.535 87 154 bytes 400 139 bytes 00:16:51.810

STREAM DIAGNOSTICS:

File PID Type Codec Language Seconds Bitrate Bytes Packets
–– –- –– ––- –––– ––––––– ––––––– ––––––- ––-
00018.M2TS 4113 (0x1011) 0x1B AVC 1112,878 23 466 3 264 398 289 17 761 243
00018.M2TS 4352 (0x1100) 0x80 LPCM eng (English) 1112,878 2 311 321 431 512 1 780 784
00018.M2TS 4353 (0x1101) 0x80 LPCM eng (English) 1112,878 6 919 962 509 428 5 342 328
00011.M2TS 4113 (0x1011) 0x1B AVC 0,400 163 8 152 56
<–– END FORUMS PASTE ––>

QUICK SUMMARY:

Disc Title: The Dark Side Of The Moon (Immersion Box - Disc 5)
Disc Size: 36 861 475 195 bytes
Protection: AACS
BD-Java: Yes
Playlist: 00014.MPLS
Size: 4 784 977 920 bytes
Length: 0:18:33
Total Bitrate: 34,38 Mbps
Video: MPEG-4 AVC Video / 23453 kbps / 1080i / 29,970 fps / 16:9 / High Profile 4.1
Audio: English / LPCM Audio / 5.1 / 48 kHz / 6912 kbps / 24-bit
Audio: English / LPCM Audio / 2.0 / 48 kHz / 2304 kbps / 24-bit

********************
PLAYLIST: 00024.MPLS
********************

<–- BEGIN FORUMS PASTE –->
Код:
Total Video
Title Codec Length Movie Size Disc Size Bitrate Bitrate Main Audio Track Secondary Audio Track
––- ––– –––- ––––––– ––––––– –––- –––- ––––––––– ––––––––––-
00024.MPLS AVC 0:18:33 4 784 977 920 36 861 475 195 34,38 23,45 LPCM 5.1 6912Kbps (48kHz/24-bit) LPCM 2.0 2304Kbps (48kHz/24-bit)
Код:
DISC INFO:

Disc Title: The Dark Side Of The Moon (Immersion Box - Disc 5)
Disc Size: 36 861 475 195 bytes
Protection: AACS
BD-Java: Yes
BDInfo: 0.5.6

PLAYLIST REPORT:

Name: 00024.MPLS
Length: 0:18:33 (h:m:s)
Size: 4 784 977 920 bytes
Total Bitrate: 34,38 Mbps

VIDEO:

Codec Bitrate Description
––- –––- –––––-
MPEG-4 AVC Video 23453 kbps 1080i / 29,970 fps / 16:9 / High Profile 4.1

AUDIO:

Codec Language Bitrate Description
––- –––– –––- –––––-
LPCM Audio English 6912 kbps 5.1 / 48 kHz / 6912 kbps / 24-bit
LPCM Audio English 2304 kbps 2.0 / 48 kHz / 2304 kbps / 24-bit

FILES:

Name Time In Length Size Total Bitrate
–– –––- ––– –– ––––––-
00018.M2TS 0:00:00.000 0:18:33.011 4 784 959 488 34 393
00011.M2TS 0:18:33.011 0:00:00.500 18 432 295

CHAPTERS:

Number Time In Length Avg Video Rate Max 1-Sec Rate Max 1-Sec Time Max 5-Sec Rate Max 5-Sec Time Max 10Sec Rate Max 10Sec Time Avg Frame Size Max Frame Size Max Frame Time
––– –––- ––– ––––––– ––––––– ––––––– ––––––– ––––––– ––––––– ––––––– ––––––– ––––––– –––––––
1 0:00:00.000 0:03:16.496 22 669 kbps 33 497 kbps 00:02:07.293 30 957 kbps 00:02:04.891 30 212 kbps 00:02:00.086 94 532 bytes 414 003 bytes 00:00:34.434
2 0:03:16.496 0:01:27.353 24 150 kbps 36 461 kbps 00:03:47.293 32 462 kbps 00:03:45.291 28 507 kbps 00:03:44.524 100 724 bytes 312 770 bytes 00:03:43.256
3 0:04:43.850 0:02:12.665 26 242 kbps 31 949 kbps 00:04:48.054 28 851 kbps 00:04:50.857 28 644 kbps 00:04:50.089 109 451 bytes 347 779 bytes 00:04:48.087
4 0:06:56.516 0:04:37.944 25 600 kbps 32 517 kbps 00:07:48.935 31 298 kbps 00:07:44.897 30 752 kbps 00:07:40.092 106 774 bytes 277 029 bytes 00:09:56.829
5 0:11:34.460 0:02:28.081 23 157 kbps 35 342 kbps 00:12:31.884 31 272 kbps 00:11:47.006 29 519 kbps 00:11:46.472 96 583 bytes 351 186 bytes 00:12:18.037
6 0:14:02.541 0:00:52.986 19 247 kbps 32 484 kbps 00:14:32.338 31 067 kbps 00:14:28.367 29 563 kbps 00:14:24.096 80 275 bytes 288 680 bytes 00:14:32.504
7 0:14:55.527 0:01:16.009 20 255 kbps 29 405 kbps 00:14:57.696 26 872 kbps 00:15:09.742 26 125 kbps 00:15:07.439 84 479 bytes 326 468 bytes 00:15:36.235
8 0:16:11.537 0:02:21.975 20 891 kbps 33 697 kbps 00:16:50.142 30 012 kbps 00:16:48.540 28 929 kbps 00:16:43.535 87 154 bytes 400 139 bytes 00:16:51.810

STREAM DIAGNOSTICS:

File PID Type Codec Language Seconds Bitrate Bytes Packets
–– –- –– ––- –––– ––––––– ––––––– ––––––- ––-
00018.M2TS 4113 (0x1011) 0x1B AVC 1112,878 23 466 3 264 398 289 17 761 243
00018.M2TS 4352 (0x1100) 0x80 LPCM eng (English) 1112,878 2 311 321 431 512 1 780 784
00018.M2TS 4353 (0x1101) 0x80 LPCM eng (English) 1112,878 6 919 962 509 428 5 342 328
00011.M2TS 4113 (0x1011) 0x1B AVC 0,400 163 8 152 56
<–– END FORUMS PASTE ––>

QUICK SUMMARY:

Disc Title: The Dark Side Of The Moon (Immersion Box - Disc 5)
Disc Size: 36 861 475 195 bytes
Protection: AACS
BD-Java: Yes
Playlist: 00024.MPLS
Size: 4 784 977 920 bytes
Length: 0:18:33
Total Bitrate: 34,38 Mbps
Video: MPEG-4 AVC Video / 23453 kbps / 1080i / 29,970 fps / 16:9 / High Profile 4.1
Audio: English / LPCM Audio / 5.1 / 48 kHz / 6912 kbps / 24-bit
Audio: English / LPCM Audio / 2.0 / 48 kHz / 2304 kbps / 24-bit

********************
PLAYLIST: 00000.MPLS
********************

<–- BEGIN FORUMS PASTE –->
Код:
Total Video
Title Codec Length Movie Size Disc Size Bitrate Bitrate Main Audio Track Secondary Audio Track
––- ––– –––- ––––––– ––––––– –––- –––- ––––––––– ––––––––––-
00000.MPLS AVC 0:16:38 4 100 659 200 36 861 475 195 32,87 22,01 LPCM 5.1 6912Kbps (48kHz/24-bit) LPCM 2.0 2304Kbps (48kHz/24-bit)
Код:
DISC INFO:

Disc Title: The Dark Side Of The Moon (Immersion Box - Disc 5)
Disc Size: 36 861 475 195 bytes
Protection: AACS
BD-Java: Yes
BDInfo: 0.5.6

PLAYLIST REPORT:

Name: 00000.MPLS
Length: 0:16:38 (h:m:s)
Size: 4 100 659 200 bytes
Total Bitrate: 32,87 Mbps

VIDEO:

Codec Bitrate Description
––- –––- –––––-
MPEG-4 AVC Video 22007 kbps 1080i / 29,970 fps / 16:9 / High Profile 4.1

AUDIO:

Codec Language Bitrate Description
––- –––– –––- –––––-
LPCM Audio English 6912 kbps 5.1 / 48 kHz / 6912 kbps / 24-bit
LPCM Audio English 2304 kbps 2.0 / 48 kHz / 2304 kbps / 24-bit

FILES:

Name Time In Length Size Total Bitrate
–– –––- ––– –– ––––––-
00015.M2TS 0:00:00.000 0:16:37.596 4 100 640 768 32 884
00011.M2TS 0:16:37.596 0:00:00.500 18 432 295

CHAPTERS:

Number Time In Length Avg Video Rate Max 1-Sec Rate Max 1-Sec Time Max 5-Sec Rate Max 5-Sec Time Max 10Sec Rate Max 10Sec Time Avg Frame Size Max Frame Size Max Frame Time
––– –––- ––– ––––––– ––––––– ––––––– ––––––– ––––––– ––––––– ––––––– ––––––– ––––––– –––––––
1 0:00:00.000 0:04:19.492 18 958 kbps 36 757 kbps 00:02:00.820 34 220 kbps 00:01:59.219 31 771 kbps 00:01:56.816 79 060 bytes 395 096 bytes 00:02:00.854
2 0:04:19.492 0:04:31.271 24 064 kbps 35 773 kbps 00:07:23.709 30 810 kbps 00:05:35.735 30 468 kbps 00:05:35.568 100 365 bytes 724 252 bytes 00:04:51.891
3 0:08:50.763 0:02:22.242 26 883 kbps 33 632 kbps 00:09:00.206 31 082 kbps 00:09:01.807 30 767 kbps 00:08:58.571 112 124 bytes 402 296 bytes 00:08:59.472
4 0:11:13.005 0:01:05.999 23 875 kbps 36 835 kbps 00:11:14.006 28 716 kbps 00:11:14.006 27 957 kbps 00:11:59.018 99 579 bytes 569 226 bytes 00:11:14.040
5 0:12:19.004 0:02:33.019 25 471 kbps 34 549 kbps 00:12:25.411 31 441 kbps 00:12:23.142 30 106 kbps 00:12:22.308 106 233 bytes 548 200 bytes 00:12:26.378
6 0:14:52.024 0:01:46.072 11 508 kbps 29 914 kbps 00:15:32.965 25 312 kbps 00:15:29.862 22 938 kbps 00:15:24.723 48 012 bytes 288 287 bytes 00:15:04.904

STREAM DIAGNOSTICS:

File PID Type Codec Language Seconds Bitrate Bytes Packets
–– –- –– ––- –––– ––––––– ––––––– ––––––- ––-
00015.M2TS 4113 (0x1011) 0x1B AVC 997,463 22 021 2 745 606 503 14 939 617
00015.M2TS 4352 (0x1100) 0x80 LPCM eng (English) 997,463 2 311 288 099 660 1 596 120
00015.M2TS 4353 (0x1101) 0x80 LPCM eng (English) 997,463 6 919 862 698 536 4 788 336
00011.M2TS 4113 (0x1011) 0x1B AVC 0,400 163 8 152 56
<–– END FORUMS PASTE ––>

QUICK SUMMARY:

Disc Title: The Dark Side Of The Moon (Immersion Box - Disc 5)
Disc Size: 36 861 475 195 bytes
Protection: AACS
BD-Java: Yes
Playlist: 00000.MPLS
Size: 4 100 659 200 bytes
Length: 0:16:38
Total Bitrate: 32,87 Mbps
Video: MPEG-4 AVC Video / 22007 kbps / 1080i / 29,970 fps / 16:9 / High Profile 4.1
Audio: English / LPCM Audio / 5.1 / 48 kHz / 6912 kbps / 24-bit
Audio: English / LPCM Audio / 2.0 / 48 kHz / 2304 kbps / 24-bit

********************
PLAYLIST: 00021.MPLS
********************

<–- BEGIN FORUMS PASTE –->
Код:
Total Video
Title Codec Length Movie Size Disc Size Bitrate Bitrate Main Audio Track Secondary Audio Track
––- ––– –––- ––––––– ––––––– –––- –––- ––––––––– ––––––––––-
00021.MPLS AVC 0:16:38 4 100 659 200 36 861 475 195 32,87 22,01 LPCM 5.1 6912Kbps (48kHz/24-bit) LPCM 2.0 2304Kbps (48kHz/24-bit)
Код:
DISC INFO:

Disc Title: The Dark Side Of The Moon (Immersion Box - Disc 5)
Disc Size: 36 861 475 195 bytes
Protection: AACS
BD-Java: Yes
BDInfo: 0.5.6

PLAYLIST REPORT:

Name: 00021.MPLS
Length: 0:16:38 (h:m:s)
Size: 4 100 659 200 bytes
Total Bitrate: 32,87 Mbps

VIDEO:

Codec Bitrate Description
––- –––- –––––-
MPEG-4 AVC Video 22007 kbps 1080i / 29,970 fps / 16:9 / High Profile 4.1

AUDIO:

Codec Language Bitrate Description
––- –––– –––- –––––-
LPCM Audio English 6912 kbps 5.1 / 48 kHz / 6912 kbps / 24-bit
LPCM Audio English 2304 kbps 2.0 / 48 kHz / 2304 kbps / 24-bit

FILES:

Name Time In Length Size Total Bitrate
–– –––- ––– –– ––––––-
00015.M2TS 0:00:00.000 0:16:37.596 4 100 640 768 32 884
00011.M2TS 0:16:37.596 0:00:00.500 18 432 295

CHAPTERS:

Number Time In Length Avg Video Rate Max 1-Sec Rate Max 1-Sec Time Max 5-Sec Rate Max 5-Sec Time Max 10Sec Rate Max 10Sec Time Avg Frame Size Max Frame Size Max Frame Time
––– –––- ––– ––––––– ––––––– ––––––– ––––––– ––––––– ––––––– ––––––– ––––––– ––––––– –––––––
1 0:00:00.000 0:04:19.492 18 958 kbps 36 757 kbps 00:02:00.820 34 220 kbps 00:01:59.219 31 771 kbps 00:01:56.816 79 060 bytes 395 096 bytes 00:02:00.854
2 0:04:19.492 0:04:31.271 24 064 kbps 35 773 kbps 00:07:23.709 30 810 kbps 00:05:35.735 30 468 kbps 00:05:35.568 100 365 bytes 724 252 bytes 00:04:51.891
3 0:08:50.763 0:02:22.242 26 883 kbps 33 632 kbps 00:09:00.206 31 082 kbps 00:09:01.807 30 767 kbps 00:08:58.571 112 124 bytes 402 296 bytes 00:08:59.472
4 0:11:13.005 0:01:05.999 23 875 kbps 36 835 kbps 00:11:14.006 28 716 kbps 00:11:14.006 27 957 kbps 00:11:59.018 99 579 bytes 569 226 bytes 00:11:14.040
5 0:12:19.004 0:02:33.019 25 471 kbps 34 549 kbps 00:12:25.411 31 441 kbps 00:12:23.142 30 106 kbps 00:12:22.308 106 233 bytes 548 200 bytes 00:12:26.378
6 0:14:52.024 0:01:46.072 11 508 kbps 29 914 kbps 00:15:32.965 25 312 kbps 00:15:29.862 22 938 kbps 00:15:24.723 48 012 bytes 288 287 bytes 00:15:04.904

STREAM DIAGNOSTICS:

File PID Type Codec Language Seconds Bitrate Bytes Packets
–– –- –– ––- –––– ––––––– ––––––– ––––––- ––-
00015.M2TS 4113 (0x1011) 0x1B AVC 997,463 22 021 2 745 606 503 14 939 617
00015.M2TS 4352 (0x1100) 0x80 LPCM eng (English) 997,463 2 311 288 099 660 1 596 120
00015.M2TS 4353 (0x1101) 0x80 LPCM eng (English) 997,463 6 919 862 698 536 4 788 336
00011.M2TS 4113 (0x1011) 0x1B AVC 0,400 163 8 152 56
<–– END FORUMS PASTE ––>

QUICK SUMMARY:

Disc Title: The Dark Side Of The Moon (Immersion Box - Disc 5)
Disc Size: 36 861 475 195 bytes
Protection: AACS
BD-Java: Yes
Playlist: 00021.MPLS
Size: 4 100 659 200 bytes
Length: 0:16:38
Total Bitrate: 32,87 Mbps
Video: MPEG-4 AVC Video / 22007 kbps / 1080i / 29,970 fps / 16:9 / High Profile 4.1
Audio: English / LPCM Audio / 5.1 / 48 kHz / 6912 kbps / 24-bit
Audio: English / LPCM Audio / 2.0 / 48 kHz / 2304 kbps / 24-bit

********************
PLAYLIST: 00016.MPLS
********************

<–- BEGIN FORUMS PASTE –->
Код:
Total Video
Title Codec Length Movie Size Disc Size Bitrate Bitrate Main Audio Track Secondary Audio Track
––- ––– –––- ––––––– ––––––– –––- –––- ––––––––– ––––––––––-
00016.MPLS AVC 0:09:13 1 934 125 056 36 861 475 195 27,98 24,97 LPCM 2.0 1536Kbps (48kHz/16-bit)
Код:
DISC INFO:

Disc Title: The Dark Side Of The Moon (Immersion Box - Disc 5)
Disc Size: 36 861 475 195 bytes
Protection: AACS
BD-Java: Yes
BDInfo: 0.5.6

PLAYLIST REPORT:

Name: 00016.MPLS
Length: 0:09:13 (h:m:s)
Size: 1 934 125 056 bytes
Total Bitrate: 27,98 Mbps

VIDEO:

Codec Bitrate Description
––- –––- –––––-
MPEG-4 AVC Video 24972 kbps 1080i / 29,970 fps / 16:9 / High Profile 4.1

AUDIO:

Codec Language Bitrate Description
––- –––– –––- –––––-
LPCM Audio English 1536 kbps 2.0 / 48 kHz / 1536 kbps / 16-bit

FILES:

Name Time In Length Size Total Bitrate
–– –––- ––– –– ––––––-
00020.M2TS 0:00:00.000 0:09:12.585 1 934 106 624 28 001
00011.M2TS 0:09:12.585 0:00:00.500 18 432 295

CHAPTERS:

Number Time In Length Avg Video Rate Max 1-Sec Rate Max 1-Sec Time Max 5-Sec Rate Max 5-Sec Time Max 10Sec Rate Max 10Sec Time Avg Frame Size Max Frame Size Max Frame Time
––– –––- ––– ––––––– ––––––– ––––––– ––––––– ––––––– ––––––– ––––––– ––––––– ––––––– –––––––
1 0:00:00.000 0:09:13.085 24 972 kbps 36 875 kbps 00:03:55.368 31 478 kbps 00:03:55.368 30 900 kbps 00:03:55.368 104 153 bytes 411 229 bytes 00:00:11.845

STREAM DIAGNOSTICS:

File PID Type Codec Language Seconds Bitrate Bytes Packets
–– –- –– ––- –––– ––––––– ––––––– ––––––- ––-
00020.M2TS 4113 (0x1011) 0x1B AVC 552,485 24 999 1 726 435 939 9 392 546
00020.M2TS 4352 (0x1100) 0x80 LPCM eng (English) 552,485 1 541 106 424 636 662 394
00011.M2TS 4113 (0x1011) 0x1B AVC 0,400 163 8 152 56
<–– END FORUMS PASTE ––>

QUICK SUMMARY:

Disc Title: The Dark Side Of The Moon (Immersion Box - Disc 5)
Disc Size: 36 861 475 195 bytes
Protection: AACS
BD-Java: Yes
Playlist: 00016.MPLS
Size: 1 934 125 056 bytes
Length: 0:09:13
Total Bitrate: 27,98 Mbps
Video: MPEG-4 AVC Video / 24972 kbps / 1080i / 29,970 fps / 16:9 / High Profile 4.1
Audio: English / LPCM Audio / 2.0 / 48 kHz / 1536 kbps / 16-bit

********************
PLAYLIST: 00026.MPLS
********************

<–- BEGIN FORUMS PASTE –->
Код:
Total Video
Title Codec Length Movie Size Disc Size Bitrate Bitrate Main Audio Track Secondary Audio Track
––- ––– –––- ––––––– ––––––– –––- –––- ––––––––– ––––––––––-
00026.MPLS AVC 0:09:13 1 934 125 056 36 861 475 195 27,98 24,97 LPCM 2.0 1536Kbps (48kHz/16-bit)
Код:
DISC INFO:

Disc Title: The Dark Side Of The Moon (Immersion Box - Disc 5)
Disc Size: 36 861 475 195 bytes
Protection: AACS
BD-Java: Yes
BDInfo: 0.5.6

PLAYLIST REPORT:

Name: 00026.MPLS
Length: 0:09:13 (h:m:s)
Size: 1 934 125 056 bytes
Total Bitrate: 27,98 Mbps

VIDEO:

Codec Bitrate Description
––- –––- –––––-
MPEG-4 AVC Video 24972 kbps 1080i / 29,970 fps / 16:9 / High Profile 4.1

AUDIO:

Codec Language Bitrate Description
––- –––– –––- –––––-
LPCM Audio English 1536 kbps 2.0 / 48 kHz / 1536 kbps / 16-bit

FILES:

Name Time In Length Size Total Bitrate
–– –––- ––– –– ––––––-
00020.M2TS 0:00:00.000 0:09:12.585 1 934 106 624 28 001
00011.M2TS 0:09:12.585 0:00:00.500 18 432 295

CHAPTERS:

Number Time In Length Avg Video Rate Max 1-Sec Rate Max 1-Sec Time Max 5-Sec Rate Max 5-Sec Time Max 10Sec Rate Max 10Sec Time Avg Frame Size Max Frame Size Max Frame Time
––– –––- ––– ––––––– ––––––– ––––––– ––––––– ––––––– ––––––– ––––––– ––––––– ––––––– –––––––
1 0:00:00.000 0:09:13.085 24 972 kbps 36 875 kbps 00:03:55.368 31 478 kbps 00:03:55.368 30 900 kbps 00:03:55.368 104 153 bytes 411 229 bytes 00:00:11.845

STREAM DIAGNOSTICS:

File PID Type Codec Language Seconds Bitrate Bytes Packets
–– –- –– ––- –––– ––––––– ––––––– ––––––- ––-
00020.M2TS 4113 (0x1011) 0x1B AVC 552,485 24 999 1 726 435 939 9 392 546
00020.M2TS 4352 (0x1100) 0x80 LPCM eng (English) 552,485 1 541 106 424 636 662 394
00011.M2TS 4113 (0x1011) 0x1B AVC 0,400 163 8 152 56
<–– END FORUMS PASTE ––>

QUICK SUMMARY:

Disc Title: The Dark Side Of The Moon (Immersion Box - Disc 5)
Disc Size: 36 861 475 195 bytes
Protection: AACS
BD-Java: Yes
Playlist: 00026.MPLS
Size: 1 934 125 056 bytes
Length: 0:09:13
Total Bitrate: 27,98 Mbps
Video: MPEG-4 AVC Video / 24972 kbps / 1080i / 29,970 fps / 16:9 / High Profile 4.1
Audio: English / LPCM Audio / 2.0 / 48 kHz / 1536 kbps / 16-bit

********************
PLAYLIST: 00012.MPLS
********************

<–- BEGIN FORUMS PASTE –->
Код:
Total Video
Title Codec Length Movie Size Disc Size Bitrate Bitrate Main Audio Track Secondary Audio Track
––- ––– –––- ––––––– ––––––– –––- –––- ––––––––– ––––––––––-
00012.MPLS AVC 0:07:44 1 622 728 704 36 861 475 195 27,97 24,97 LPCM 2.0 1536Kbps (48kHz/16-bit)
Код:
DISC INFO:

Disc Title: The Dark Side Of The Moon (Immersion Box - Disc 5)
Disc Size: 36 861 475 195 bytes
Protection: AACS
BD-Java: Yes
BDInfo: 0.5.6

PLAYLIST REPORT:

Name: 00012.MPLS
Length: 0:07:44 (h:m:s)
Size: 1 622 728 704 bytes
Total Bitrate: 27,97 Mbps

VIDEO:

Codec Bitrate Description
––- –––- –––––-
MPEG-4 AVC Video 24969 kbps 1080i / 29,970 fps / 16:9 / High Profile 4.1

AUDIO:

Codec Language Bitrate Description
––- –––– –––- –––––-
LPCM Audio English 1536 kbps 2.0 / 48 kHz / 1536 kbps / 16-bit

FILES:

Name Time In Length Size Total Bitrate
–– –––- ––– –– ––––––-
00016.M2TS 0:00:00.000 0:07:43.563 1 622 710 272 28 004
00011.M2TS 0:07:43.563 0:00:00.500 18 432 295

CHAPTERS:

Number Time In Length Avg Video Rate Max 1-Sec Rate Max 1-Sec Time Max 5-Sec Rate Max 5-Sec Time Max 10Sec Rate Max 10Sec Time Avg Frame Size Max Frame Size Max Frame Time
––– –––- ––– ––––––– ––––––– ––––––– ––––––– ––––––– ––––––– ––––––– ––––––– ––––––– –––––––
1 0:00:00.000 0:07:44.063 24 969 kbps 35 720 kbps 00:05:17.817 30 269 kbps 00:05:03.936 28 223 kbps 00:02:03.056 104 141 bytes 309 894 bytes 00:04:55.928

STREAM DIAGNOSTICS:

File PID Type Codec Language Seconds Bitrate Bytes Packets
–– –- –– ––- –––– ––––––– ––––––– ––––––- ––-
00016.M2TS 4113 (0x1011) 0x1B AVC 463,463 25 001 1 448 385 191 7 879 770
00016.M2TS 4352 (0x1100) 0x80 LPCM eng (English) 463,463 1 543 89 377 260 556 290
00011.M2TS 4113 (0x1011) 0x1B AVC 0,400 163 8 152 56
<–– END FORUMS PASTE ––>

QUICK SUMMARY:

Disc Title: The Dark Side Of The Moon (Immersion Box - Disc 5)
Disc Size: 36 861 475 195 bytes
Protection: AACS
BD-Java: Yes
Playlist: 00012.MPLS
Size: 1 622 728 704 bytes
Length: 0:07:44
Total Bitrate: 27,97 Mbps
Video: MPEG-4 AVC Video / 24969 kbps / 1080i / 29,970 fps / 16:9 / High Profile 4.1
Audio: English / LPCM Audio / 2.0 / 48 kHz / 1536 kbps / 16-bit

********************
PLAYLIST: 00022.MPLS
********************

<–- BEGIN FORUMS PASTE –->
Код:
Total Video
Title Codec Length Movie Size Disc Size Bitrate Bitrate Main Audio Track Secondary Audio Track
––- ––– –––- ––––––– ––––––– –––- –––- ––––––––– ––––––––––-
00022.MPLS AVC 0:07:44 1 622 728 704 36 861 475 195 27,97 24,97 LPCM 2.0 1536Kbps (48kHz/16-bit)
Код:
DISC INFO:

Disc Title: The Dark Side Of The Moon (Immersion Box - Disc 5)
Disc Size: 36 861 475 195 bytes
Protection: AACS
BD-Java: Yes
BDInfo: 0.5.6

PLAYLIST REPORT:

Name: 00022.MPLS
Length: 0:07:44 (h:m:s)
Size: 1 622 728 704 bytes
Total Bitrate: 27,97 Mbps

VIDEO:

Codec Bitrate Description
––- –––- –––––-
MPEG-4 AVC Video 24969 kbps 1080i / 29,970 fps / 16:9 / High Profile 4.1

AUDIO:

Codec Language Bitrate Description
––- –––– –––- –––––-
LPCM Audio English 1536 kbps 2.0 / 48 kHz / 1536 kbps / 16-bit

FILES:

Name Time In Length Size Total Bitrate
–– –––- ––– –– ––––––-
00016.M2TS 0:00:00.000 0:07:43.563 1 622 710 272 28 004
00011.M2TS 0:07:43.563 0:00:00.500 18 432 295

CHAPTERS:

Number Time In Length Avg Video Rate Max 1-Sec Rate Max 1-Sec Time Max 5-Sec Rate Max 5-Sec Time Max 10Sec Rate Max 10Sec Time Avg Frame Size Max Frame Size Max Frame Time
––– –––- ––– ––––––– ––––––– ––––––– ––––––– ––––––– ––––––– ––––––– ––––––– ––––––– –––––––
1 0:00:00.000 0:07:44.063 24 969 kbps 35 720 kbps 00:05:17.817 30 269 kbps 00:05:03.936 28 223 kbps 00:02:03.056 104 141 bytes 309 894 bytes 00:04:55.928

STREAM DIAGNOSTICS:

File PID Type Codec Language Seconds Bitrate Bytes Packets
–– –- –– ––- –––– ––––––– ––––––– ––––––- ––-
00016.M2TS 4113 (0x1011) 0x1B AVC 463,463 25 001 1 448 385 191 7 879 770
00016.M2TS 4352 (0x1100) 0x80 LPCM eng (English) 463,463 1 543 89 377 260 556 290
00011.M2TS 4113 (0x1011) 0x1B AVC 0,400 163 8 152 56
<–– END FORUMS PASTE ––>

QUICK SUMMARY:

Disc Title: The Dark Side Of The Moon (Immersion Box - Disc 5)
Disc Size: 36 861 475 195 bytes
Protection: AACS
BD-Java: Yes
Playlist: 00022.MPLS
Size: 1 622 728 704 bytes
Length: 0:07:44
Total Bitrate: 27,97 Mbps
Video: MPEG-4 AVC Video / 24969 kbps / 1080i / 29,970 fps / 16:9 / High Profile 4.1
Audio: English / LPCM Audio / 2.0 / 48 kHz / 1536 kbps / 16-bit

********************
PLAYLIST: 00005.MPLS
********************

<–- BEGIN FORUMS PASTE –->
Код:
Total Video
Title Codec Length Movie Size Disc Size Bitrate Bitrate Main Audio Track Secondary Audio Track
––- ––– –––- ––––––– ––––––– –––- –––- ––––––––– ––––––––––-
00005.MPLS AVC 0:18:14 2 185 027 584 36 861 475 195 15,97 14,99 DD AC3 2.0 192Kbps
Код:
DISC INFO:

Disc Title: The Dark Side Of The Moon (Immersion Box - Disc 5)
Disc Size: 36 861 475 195 bytes
Protection: AACS
BD-Java: Yes
BDInfo: 0.5.6

PLAYLIST REPORT:

Name: 00005.MPLS
Length: 0:18:14 (h:m:s)
Size: 2 185 027 584 bytes
Total Bitrate: 15,97 Mbps

VIDEO:

Codec Bitrate Description
––- –––- –––––-
MPEG-4 AVC Video 14986 kbps 1080i / 29,970 fps / 16:9 / High Profile 4.1

AUDIO:

Codec Language Bitrate Description
––- –––– –––- –––––-
Dolby Digital Audio English 192 kbps 2.0 / 48 kHz / 192 kbps / DN -7dB

FILES:

Name Time In Length Size Total Bitrate
–– –––- ––– –– ––––––-
00026.M2TS 0:00:00.000 0:18:14.259 2 185 027 584 15 974

CHAPTERS:

Number Time In Length Avg Video Rate Max 1-Sec Rate Max 1-Sec Time Max 5-Sec Rate Max 5-Sec Time Max 10Sec Rate Max 10Sec Time Avg Frame Size Max Frame Size Max Frame Time
––– –––- ––– ––––––– ––––––– ––––––– ––––––– ––––––– ––––––– ––––––– ––––––– ––––––– –––––––
1 0:00:00.000 0:18:14.259 14 986 kbps 15 000 kbps 00:18:13.225 15 000 kbps 00:18:09.221 15 000 kbps 00:18:04.216 62 505 bytes 62 567 bytes 00:18:14.226

STREAM DIAGNOSTICS:

File PID Type Codec Language Seconds Bitrate Bytes Packets
–– –- –– ––- –––– ––––––– ––––––– ––––––- ––-
00026.M2TS 4113 (0x1011) 0x1B AVC 1094,193 14 987 2 049 835 975 11 172 898
00026.M2TS 4352 (0x1100) 0x81 AC3 eng (English) 1094,193 192 26 231 040 170 775
<–– END FORUMS PASTE ––>

QUICK SUMMARY:

Disc Title: The Dark Side Of The Moon (Immersion Box - Disc 5)
Disc Size: 36 861 475 195 bytes
Protection: AACS
BD-Java: Yes
Playlist: 00005.MPLS
Size: 2 185 027 584 bytes
Length: 0:18:14
Total Bitrate: 15,97 Mbps
Video: MPEG-4 AVC Video / 14986 kbps / 1080i / 29,970 fps / 16:9 / High Profile 4.1
Audio: English / Dolby Digital Audio / 2.0 / 48 kHz / 192 kbps / DN -7dB

********************
PLAYLIST: 00007.MPLS
********************

<–- BEGIN FORUMS PASTE –->
Код:
Total Video
Title Codec Length Movie Size Disc Size Bitrate Bitrate Main Audio Track Secondary Audio Track
––- ––– –––- ––––––– ––––––– –––- –––- ––––––––– ––––––––––-
00007.MPLS AVC 0:01:36 183 232 512 36 861 475 195 15,25 14,06 DD AC3 5.1 448Kbps
Код:
DISC INFO:

Disc Title: The Dark Side Of The Moon (Immersion Box - Disc 5)
Disc Size: 36 861 475 195 bytes
Protection: AACS
BD-Java: Yes
BDInfo: 0.5.6

PLAYLIST REPORT:

Name: 00007.MPLS
Length: 0:01:36 (h:m:s)
Size: 183 232 512 bytes
Total Bitrate: 15,25 Mbps

VIDEO:

Codec Bitrate Description
––- –––- –––––-
MPEG-4 AVC Video 14063 kbps 1080i / 29,970 fps / 16:9 / High Profile 4.1

AUDIO:

Codec Language Bitrate Description
––- –––– –––- –––––-
Dolby Digital Audio English 448 kbps 5.1 / 48 kHz / 448 kbps / DN -4dB

FILES:

Name Time In Length Size Total Bitrate
–– –––- ––– –– ––––––-
00028.M2TS 0:00:00.000 0:00:16.015 30 535 680 15 253
00029.M2TS 0:00:16.015 0:00:16.015 30 535 680 15 253
00030.M2TS 0:00:32.031 0:00:16.015 30 535 680 15 253
00031.M2TS 0:00:48.047 0:00:16.015 30 541 824 15 256
00032.M2TS 0:01:04.063 0:00:16.015 30 541 824 15 256
00033.M2TS 0:01:20.079 0:00:16.015 30 541 824 15 256

CHAPTERS:

Number Time In Length Avg Video Rate Max 1-Sec Rate Max 1-Sec Time Max 5-Sec Rate Max 5-Sec Time Max 10Sec Rate Max 10Sec Time Avg Frame Size Max Frame Size Max Frame Time
––– –––- ––– ––––––– ––––––– ––––––– ––––––– ––––––– ––––––– ––––––– ––––––– ––––––– –––––––
1 0:00:00.000 0:00:16.015 14 080 kbps 15 000 kbps 00:00:14.981 15 000 kbps 00:00:10.977 15 000 kbps 00:00:05.972 58 604 bytes 62 567 bytes 00:00:15.982
2 0:00:16.015 0:00:16.015 14 064 kbps 15 000 kbps 00:00:30.997 15 000 kbps 00:00:26.993 15 000 kbps 00:00:21.988 58 657 bytes 62 567 bytes 00:00:31.998
3 0:00:32.031 0:00:16.015 14 063 kbps 15 000 kbps 00:00:47.013 15 000 kbps 00:00:43.009 15 000 kbps 00:00:38.004 58 655 bytes 62 567 bytes 00:00:48.014
4 0:00:48.047 0:00:16.015 14 063 kbps 15 000 kbps 00:01:03.029 15 000 kbps 00:00:59.025 15 000 kbps 00:00:54.020 58 655 bytes 62 567 bytes 00:01:04.030
5 0:01:04.063 0:00:16.015 14 063 kbps 15 000 kbps 00:01:19.045 15 000 kbps 00:01:15.041 15 000 kbps 00:01:10.036 58 654 bytes 62 567 bytes 00:01:20.046
6 0:01:20.079 0:00:16.015 14 047 kbps 15 000 kbps 00:01:35.061 15 000 kbps 00:01:31.057 15 000 kbps 00:01:26.052 58 709 bytes 62 567 bytes 00:01:36.062

STREAM DIAGNOSTICS:

File PID Type Codec Language Seconds Bitrate Bytes Packets
–– –- –– ––- –––– ––––––– ––––––– ––––––- ––-
00028.M2TS 4113 (0x1011) 0x1B AVC 15,916 14 152 28 154 665 153 477
00028.M2TS 4352 (0x1100) 0x81 AC3 eng (English) 15,916 450 896 000 5 000
00029.M2TS 4113 (0x1011) 0x1B AVC 15,916 14 152 28 154 665 153 476
00029.M2TS 4352 (0x1100) 0x81 AC3 eng (English) 15,916 450 896 000 5 000
00030.M2TS 4113 (0x1011) 0x1B AVC 15,916 14 152 28 154 665 153 478
00030.M2TS 4352 (0x1100) 0x81 AC3 eng (English) 15,916 450 896 000 5 000
00031.M2TS 4113 (0x1011) 0x1B AVC 15,916 14 152 28 154 665 153 478
00031.M2TS 4352 (0x1100) 0x81 AC3 eng (English) 15,916 451 897 792 5 010
00032.M2TS 4113 (0x1011) 0x1B AVC 15,916 14 152 28 154 665 153 476
00032.M2TS 4352 (0x1100) 0x81 AC3 eng (English) 15,916 451 897 792 5 010
00033.M2TS 4113 (0x1011) 0x1B AVC 15,916 14 152 28 154 665 153 477
00033.M2TS 4352 (0x1100) 0x81 AC3 eng (English) 15,916 451 897 792 5 010
<–– END FORUMS PASTE ––>

QUICK SUMMARY:

Disc Title: The Dark Side Of The Moon (Immersion Box - Disc 5)
Disc Size: 36 861 475 195 bytes
Protection: AACS
BD-Java: Yes
Playlist: 00007.MPLS
Size: 183 232 512 bytes
Length: 0:01:36
Total Bitrate: 15,25 Mbps
Video: MPEG-4 AVC Video / 14063 kbps / 1080i / 29,970 fps / 16:9 / High Profile 4.1
Audio: English / Dolby Digital Audio / 5.1 / 48 kHz / 448 kbps / DN -4dB

********************
PLAYLIST: 00017.MPLS
********************

<–- BEGIN FORUMS PASTE –->
Код:
Total Video
Title Codec Length Movie Size Disc Size Bitrate Bitrate Main Audio Track Secondary Audio Track
––- ––– –––- ––––––– ––––––– –––- –––- ––––––––– ––––––––––-
00017.MPLS VC-1 0:01:00 7 059 456 36 861 475 195 0,94 0,22 DTS 2.0 256Kbps (48kHz/16-bit)
Код:
DISC INFO:

Disc Title: The Dark Side Of The Moon (Immersion Box - Disc 5)
Disc Size: 36 861 475 195 bytes
Protection: AACS
BD-Java: Yes
BDInfo: 0.5.6

PLAYLIST REPORT:

Name: 00017.MPLS
Length: 0:01:00 (h:m:s)
Size: 7 059 456 bytes
Total Bitrate: 0,94 Mbps

VIDEO:

Codec Bitrate Description
––- –––- –––––-
VC-1 Video 224 kbps 1080p / 23,976 fps / 16:9 / Advanced Profile 3

AUDIO:

Codec Language Bitrate Description
––- –––– –––- –––––-
DTS Audio English 256 kbps 2.0 / 48 kHz / 256 kbps / 16-bit

FILES:

Name Time In Length Size Total Bitrate
–– –––- ––– –– ––––––-
00004.M2TS 0:00:00.000 0:01:00.059 7 059 456 940

CHAPTERS:

Number Time In Length Avg Video Rate Max 1-Sec Rate Max 1-Sec Time Max 5-Sec Rate Max 5-Sec Time Max 10Sec Rate Max 10Sec Time Avg Frame Size Max Frame Size Max Frame Time
––– –––- ––– ––––––– ––––––– ––––––– ––––––– ––––––– ––––––– ––––––– ––––––– ––––––– –––––––
1 0:00:00.000 0:01:00.059 224 kbps 298 kbps 00:00:55.305 251 kbps 00:00:54.637 236 kbps 00:00:49.632 2 182 bytes 9 236 bytes 00:00:00.000

STREAM DIAGNOSTICS:

File PID Type Codec Language Seconds Bitrate Bytes Packets
–– –- –– ––- –––– ––––––– ––––––– ––––––- ––-
00004.M2TS 4113 (0x1011) 0xEA VC-1 59,977 225 1 684 277 10 220
00004.M2TS 4352 (0x1100) 0x82 DTS eng (English) 59,977 510 3 825 000 22 500
<–– END FORUMS PASTE ––>

QUICK SUMMARY:

Disc Title: The Dark Side Of The Moon (Immersion Box - Disc 5)
Disc Size: 36 861 475 195 bytes
Protection: AACS
BD-Java: Yes
Playlist: 00017.MPLS
Size: 7 059 456 bytes
Length: 0:01:00
Total Bitrate: 0,94 Mbps
Video: VC-1 Video / 224 kbps / 1080p / 23,976 fps / 16:9 / Advanced Profile 3
Audio: English / DTS Audio / 2.0 / 48 kHz / 256 kbps / 16-bit

********************
PLAYLIST: 00018.MPLS
********************

<–- BEGIN FORUMS PASTE –->
Код:
Total Video
Title Codec Length Movie Size Disc Size Bitrate Bitrate Main Audio Track Secondary Audio Track
––- ––– –––- ––––––– ––––––– –––- –––- ––––––––– ––––––––––-
00018.MPLS VC-1 0:01:00 7 059 456 36 861 475 195 0,94 0,22 DTS 2.0 256Kbps (48kHz/16-bit)
Код:
DISC INFO:

Disc Title: The Dark Side Of The Moon (Immersion Box - Disc 5)
Disc Size: 36 861 475 195 bytes
Protection: AACS
BD-Java: Yes
BDInfo: 0.5.6

PLAYLIST REPORT:

Name: 00018.MPLS
Length: 0:01:00 (h:m:s)
Size: 7 059 456 bytes
Total Bitrate: 0,94 Mbps

VIDEO:

Codec Bitrate Description
––- –––- –––––-
VC-1 Video 224 kbps 1080p / 23,976 fps / 16:9 / Advanced Profile 3

AUDIO:

Codec Language Bitrate Description
––- –––– –––- –––––-
DTS Audio English 256 kbps 2.0 / 48 kHz / 256 kbps / 16-bit

FILES:

Name Time In Length Size Total Bitrate
–– –––- ––– –– ––––––-
00005.M2TS 0:00:00.000 0:01:00.059 7 059 456 940

CHAPTERS:

Number Time In Length Avg Video Rate Max 1-Sec Rate Max 1-Sec Time Max 5-Sec Rate Max 5-Sec Time Max 10Sec Rate Max 10Sec Time Avg Frame Size Max Frame Size Max Frame Time
––– –––- ––– ––––––– ––––––– ––––––– ––––––– ––––––– ––––––– ––––––– ––––––– ––––––– –––––––
1 0:00:00.000 0:01:00.059 224 kbps 298 kbps 00:00:55.305 251 kbps 00:00:54.637 236 kbps 00:00:49.632 2 182 bytes 9 236 bytes 00:00:00.000

STREAM DIAGNOSTICS:

File PID Type Codec Language Seconds Bitrate Bytes Packets
–– –- –– ––- –––– ––––––– ––––––– ––––––- ––-
00005.M2TS 4113 (0x1011) 0xEA VC-1 59,977 225 1 684 277 10 220
00005.M2TS 4352 (0x1100) 0x82 DTS eng (English) 59,977 510 3 825 000 22 500
<–– END FORUMS PASTE ––>

QUICK SUMMARY:

Disc Title: The Dark Side Of The Moon (Immersion Box - Disc 5)
Disc Size: 36 861 475 195 bytes
Protection: AACS
BD-Java: Yes
Playlist: 00018.MPLS
Size: 7 059 456 bytes
Length: 0:01:00
Total Bitrate: 0,94 Mbps
Video: VC-1 Video / 224 kbps / 1080p / 23,976 fps / 16:9 / Advanced Profile 3
Audio: English / DTS Audio / 2.0 / 48 kHz / 256 kbps / 16-bit

********************
PLAYLIST: 00019.MPLS
********************

<–- BEGIN FORUMS PASTE –->
Код:
Total Video
Title Codec Length Movie Size Disc Size Bitrate Bitrate Main Audio Track Secondary Audio Track
––- ––– –––- ––––––– ––––––– –––- –––- ––––––––– ––––––––––-
00019.MPLS VC-1 0:01:00 7 059 456 36 861 475 195 0,94 0,22 DTS 2.0 256Kbps (48kHz/16-bit)
Код:
DISC INFO:

Disc Title: The Dark Side Of The Moon (Immersion Box - Disc 5)
Disc Size: 36 861 475 195 bytes
Protection: AACS
BD-Java: Yes
BDInfo: 0.5.6

PLAYLIST REPORT:

Name: 00019.MPLS
Length: 0:01:00 (h:m:s)
Size: 7 059 456 bytes
Total Bitrate: 0,94 Mbps

VIDEO:

Codec Bitrate Description
––- –––- –––––-
VC-1 Video 224 kbps 1080p / 23,976 fps / 16:9 / Advanced Profile 3

AUDIO:

Codec Language Bitrate Description
––- –––– –––- –––––-
DTS Audio English 256 kbps 2.0 / 48 kHz / 256 kbps / 16-bit

FILES:

Name Time In Length Size Total Bitrate
–– –––- ––– –– ––––––-
00006.M2TS 0:00:00.000 0:01:00.059 7 059 456 940

CHAPTERS:

Number Time In Length Avg Video Rate Max 1-Sec Rate Max 1-Sec Time Max 5-Sec Rate Max 5-Sec Time Max 10Sec Rate Max 10Sec Time Avg Frame Size Max Frame Size Max Frame Time
––– –––- ––– ––––––– ––––––– ––––––– ––––––– ––––––– ––––––– ––––––– ––––––– ––––––– –––––––
1 0:00:00.000 0:01:00.059 224 kbps 298 kbps 00:00:55.305 251 kbps 00:00:54.637 236 kbps 00:00:49.632 2 182 bytes 9 236 bytes 00:00:00.000

STREAM DIAGNOSTICS:

File PID Type Codec Language Seconds Bitrate Bytes Packets
–– –- –– ––- –––– ––––––– ––––––– ––––––- ––-
00006.M2TS 4113 (0x1011) 0xEA VC-1 59,977 225 1 684 277 10 220
00006.M2TS 4352 (0x1100) 0x82 DTS eng (English) 59,977 510 3 825 000 22 500
<–– END FORUMS PASTE ––>

QUICK SUMMARY:

Disc Title: The Dark Side Of The Moon (Immersion Box - Disc 5)
Disc Size: 36 861 475 195 bytes
Protection: AACS
BD-Java: Yes
Playlist: 00019.MPLS
Size: 7 059 456 bytes
Length: 0:01:00
Total Bitrate: 0,94 Mbps
Video: VC-1 Video / 224 kbps / 1080p / 23,976 fps / 16:9 / Advanced Profile 3
Audio: English / DTS Audio / 2.0 / 48 kHz / 256 kbps / 16-bit

********************
PLAYLIST: 00008.MPLS
********************

<–- BEGIN FORUMS PASTE –->
Код:
Total Video
Title Codec Length Movie Size Disc Size Bitrate Bitrate Main Audio Track Secondary Audio Track
––- ––– –––- ––––––– ––––––– –––- –––- ––––––––– ––––––––––-
00008.MPLS AVC 0:00:24 36 900 864 36 861 475 195 12,29 11,25 DD AC3 5.1 448Kbps
Код:
DISC INFO:

Disc Title: The Dark Side Of The Moon (Immersion Box - Disc 5)
Disc Size: 36 861 475 195 bytes
Protection: AACS
BD-Java: Yes
BDInfo: 0.5.6

PLAYLIST REPORT:

Name: 00008.MPLS
Length: 0:00:24 (h:m:s)
Size: 36 900 864 bytes
Total Bitrate: 12,29 Mbps

VIDEO:

Codec Bitrate Description
––- –––- –––––-
MPEG-4 AVC Video 11254 kbps 1080i / 29,970 fps / 16:9 / High Profile 4.1

AUDIO:

Codec Language Bitrate Description
––- –––– –––- –––––-
Dolby Digital Audio English 448 kbps 5.1 / 48 kHz / 448 kbps / DN -5dB

FILES:

Name Time In Length Size Total Bitrate
–– –––- ––– –– ––––––-
00034.M2TS 0:00:00.000 0:00:04.004 6 168 576 12 325
00035.M2TS 0:00:04.004 0:00:04.004 6 174 720 12 337
00036.M2TS 0:00:08.008 0:00:04.004 6 174 720 12 337
00037.M2TS 0:00:12.012 0:00:04.004 6 107 136 12 202
00038.M2TS 0:00:16.016 0:00:04.004 6 107 136 12 202
00039.M2TS 0:00:20.020 0:00:04.004 6 168 576 12 325

CHAPTERS:

Number Time In Length Avg Video Rate Max 1-Sec Rate Max 1-Sec Time Max 5-Sec Rate Max 5-Sec Time Max 10Sec Rate Max 10Sec Time Avg Frame Size Max Frame Size Max Frame Time
––– –––- ––– ––––––– ––––––– ––––––– ––––––– ––––––– ––––––– ––––––– ––––––– ––––––– –––––––
1 0:00:00.000 0:00:04.004 11 305 kbps 15 000 kbps 00:00:02.969 0 kbps 00:00:00.000 0 kbps 00:00:00.000 46 763 bytes 62 566 bytes 00:00:03.970
2 0:00:04.004 0:00:04.004 11 255 kbps 15 000 kbps 00:00:06.973 0 kbps 00:00:00.000 0 kbps 00:00:00.000 46 943 bytes 62 566 bytes 00:00:07.974
3 0:00:08.008 0:00:04.004 11 253 kbps 15 000 kbps 00:00:10.977 0 kbps 00:00:00.000 0 kbps 00:00:00.000 46 933 bytes 62 566 bytes 00:00:11.978
4 0:00:12.012 0:00:04.004 11 253 kbps 15 000 kbps 00:00:14.981 0 kbps 00:00:00.000 0 kbps 00:00:00.000 46 936 bytes 62 566 bytes 00:00:15.982
5 0:00:16.016 0:00:04.004 11 253 kbps 15 000 kbps 00:00:18.985 0 kbps 00:00:00.000 0 kbps 00:00:00.000 46 933 bytes 62 566 bytes 00:00:19.986
6 0:00:20.020 0:00:04.004 11 203 kbps 15 000 kbps 00:00:22.989 0 kbps 00:00:00.000 0 kbps 00:00:00.000 47 118 bytes 62 566 bytes 00:00:23.990

STREAM DIAGNOSTICS:

File PID Type Codec Language Seconds Bitrate Bytes Packets
–– –- –– ––- –––– ––––––– ––––––– ––––––- ––-
00034.M2TS 4113 (0x1011) 0x1B AVC 3,904 11 542 5 632 453 30 717
00034.M2TS 4352 (0x1100) 0x81 AC3 eng (English) 3,904 459 224 000 1 250
00035.M2TS 4113 (0x1011) 0x1B AVC 3,904 11 542 5 632 453 30 719
00035.M2TS 4352 (0x1100) 0x81 AC3 eng (English) 3,904 463 225 792 1 260
00036.M2TS 4113 (0x1011) 0x1B AVC 3,904 11 542 5 632 453 30 714
00036.M2TS 4352 (0x1100) 0x81 AC3 eng (English) 3,904 463 225 792 1 260
00037.M2TS 4113 (0x1011) 0x1B AVC 3,904 11 542 5 632 453 30 721
00037.M2TS 4352 (0x1100) 0x81 AC3 eng (English) 3,904 345 168 448 940
00038.M2TS 4113 (0x1011) 0x1B AVC 3,904 11 542 5 632 453 30 718
00038.M2TS 4352 (0x1100) 0x81 AC3 eng (English) 3,904 345 168 448 940
00039.M2TS 4113 (0x1011) 0x1B AVC 3,904 11 542 5 632 453 30 716
00039.M2TS 4352 (0x1100) 0x81 AC3 eng (English) 3,904 459 224 000 1 250
<–– END FORUMS PASTE ––>

QUICK SUMMARY:

Disc Title: The Dark Side Of The Moon (Immersion Box - Disc 5)
Disc Size: 36 861 475 195 bytes
Protection: AACS
BD-Java: Yes
Playlist: 00008.MPLS
Size: 36 900 864 bytes
Length: 0:00:24
Total Bitrate: 12,29 Mbps
Video: MPEG-4 AVC Video / 11254 kbps / 1080i / 29,970 fps / 16:9 / High Profile 4.1
Audio: English / Dolby Digital Audio / 5.1 / 48 kHz / 448 kbps / DN -5dB

Exact Audio Copy V1.0 beta 3 from 29. August 2011

EAC extraction logfile from 9. January 2013, 20:28

Pink Floyd / The Dark Side Of The Moon (Immersion Box) (Previous Unreleased Tracks) CD6

Used drive : Optiarc BD RW BD-5300S Adapter: 0 ID: 1

Read mode : Secure
Utilize accurate stream : Yes
Defeat audio cache : Yes
Make use of C2 pointers : No

Read offset correction : 6
Overread into Lead-In and Lead-Out : No
Fill up missing offset samples with silence : Yes
Delete leading and trailing silent blocks : No
Null samples used in CRC calculations : Yes
Used interface : Native Win32 interface for Win NT & 2000

Used output format : User Defined Encoder
Selected bitrate : 1024 kBit/s
Quality : High
Add ID3 tag : No
Command line compressor : C:\Program Files (x86)\Exact Audio Copy\FLAC\FLAC.EXE
Additional command line options : -8 -V -T "ARTIST=%artist%" -T "TITLE=%title%" -T "ALBUM=%albumtitle%" -T "DATE=%year%" -T "TRACKNUMBER=%tracknr%" -T "GENRE=%genre%" -T "PERFORMER=%albuminterpret%" -T "COMPOSER=%composer%" %haslyrics%–tag-from-file=LYRICS="%lyricsfile%"%haslyrics% -T "ALBUMARTIST=%albumartist%" -T "DISCNUMBER=%cdnumber%" -T "TOTALDISCS=%totalcds%" -T "TOTALTRACKS=%numtracks%" -T "COMMENT=%comment%" %source% -o %dest%


TOC of the extracted CD

Track | Start | Length | Start sector | End sector
––––––––––––––––––––––––––––-
1 | 0:00.00 | 3:10.14 | 0 | 14263
2 | 3:10.14 | 3:30.32 | 14264 | 30045
3 | 6:40.46 | 6:56.51 | 30046 | 61296
4 | 13:37.22 | 4:11.36 | 61297 | 80157
5 | 17:48.58 | 6:52.48 | 80158 | 111105
6 | 24:41.31 | 7:15.12 | 111106 | 143742
7 | 31:56.43 | 3:25.47 | 143743 | 159164
8 | 35:22.15 | 3:50.74 | 159165 | 176488
9 | 39:13.14 | 1:38.62 | 176489 | 183900
10 | 40:52.01 | 3:09.60 | 183901 | 198135
11 | 44:01.61 | 5:39.37 | 198136 | 223597
12 | 49:41.23 | 4:36.52 | 223598 | 244349
13 | 54:18.00 | 3:24.33 | 244350 | 259682
14 | 57:42.33 | 4:44.62 | 259683 | 281044
15 | 62:27.20 | 2:21.34 | 281045 | 291653
16 | 64:48.54 | 2:37.70 | 291654 | 303498


Range status and errors

Selected range

Filename G:\CD\Pink Floyd - The Dark Side Of The Moon CD6 (2011).wav

Peak level 98.9 %
Extraction speed 3.7 X
Range quality 100.0 %
Test CRC AE570E91
Copy CRC AE570E91
Copy OK

No errors occurred


AccurateRip summary

Track 1 accurately ripped (confidence 7) [D64CB72A] (AR v2)
Track 2 accurately ripped (confidence 7) [A80B1844] (AR v2)
Track 3 accurately ripped (confidence 7) [6124E3CB] (AR v2)
Track 4 accurately ripped (confidence 7) [F5F0D5BD] (AR v2)
Track 5 accurately ripped (confidence 7) [23F39837] (AR v2)
Track 6 accurately ripped (confidence 7) [D8DBCB64] (AR v2)
Track 7 accurately ripped (confidence 7) [9896CB6E] (AR v2)
Track 8 accurately ripped (confidence 7) [57F1D662] (AR v2)
Track 9 accurately ripped (confidence 7) [FCCC7B63] (AR v2)
Track 10 accurately ripped (confidence 6) [C359CB80] (AR v2)
Track 11 accurately ripped (confidence 6) [4E054EC2] (AR v2)
Track 12 accurately ripped (confidence 6) [ED1D6414] (AR v2)
Track 13 accurately ripped (confidence 6) [1F48FD77] (AR v2)
Track 14 accurately ripped (confidence 6) [0CB58038] (AR v2)
Track 15 accurately ripped (confidence 7) [886C3CF8] (AR v2)
Track 16 accurately ripped (confidence 7) [1FD2C8B2] (AR v2)

All tracks accurately ripped

End of status report

==== Log checksum 0634C26F6DC1267804FA8A7F6613725C6C7E16982F654E780AD0BF615850E6F3 ====


Many thanks to the original uploader: gerrV (Disc 1, 2, 6 & Scans)
Many thanks to the original uploader: mosariot (Disc 3, 5)
Many thanks to the original uploader: funny_horse (Disc 4)

This offer is simply too good to pass up!


Pink Floyd 1973 The Dark Side Of The Moon [Experience Edition, 2CD, Japan 2011]
Pink Floyd 1975 Spaceball Ricochet - US-Tour 1975 [Bootleg, 2CD]
Pink Floyd 1975 Wish You Were Here [Immersion Edition, Box Set 2CD+2DVD+1Blu-ray, 2011]
Pink Floyd 1979 The Wall [Experience Edition, 3CD Box Set, 2012]
Pink Floyd 1979 The Wall [Immersion Edition, Box Set 6CD+1DVD, 2012]
Pink Floyd 1981 A Collection Of Great Dance Songs [Reissue, Remastered 2000]
Pink Floyd 1987 A Momentary Lapse Of Reason
Pink Floyd 1989 StarClub Phyco [Bootleg]
Pink Floyd 1990 Ultra Rare Trax, Vol. 1, 2, 3 [Bootleg, 3CD]
Pink Floyd 1992 The Complete ''Top Gear'' Sessions 1967-1969 [Bootleg, 2CD]
Pink Floyd 1992 The Man & The Journey [Bootleg]
Pink Floyd & The Stringman 1994 Absolutely Ambient [The Ultimate Remix Collection]
Pink Floyd 1994 Live In USA [Bootleg, 2CD]
Pink Floyd 1994 Wish You Were Here - Trance Remixes [Limited Ed.]
Pink Floyd 1995 P·U·L·S·E [Japan, 3rd issue 2005]
Pink Floyd 1997 The Wall (The Soundtrack Of The Motion Picture) [Bootleg, 2CD]
Pink Floyd 1997 1967: The First 3 Singles [EP]
Pink Floyd 2000 A Tree Full Of Secrets [Bootleg, 17+1 (data) CDs]
Pink Floyd 2000 Crackers [Bootleg, 2CD]
Pink Floyd - Echoes: The Best Of Pink Floyd (2001) 2CD
Pink Floyd 2002 Archives: If You Were A Bluebird [Bootleg]
Pink Floyd 2002 Archives: Pink Days And Fat Old Suns [Bootleg]
Pink Floyd 2002 Early Flights CD Serie, Vol. 1-10
Pink Floyd 2005 Naniwa: Natural Dark In Osaka 1972 [Bootleg, 2CD]
Pink Floyd 2005 Old Symphonies [Bootleg]
Pink Floyd 2008 Watching The World Upon The Wall [Bootleg, 2CD]

Pink Floyd 1982 The Wall 25th Anniversary [Deluxe Ed.] [DVD9]
Pink Floyd 1987 Would You Buy A Ticket To This Show? [2xDVD5]
Pink Floyd 2000 Divided We Fall: The Wall Live at Earl's Court [2xDVD5]
Pink Floyd 2006 Live in Saint-Tropez, Music Festival, 08.08.1970 [DVD5]
Pink Floyd 2008 The Great Gig In The Sky: The Album By Album Guide [8xDVD5 & Book Set]
Pink Floyd 2010 In Toronto 1987 [DVD5]
Pink Floyd 2010 Video Collection [Custom DVD9]
Pink Floyd 2013 Classic Albums: Making Of Dark Side Of The Moon [Blu-ray]

The Pink Floyd Chamber Suite 2004 A Classic Rock Tribute to Pink Floyd [DVD5]
The Led Zeppelin Chamber Suite 2003 A Classic Rock Tribute to Led Zeppelin [DVD5]

Roger Waters 1990 The Wall - Live In Berlin [Japan Promo 2CD]
Roger Waters 2011 The Wall - Live In Berlin 1990 [Limited Deluxe Tour Edition] [DVD+2CD]

The Australian Pink Floyd Show 2004 Dark Side Of The Moon - Live at Liverpool Kings Dock Arena 2004 [2DVD Set]
The Australian Pink Floyd Show 2007 Best Of Pink Floyd - Live At The Royal Albert Hall 2007 [DVD9]
The Australian Pink Floyd Show 2012 Live At The Hammersmith Apollo 2011 [Blu-ray]

Celtic Pink Floyd 2011 Celtic Pink Floyd

David Palmer And The Royal Philharmonic Orchestra 1989 Music Of Pink Floyd - Orchestral Maneuvers [Japanese Ed. 1994]

Dream Theater 2006 Dark Side Of The Moon [Official Bootleg] [DVD5]
Dream Theater 2006 Dark Side of the Moon [Official Bootleg, 2CD]

Easy Star All-Stars 2003 Dub Side Of The Moon

Echoes 2015 Barefoot To The Moon: An Acoustic Tribute To Pink Floyd
Echoes 2015 Barefoot To The Moon: An Acoustic Tribute To Pink Floyd [DVD9]

The Flaming Lips 2009 The Flaming Lips & Stardeath and White Dwarfs with Henry Rollins and Peaches Doing The Dark Side of the Moon

Lazy 2006 F • L • O • Y • D : A Chillout Experience [Digipak]

The London Philharmonic Orchestra 1995 Us And Them: Symphonic Pink Floyd

Michael Armstrong 2006 Rockabye Baby! Lullaby Renditions Of Pink Floyd

Misriat 1999 Another Brick In The Wall (A Tribute to Pink Floyd)

Sam Yahel • Ari Hoenig • Mike Moreno • Seamu Blake 2008 Jazz Side Of The Moon: Music Of Pink Floyd

The Squirrels 2000 The Not-So-Bright Side Of The Moon

Voices On The Dark Side 2005 Dark Side Of The Moon A Cappella (Digipak)

V.A. 1995 The Moon Revisited (A Tribute to Pink Floyd)
V.A. 2000/2002 The Electronic Tribute To Pink Floyd [Volume 1 & 2]
V.A. 2001 Pickin' On Pink Floyd: A Bluegrass Tribute
V.A. 2002 The Reggae Tribute To Pink Floyd
V.A. 2002 Pigs And Pyramids: An All Star Lineup Performing The Songs Of Pink Floyd
V.A. 2004 Breathe: A Tribute To Pink Floyd
V.A. 2005 Back Against The Wall - A Tribute to Pink Floyd [2CD]
V.A. 2006 Pink Floyd Redux: A New Music Experience [Digipak]
V.A. 2007 The Music Of Pink Floyd
V.A. 2007 Pink Box: Songs Of Pink Floyd [2CD]
V.A. 2007 Top Musicians Play: Pink Floyd The Wall [2CD]
V.A. 2010 Pink Floyd: Greatest Hits Covered [2CD] vbr
V.A. 2010 Pink Floyd: Greatest Hits Covered [2CD]
V.A. 2011 A Collection of Delicate Diamonds: A Tribute to Pink Floyd [2CD Album Digipak]
V.A. 2011 Mojo Presents: Return To The Dark Side Of The Moon / Wish You Were Here Again
V.A. 2013 The Many Faces of Pink Floyd: A Journey Through The Inner World of Pink Floyd (2013) [3CD Set]
V.A. 2015 The Everlasting Songs: An All Star Tribute To Pink Floyd


––––––––––––––––––––––––––––––

Pink Floyd - The Dark Side Of The Moon (2011) [Immersion Edition, Box Set 3CD+2DVD+1Blu-ray]


–––––––––––
*********
FLAC + MP3
Disc 1 ~ Disc 2 ~ Disc 6
Nitroflare

*******
DVD
Disc 3 Nitroflare
Disc 4 Nitroflare

*********
BLU-RAY
Disc 5 Nitroflare

*********
FULL SCANS
Nitroflare