Subcategories

Pink Floyd - Delicate Sound of Thunder (1988) [Japan Edition]

Posted By: technick
Pink Floyd - Delicate Sound of Thunder (1988)  [Japan Edition]

Pink Floyd - Delicate Sound of Thunder (1988)
[Japan 3rd Issue]

EAC: ape (image)+cue+log | RAR, 3%, 281,61MB + 323,81MB
mp3 320kbps | RAR, 3%, 115,33MB + 129,88MB | Full Scans, 300dpi | RAR, 3%, 180,29MB
Label: CBS/Sony Records | Cat №: 42DP 5294~5 | (FilePost+DepositFiles)

"Delicate Sound of Thunder" is a Pink Floyd live double album from the David Gilmour-led era of the band which was recorded over five nights at the Nassau Coliseum on Long Island, New York in August 1988 and mixed at Abbey Road Studios in September 1988. It was released on 22 November 1988, through EMI Records in the United Kingdom and Columbia Records in the United States. This was the last Pink Floyd release made with vinyl as its primary medium; all subsequent releases have been made with CD as their primary medium.
The album was released in 1988 as a double LP, double cassette, and a double CD, each format containing a slightly different track listing. The album includes many works from "A Momentary Lapse of Reason" as well as quite a few from older albums. The double LP format did not have "Us and Them" on the track listing. Both the double LP and the double cassette had "Wish You Were Here" between "Another Brick in the Wall (Part 2)" and "Comfortably Numb".
Although David Gilmour stated around the time of its release and on a radio interview in 1992 that the album contained no studio overdubbing whatsoever, he embellished the tracks during mixing with some extra acoustic guitar on "Comfortably Numb", according to engineer Buford Jones. In addition, some harmonies were replaced by studio re-takes: Richard Wright re-did his vocal on "Us and Them" and Sam Brown replaced Rachel Fury's part in "Comfortably Numb".
"Delicate Sound of Thunder" became the first rock album to be played in space, as Soviet cosmonauts took it aboard Soyuz TM-7. They left the cassette box on Earth to save weight. The members of Pink Floyd were present at the launch. The double LP was also the band's only album to be officially released in the Soviet Union by the state-owned label Melodiya.
Exact Audio Copy V1.0 beta 1 from 15. November 2010

EAC extraction logfile from 1. August 2011, 23:54

Pink Floyd / Delicate Sound Of Thunder [Japan Edition 2005], Disc 1

Used drive : TEAC CD-W552E Adapter: 1 ID: 1

Read mode : Secure
Utilize accurate stream : Yes
Defeat audio cache : Yes
Make use of C2 pointers : No

Read offset correction : 6
Overread into Lead-In and Lead-Out : No
Fill up missing offset samples with silence : Yes
Delete leading and trailing silent blocks : No
Null samples used in CRC calculations : Yes
Used interface : Installed external ASPI interface

Used output format : Internal WAV Routines
Sample format : 44.100 Hz; 16 Bit; Stereo


TOC of the extracted CD

Track | Start | Length | Start sector | End sector
––––––––––––––––––––––––––––-
1 | 0:00.00 | 12:02.32 | 0 | 54181
2 | 12:02.32 | 5:22.40 | 54182 | 78371
3 | 17:24.72 | 6:17.10 | 78372 | 106656
4 | 23:42.07 | 0:33.40 | 106657 | 109171
5 | 24:15.47 | 9:28.38 | 109172 | 151809
6 | 33:44.10 | 7:19.55 | 151810 | 184789
7 | 41:03.65 | 7:58.37 | 184790 | 220676


Range status and errors

Selected range

Filename Q:\Pink Floyd - 1988 - Delicate Sound of Thunder (CBS_Sony, 42DP 5294~5)\Pink Floyd - Delicate Sound Of Thunder [Japan], Disc 1.wav

Peak level 100.0 %
Extraction speed 1.5 X
Range quality 100.0 %
Test CRC B180F4E9
Copy CRC B180F4E9
Copy OK

No errors occurred


AccurateRip summary

Track 1 accurately ripped (confidence 1) [28FBC4A2]
Track 2 accurately ripped (confidence 1) [195468EC]
Track 3 accurately ripped (confidence 1) [59188A32]
Track 4 accurately ripped (confidence 1) [ACE629CF]
Track 5 accurately ripped (confidence 1) [21B2D221]
Track 6 accurately ripped (confidence 1) [54C1CAC0]
Track 7 accurately ripped (confidence 1) [98B47A8E]

All tracks accurately ripped

End of status report

==== Log checksum B7CC9078313DC1EC60A158AE0C1BFB031AB3B32066E884308D0EC211FE7A1213 ====
Exact Audio Copy V1.0 beta 1 from 15. November 2010

EAC extraction logfile from 2. August 2011, 1:07

Pink Floyd / Delicate Sound of Thunder (Disk 2)

Used drive : TEAC CD-W552E Adapter: 1 ID: 1

Read mode : Secure
Utilize accurate stream : Yes
Defeat audio cache : Yes
Make use of C2 pointers : No

Read offset correction : 6
Overread into Lead-In and Lead-Out : No
Fill up missing offset samples with silence : Yes
Delete leading and trailing silent blocks : No
Null samples used in CRC calculations : Yes
Used interface : Installed external ASPI interface

Used output format : Internal WAV Routines
Sample format : 44.100 Hz; 16 Bit; Stereo


TOC of the extracted CD

Track | Start | Length | Start sector | End sector
––––––––––––––––––––––––––––-
1 | 0:00.00 | 6:16.22 | 0 | 28221
2 | 6:16.22 | 5:24.65 | 28222 | 52586
3 | 11:41.12 | 4:40.60 | 52587 | 73646
4 | 16:21.72 | 7:22.03 | 73647 | 106799
5 | 23:44.00 | 9:52.10 | 106800 | 151209
6 | 33:36.10 | 5:34.25 | 151210 | 176284
7 | 39:10.35 | 8:56.15 | 176285 | 216499
8 | 48:06.50 | 7:08.72 | 216500 | 248671


Range status and errors

Selected range

Filename Q:\Pink Floyd - 1988 - Delicate Sound of Thunder (CBS_Sony, 42DP 5294~5)\Pink Floyd - Delicate Sound Of Thunder [Japan], Disc 2.wav

Peak level 100.0 %
Extraction speed 0.3 X
Range quality 100.0 %
Test CRC 29C55116
Copy CRC 29C55116
Copy OK

No errors occurred


AccurateRip summary

Track 1 accurately ripped (confidence 2) [A19E4CF6]
Track 2 accurately ripped (confidence 2) [CCE2AA74]
Track 3 accurately ripped (confidence 2) [BC73774C]
Track 4 accurately ripped (confidence 2) [B05A2E07]
Track 5 accurately ripped (confidence 2) [4E6A866F]
Track 6 accurately ripped (confidence 2) [6A341EEF]
Track 7 accurately ripped (confidence 2) [80A1CC87]
Track 8 accurately ripped (confidence 2) [A3A27448]

All tracks accurately ripped

End of status report

==== Log checksum 0D43F8E9513712EF6EEC1C192C22F47E121A6DB16EECF7805474AD0E6196764E ====

Tracklist:
CD1
01. Shine On You Crazy Diamond [live] [12:02]
02. Learning To Fly [live] [05:22]
03. Yet Another Movie [live] [06:17]
04. Round And Around [live] [00:33]
05. Sorrow [live] [09:28]
06. The Dogs Of War [live] [07:19]
07. On The Turning Away [live] [07:58]
––––––––
Total Time: [49:04]

CD2
01. One Of These Days [06:16]
02. Time [05:24]
03. Wish You Were Here [04:40]
04. Us & Them [07:22]
05. Money [09:52]
06. Another Brick In The Wall (Part II) [05:34]
07. Comfortably Numb [08:56]
08. Run Like Hell [07:08]
––––––––
Total Time: [55:18]
No mirrors, please!

Welcome to My Blog!