Subcategories

Pink Floyd - A Collection Of Great Dance Songs (1981) {Columbia CK 37680}

Posted By: TestTickles
Pink Floyd - A Collection Of Great Dance Songs (1981) {Columbia CK 37680}

Pink Floyd - A Collection Of Great Dance Songs (1981) {Columbia CK 37680}
EAC Rip | FLAC with CUE and log | scans | 244 mb
MP3 CBR 320kbps | RAR | 108 mb
Genre: progressive rock, classic rock

A Collection Of Great Dance Songs is a 1981 compilation album by Pink Floyd. It was released between The Wall and The Final Cut. This is the original U.S. pressing released on Columbia Records. If you would like to hear the Capitol remaster done in 2000, you may go here and ask for a re-seed.
The success of The Wall in 1979 and throughout 1980 made Columbia Records in the US impatient for more "product". They decided to request a compilation, and they received one in the form of A Collection Of Great Dance Songs.

A few things made this an interesting compilation. The version of "Money" is a brand new recording, done in 1981. "Shine On You Crazy Diamond" is a unique edit, blending the best elements of the 9 part song and combining it as one, as if to make it more radio friendly. This is also a chance to hear the proper intro of "Another Brick In The Wall (Part II)", as heard on the original 45 rpm single. Unlike the 45, which fades out 40 seconds into David Gilmour's solo, it fades out during the execution of the pudding.

Pink Floyd - A Collection Of Great Dance Songs (1981) {Columbia CK 37680}

1. One of These Days
2. Money
3. Sheep
4. Shine On You Crazy Diamond
5. Wish You Were Here
6. Another Brick In The Wall (Part II)


EAC extraction logfile from 2. December 2006, 11:04 for CD
Pink Floyd / A Collection Of Great Dance Songs

Used drive : LITE-ON DVDRW SOHW-1633S Adapter: 0 ID: 0
Read mode : Secure with NO C2, accurate stream, disable cache
Read offset correction : 12
Overread into Lead-In and Lead-Out : No

Used output format : Internal WAV Routines
44.100 Hz; 16 Bit; Stereo

Other options :
Fill up missing offset samples with silence : Yes
Delete leading and trailing silent blocks : No
Installed external ASPI interface


Track 1
Filename D:\FLAC\Pink Floyd - A Collection Of Great Dance Songs (1981) [FLAC]\01 - One Of These Days.wav

Pre-gap length 0:00:02.00

Peak level 90.1 %
Track quality 99.9 %
Test CRC 5636E7B4
Copy CRC 5636E7B4
Copy OK

Track 2
Filename D:\FLAC\Pink Floyd - A Collection Of Great Dance Songs (1981) [FLAC]\02 - Money.wav

Peak level 95.6 %
Track quality 100.0 %
Test CRC 43BB0627
Copy CRC 43BB0627
Copy OK

Track 3
Filename D:\FLAC\Pink Floyd - A Collection Of Great Dance Songs (1981) [FLAC]\03 - Sheep.wav

Pre-gap length 0:00:02.33

Peak level 98.4 %
Track quality 99.9 %
Test CRC 8B51CCAB
Copy CRC 8B51CCAB
Copy OK

Track 4
Filename D:\FLAC\Pink Floyd - A Collection Of Great Dance Songs (1981) [FLAC]\04 - Shine On You Crazy Diamond.wav

Pre-gap length 0:00:01.80

Peak level 100.0 %
Track quality 100.0 %
Test CRC A6D84E48
Copy CRC A6D84E48
Copy OK

Track 5
Filename D:\FLAC\Pink Floyd - A Collection Of Great Dance Songs (1981) [FLAC]\05 - Wish You Were Here.wav

Peak level 96.2 %
Track quality 100.0 %
Test CRC 3C14E21A
Copy CRC 3C14E21A
Copy OK

Track 6
Filename D:\FLAC\Pink Floyd - A Collection Of Great Dance Songs (1981) [FLAC]\06 - Another Brick In The Wall (Part 2).wav

Peak level 97.7 %
Track quality 100.0 %
Test CRC 44160E5A
Copy CRC 44160E5A
Copy OK

No errors occured


End of status report


Pink Floyd - A Collection Of Great Dance Songs (1981) {Columbia CK 37680}