Subcategories

Pink Floyd - Libest Spacement Monitor (1989) {The Swingin' Pig}

Posted By: TestTickles
Pink Floyd - Libest Spacement Monitor (1989) {The Swingin' Pig}

Pink Floyd - Libest Spacement Monitor (1989) {The Swingin' Pig}
EAC Rip | FLAC with CUE and log | scans | 110 mb
MP3 CBR 320kbps | RAR | 81 mb
Genre: progressive rock, classic rock

Libest Spacement Monitor is the 1989 bootleg album by British progressive rock band The Pink Floyd. Released by The Swingin' Pig (TMOQ), most of this was recorded in support of Atom Heart Mother at the Playhouse Theatre in London on 16 September, 1970. "One Of These Days" is a bonus track.

Pink Floyd - Libest Spacement Monitor (1989) {The Swingin' Pig}

1. Embryo
2. Green Is The Colour
3. Careful With That Axe, Eugene
4. Atom Heart Mother
5. If
6. One Of These Days (Bonus Track)

Exact Audio Copy V1.1 from 23. June 2015

EAC extraction logfile from 6. March 2017, 22:15

Pink Floyd / Libest Spacement Monitor

Used drive : TEAC DVD-ROM DV-28SW Adapter: 1 ID: 0

Read mode : Secure
Utilize accurate stream : Yes
Defeat audio cache : Yes
Make use of C2 pointers : No

Read offset correction : 6
Overread into Lead-In and Lead-Out : No
Fill up missing offset samples with silence : Yes
Delete leading and trailing silent blocks : No
Null samples used in CRC calculations : Yes
Used interface : Native Win32 interface for Win NT & 2000
Gap handling : Appended to previous track

Used output format : Internal WAV Routines
Sample format : 44.100 Hz; 16 Bit; Stereo


TOC of the extracted CD

Track | Start | Length | Start sector | End sector
––––––––––––––––––––––––––––-
1 | 0:00.00 | 10:15.59 | 0 | 46183
2 | 10:15.59 | 3:25.27 | 46184 | 61585
3 | 13:41.11 | 7:23.60 | 61586 | 94870
4 | 21:04.71 | 14:17.22 | 94871 | 159167
5 | 35:22.18 | 5:22.54 | 159168 | 183371
6 | 40:44.72 | 6:58.72 | 183372 | 214793


Track 1

Filename C:\My Documents\My FLAC\Pink Floyd - Libest Spacement Monitor (1989) [FLAC] {The Swingin' Pig}\01 - Embryo.wav

Pre-gap length 0:00:02.00

Peak level 75.7 %
Extraction speed 3.1 X
Track quality 100.0 %
Test CRC C9DB9486
Copy CRC C9DB9486
Track not present in AccurateRip database
Copy OK

Track 2

Filename C:\My Documents\My FLAC\Pink Floyd - Libest Spacement Monitor (1989) [FLAC] {The Swingin' Pig}\02 - Green Is The Colour.wav

Peak level 62.8 %
Extraction speed 3.2 X
Track quality 100.0 %
Test CRC 87536CA0
Copy CRC 87536CA0
Track not present in AccurateRip database
Copy OK

Track 3

Filename C:\My Documents\My FLAC\Pink Floyd - Libest Spacement Monitor (1989) [FLAC] {The Swingin' Pig}\03 - Careful With That Axe, Eugene.wav

Peak level 63.8 %
Extraction speed 3.6 X
Track quality 100.0 %
Test CRC 2F2AB847
Copy CRC 2F2AB847
Track not present in AccurateRip database
Copy OK

Track 4

Filename C:\My Documents\My FLAC\Pink Floyd - Libest Spacement Monitor (1989) [FLAC] {The Swingin' Pig}\04 - Atom Heart Mother.wav

Peak level 100.0 %
Extraction speed 4.3 X
Track quality 100.0 %
Test CRC 27AAC42F
Copy CRC 27AAC42F
Track not present in AccurateRip database
Copy OK

Track 5

Filename C:\My Documents\My FLAC\Pink Floyd - Libest Spacement Monitor (1989) [FLAC] {The Swingin' Pig}\05 - If.wav

Peak level 73.1 %
Extraction speed 4.1 X
Track quality 99.9 %
Test CRC 65DC056D
Copy CRC 65DC056D
Track not present in AccurateRip database
Copy OK

Track 6

Filename C:\My Documents\My FLAC\Pink Floyd - Libest Spacement Monitor (1989) [FLAC] {The Swingin' Pig}\06 - One Of These Days.wav

Peak level 50.8 %
Extraction speed 4.5 X
Track quality 99.9 %
Test CRC 4DDBD819
Copy CRC 4DDBD819
Track not present in AccurateRip database
Copy OK


None of the tracks are present in the AccurateRip database

No errors occurred

End of status report

–– CUETools DB Plugin V2.1.6

[CTDB TOCID: 5OFHqgxRM5IykQvMfPF7VEwx0MU-] disk not present in database
Submit result: 5OFHqgxRM5IykQvMfPF7VEwx0MU- has been uploaded


==== Log checksum 4F91CB465FAB61CC9F284A41BC4517E2256519B0D0AFA56CFC9ADF8CD4A0B690 ====


Pink Floyd - Libest Spacement Monitor (1989) {The Swingin' Pig}