Tags
Language
Tags

Plastic Penny - Two Sides Of A Penny (1968) [Reissue 1993] (Repost)

Posted By: gribovar
Plastic Penny - Two Sides Of A Penny (1968) [Reissue 1993] (Repost)

Plastic Penny - Two Sides Of A Penny (1968) [Reissue 1993]
EAC Rip | FLAC (tracks+.cue+log) - 232 MB | MP3 CBR 320 kbps (LAME 3.93) - 92 MB | Covers - 9 MB
Genre: Psychedelic Rock, Pop Rock | RAR 3% Rec. | Label: Repertoire Records (REP 4368-WP)

Plastic Penny were a British group who made the U.K. Top Ten in early 1968 with "Everything I Am," a labored ballad augmented by strings, that wasn't even one of their best songs. Much of their material was psychedelic pop with hints of encroaching prog-rock, sometimes recalling the Who a bit, elsewhere going into more fey story-songs. Their guitarist, Mick Grabham, would play with Procol Harum between 1973-1977.
Tracklist:
01. Everything I Am
02. Wake Me Up
03. Never My Love
04. Genevieve
05. No Pleasure Without Pain My Love
06. So Much Older Now
70. Mrs. Grundy
08. Take Me Back
09. I Want You
10. It's a Good Thing
11. Strawberry Fields Forever
12. Nobody Knows It (Bonus track)
13. Happy Just to Be With You (Bonus track)

Total time: 39:08

Exact Audio Copy V1.0 beta 1 from 15. November 2010

EAC extraction logfile from 11. March 2011, 13:32

Plastic Penny / Two Sides Of A Penny

Used drive : TSSTcorpCDDVDW TS-L633C Adapter: 1 ID: 0

Read mode : Secure
Utilize accurate stream : Yes
Defeat audio cache : Yes
Make use of C2 pointers : No

Read offset correction : 6
Overread into Lead-In and Lead-Out : No
Fill up missing offset samples with silence : Yes
Delete leading and trailing silent blocks : No
Null samples used in CRC calculations : Yes
Used interface : Native Win32 interface for Win NT & 2000
Gap handling : Appended to previous track

Used output format : User Defined Encoder
Selected bitrate : 768 kBit/s
Quality : High
Add ID3 tag : No
Command line compressor : C:\Program Files\Exact Audio Copy\FLAC\FLAC.EXE
Additional command line options : -6 -V -T "ARTIST=%a" -T "TITLE=%t" -T "ALBUM=%g" -T "DATE=%y" -T "TRACKNUMBER=%n" -T "GENRE=%m" -T "COMMENT=%e" %j–picture="%i"%j %s -o %d


TOC of the extracted CD

Track | Start | Length | Start sector | End sector
––––––––––––––––––––––––––––-
1 | 0:00.00 | 2:29.15 | 0 | 11189
2 | 2:29.15 | 3:09.00 | 11190 | 25364
3 | 5:38.15 | 2:23.55 | 25365 | 36144
4 | 8:01.70 | 2:08.20 | 36145 | 45764
5 | 10:10.15 | 2:42.55 | 45765 | 57969
6 | 12:52.70 | 2:36.40 | 57970 | 69709
7 | 15:29.35 | 5:15.27 | 69710 | 93361
8 | 20:44.62 | 2:21.20 | 93362 | 103956
9 | 23:06.07 | 3:24.53 | 103957 | 119309
10 | 26:30.60 | 2:47.50 | 119310 | 131884
11 | 29:18.35 | 4:24.67 | 131885 | 151751
12 | 33:43.27 | 2:31.50 | 151752 | 163126
13 | 36:15.02 | 2:52.73 | 163127 | 176099


Track 1

Filename H:\music\yalinc\Plastic Penny - Two Sides Of Penny\01 - Plastic Penny - Everything I Am.wav

Pre-gap length 0:00:02.00

Peak level 98.4 %
Extraction speed 1.4 X
Track quality 100.0 %
Test CRC B49C4856
Copy CRC B49C4856
Accurately ripped (confidence 2) [48CBE3C7]
Copy OK

Track 2

Filename H:\music\yalinc\Plastic Penny - Two Sides Of Penny\02 - Plastic Penny - Wake Me Up.wav

Pre-gap length 0:00:03.28

Peak level 96.7 %
Extraction speed 1.6 X
Track quality 100.0 %
Test CRC DE3B2D09
Copy CRC DE3B2D09
Accurately ripped (confidence 2) [12E54D8F]
Copy OK

Track 3

Filename H:\music\yalinc\Plastic Penny - Two Sides Of Penny\03 - Plastic Penny - Never My Love.wav

Pre-gap length 0:00:03.28

Peak level 96.9 %
Extraction speed 1.6 X
Track quality 100.0 %
Test CRC C4E00D3D
Copy CRC C4E00D3D
Accurately ripped (confidence 2) [CF8D39D0]
Copy OK

Track 4

Filename H:\music\yalinc\Plastic Penny - Two Sides Of Penny\04 - Plastic Penny - Genevieve.wav

Pre-gap length 0:00:03.08

Peak level 85.5 %
Extraction speed 1.6 X
Track quality 100.0 %
Test CRC C994B30F
Copy CRC C994B30F
Accurately ripped (confidence 2) [AB9513CE]
Copy OK

Track 5

Filename H:\music\yalinc\Plastic Penny - Two Sides Of Penny\05 - Plastic Penny - No Pleasure Without Pain My Love.wav

Pre-gap length 0:00:03.38

Peak level 88.7 %
Extraction speed 1.8 X
Track quality 100.0 %
Test CRC D27EDD47
Copy CRC D27EDD47
Accurately ripped (confidence 2) [46E9FF06]
Copy OK

Track 6

Filename H:\music\yalinc\Plastic Penny - Two Sides Of Penny\06 - Plastic Penny - So Much Older Now.wav

Pre-gap length 0:00:02.70

Peak level 95.5 %
Extraction speed 1.8 X
Track quality 100.0 %
Test CRC FD5BBFF0
Copy CRC FD5BBFF0
Accurately ripped (confidence 2) [FA023509]
Copy OK

Track 7

Filename H:\music\yalinc\Plastic Penny - Two Sides Of Penny\07 - Plastic Penny - Mrs. Grundy.wav

Pre-gap length 0:00:03.18

Peak level 95.3 %
Extraction speed 2.2 X
Track quality 100.0 %
Test CRC C417A7AC
Copy CRC C417A7AC
Accurately ripped (confidence 2) [E2FBDBB7]
Copy OK

Track 8

Filename H:\music\yalinc\Plastic Penny - Two Sides Of Penny\08 - Plastic Penny - Take Me Back.wav

Pre-gap length 0:00:03.37

Peak level 98.4 %
Extraction speed 2.0 X
Track quality 100.0 %
Test CRC B8EDA783
Copy CRC B8EDA783
Accurately ripped (confidence 2) [C4986C47]
Copy OK

Track 9

Filename H:\music\yalinc\Plastic Penny - Two Sides Of Penny\09 - Plastic Penny - I Want You.wav

Pre-gap length 0:00:03.27

Peak level 98.4 %
Extraction speed 2.2 X
Track quality 100.0 %
Test CRC 96DCDF25
Copy CRC 96DCDF25
Accurately ripped (confidence 2) [62873E69]
Copy OK

Track 10

Filename H:\music\yalinc\Plastic Penny - Two Sides Of Penny\10 - Plastic Penny - It's A Good Thing.wav

Pre-gap length 0:00:02.50

Peak level 98.4 %
Extraction speed 2.2 X
Track quality 100.0 %
Test CRC F03A1E3B
Copy CRC F03A1E3B
Accurately ripped (confidence 2) [323ED5F4]
Copy OK

Track 11

Filename H:\music\yalinc\Plastic Penny - Two Sides Of Penny\11 - Plastic Penny - Strawberry Fields Forever.wav

Pre-gap length 0:00:03.33

Peak level 97.7 %
Extraction speed 2.5 X
Track quality 100.0 %
Test CRC 890E5E40
Copy CRC 890E5E40
Accurately ripped (confidence 2) [A7B7E099]
Copy OK

Track 12

Filename H:\music\yalinc\Plastic Penny - Two Sides Of Penny\12 - Plastic Penny - Nobody Knows It.wav

Pre-gap length 0:00:03.40

Peak level 85.1 %
Extraction speed 2.3 X
Track quality 100.0 %
Test CRC A6B916BE
Copy CRC A6B916BE
Accurately ripped (confidence 2) [B0EA9840]
Copy OK

Track 13

Filename H:\music\yalinc\Plastic Penny - Two Sides Of Penny\13 - Plastic Penny - Happy Just To Be With You.wav

Pre-gap length 0:00:03.12

Peak level 77.7 %
Extraction speed 2.4 X
Track quality 100.0 %
Test CRC D231BA3F
Copy CRC D231BA3F
Accurately ripped (confidence 2) [85BDBCE0]
Copy OK


All tracks accurately ripped

No errors occurred

End of status report

[CUETools log; Date: 30.07.2021 17:54:48; Version: 2.1.4]
[CTDB TOCID: HM7kJiS5NHAjuIU75iBX.9EUGtA-] found.
Track | CTDB Status
1 | (9/9) Accurately ripped
2 | (9/9) Accurately ripped
3 | (9/9) Accurately ripped
4 | (9/9) Accurately ripped
5 | (9/9) Accurately ripped
6 | (9/9) Accurately ripped
7 | (9/9) Accurately ripped
8 | (9/9) Accurately ripped
9 | (9/9) Accurately ripped
10 | (9/9) Accurately ripped
11 | (9/9) Accurately ripped
12 | (9/9) Accurately ripped
13 | (9/9) Accurately ripped
[AccurateRip ID: 00121766-00b7bb82-a1092c0d] found.
Track [ CRC | V2 ] Status
01 [48cbe3c7|d8efac4c] (4+0/4) Accurately ripped
02 [12e54d8f|617631d7] (4+0/4) Accurately ripped
03 [cf8d39d0|a575f9b8] (4+0/4) Accurately ripped
04 [ab9513ce|5518ded0] (4+0/4) Accurately ripped
05 [46e9ff06|6e0c09d5] (4+0/4) Accurately ripped
06 [fa023509|7f523241] (4+0/4) Accurately ripped
07 [e2fbdbb7|f062eeeb] (4+0/4) Accurately ripped
08 [c4986c47|9bf6e3cd] (4+0/4) Accurately ripped
09 [62873e69|04c83dec] (4+0/4) Accurately ripped
10 [323ed5f4|343e3689] (4+0/4) Accurately ripped
11 [a7b7e099|654ece61] (4+0/4) Accurately ripped
12 [b0ea9840|f7370b3c] (4+0/4) Accurately ripped
13 [85bdbce0|d3a60977] (4+0/4) Accurately ripped

Track Peak [ CRC32 ] [W/O NULL] [ LOG ]
– 98,4 [D819C857] [033F1BA4]
01 98,4 [B49C4856] [52002E2F] CRC32
02 96,7 [DE3B2D09] [86A94A49] CRC32
03 96,9 [C4E00D3D] [AD2FDC2C] CRC32
04 85,5 [C994B30F] [B7D74AAC] CRC32
05 88,7 [D27EDD47] [0F352850] CRC32
06 95,5 [FD5BBFF0] [385D45EF] CRC32
07 95,3 [C417A7AC] [5CC51DE9] CRC32
08 98,4 [B8EDA783] [06BE64D3] CRC32
09 98,4 [96DCDF25] [FB2EDBC4] CRC32
10 98,4 [F03A1E3B] [34241550] CRC32
11 97,7 [890E5E40] [841AE392] CRC32
12 85,1 [A6B916BE] [149DDC0B] CRC32
13 77,7 [D231BA3F] [63A1C7CA] CRC32

Thanks to yalinc