Pointer Sisters - Serious Slammin' (1988) [2012]

Posted By: JET 1
Pointer Sisters -  Serious Slammin' (1988) [2012]

Pointer Sisters - Serious Slammin' (1988) [2012]
EAC Rip | FLAC (Tracks) +CUE, LOG | 635 MB | Covers Included
Genre: R&B / Disco | Label: Big Break Records | Catalog Number: CDBBR0125

The Pointer Sisters were one of the most successful female groups the music industry has seen with 13 top 20 singles and eight top 40 albums shared between the US and UK pop charts.
SERIOUS SLAMMIN’ was their ninth & final album with Richard Perry and saw him take the group into the harder electronic funk sound akin to Cameo/Gap Band hits of the period.
HE TURNED ME OUT was the first single and was also the opening theme to the cult movie Action Jackson. This single release saw the sisters return to the top 40 of the R&B and Dance charts. The second single I’M IN LOVE was written by
Jonathan Butler and Simon May and was originally a minor UK hit for Ruby Turner. The Pointer Sisters version became their final R&B hit on RCA Records as well as making the top 40 on Billboard’s Adult Contemporary chart.
Featured as a bonus track on this edition of SERIOUS SLAMMIN’ is the 12” extended remix of BE THERE from Beverly Hills Cop 2. After the huge success of Neutron Dance, featured in Beverly Hills Cop, the Pointers were invited to contribute to the soundtrack of the follow up movie. BE THERE was produced by 80’s hit maker Narada Michael Walden fresh from his hits with Whitney Houston and Aretha Franklin. The 12” remix featured here was mixed by Shep Pettibone and became the groups final hot 100 hit in 1987. This marks the first time the song has ever appeared on a Pointer Sisters album.

Exact Audio Copy V1.3 from 2. September 2016

EAC extraction logfile from 10. June 2017, 2:31

Pointer Sisters / Serious Slammin'

Used drive : GENERIC CDRCB05 Adapter: 1 ID: 1

Read mode : Secure
Utilize accurate stream : Yes
Defeat audio cache : Yes
Make use of C2 pointers : No

Read offset correction : 102
Overread into Lead-In and Lead-Out : No
Fill up missing offset samples with silence : Yes
Delete leading and trailing silent blocks : No
Null samples used in CRC calculations : Yes
Used interface : Native Win32 interface for Win NT & 2000
Gap handling : Appended to previous track

Used output format : User Defined Encoder
Selected bitrate : 768 kBit/s
Quality : High
Add ID3 tag : No
Command line compressor : C:\Program Files (x86)\Exact Audio Copy\FLAC\FLAC.EXE
Additional command line options : -6 -V -T "ARTIST=%artist%" -T "TITLE=%title%" -T "ALBUM=%albumtitle%" -T "DATE=%year%" -T "TRACKNUMBER=%tracknr%" -T "GENRE=%genre%" -T "COMMENT=%comment%" -T "BAND=%albuminterpret%" -T "ALBUMARTIST=%albuminterpret%" -T "COMPOSER=%composer%" %haslyrics%–tag-from-file=LYRICS="%lyricsfile%"%haslyrics% -T "DISCNUMBER=%cdnumber%" -T "TOTALDISCS=%totalcds%" -T "TOTALTRACKS=%numtracks%" %hascover%–picture="%coverfile%"%hascover% %source% -o %dest%


TOC of the extracted CD

Track | Start | Length | Start sector | End sector
––––––––––––––––––––––––––––-
1 | 0:00.00 | 4:28.36 | 0 | 20135
2 | 4:28.36 | 4:16.15 | 20136 | 39350
3 | 8:44.51 | 4:51.53 | 39351 | 61228
4 | 13:36.29 | 4:11.51 | 61229 | 80104
5 | 17:48.05 | 4:23.33 | 80105 | 99862
6 | 22:11.38 | 4:49.44 | 99863 | 121581
7 | 27:01.07 | 4:16.46 | 121582 | 140827
8 | 31:17.53 | 3:46.65 | 140828 | 157842
9 | 35:04.43 | 4:16.74 | 157843 | 177116
10 | 39:21.42 | 4:48.00 | 177117 | 198716
11 | 44:09.42 | 6:57.62 | 198717 | 230053
12 | 51:07.29 | 7:23.16 | 230054 | 263294
13 | 58:30.45 | 3:57.10 | 263295 | 281079
14 | 62:27.55 | 4:11.25 | 281080 | 299929
15 | 66:39.05 | 4:37.04 | 299930 | 320708


Track 1

Filename L:\POST\Pointer Sisters - Serious Slammin' (1988) [2012]\01 Serious Slammin'.wav

Pre-gap length 0:00:02.00

Peak level 96.6 %
Extraction speed 2.5 X
Track quality 100.0 %
Test CRC 304D38F6
Copy CRC 304D38F6
Accurately ripped (confidence 2) [DA6FCBD4] (AR v2)
Copy OK

Track 2

Filename L:\POST\Pointer Sisters - Serious Slammin' (1988) [2012]\02 Shut Up And Dance.wav

Pre-gap length 0:00:00.46

Peak level 96.6 %
Extraction speed 2.7 X
Track quality 100.0 %
Test CRC 97996EB0
Copy CRC 97996EB0
Accurately ripped (confidence 2) [20AC9F12] (AR v2)
Copy OK

Track 3

Filename L:\POST\Pointer Sisters - Serious Slammin' (1988) [2012]\03 Moonlight Dancing.wav

Pre-gap length 0:00:00.20

Peak level 96.6 %
Extraction speed 3.0 X
Track quality 100.0 %
Test CRC 74632FB5
Copy CRC 74632FB5
Accurately ripped (confidence 2) [524FF0DC] (AR v2)
Copy OK

Track 4

Filename L:\POST\Pointer Sisters - Serious Slammin' (1988) [2012]\04 He Turned Me Out.wav

Pre-gap length 0:00:00.08

Peak level 96.6 %
Extraction speed 2.8 X
Track quality 99.9 %
Test CRC EB2FAB32
Copy CRC EB2FAB32
Accurately ripped (confidence 2) [B443F877] (AR v2)
Copy OK

Track 5

Filename L:\POST\Pointer Sisters - Serious Slammin' (1988) [2012]\05 Flirtatious.wav

Peak level 96.6 %
Extraction speed 3.3 X
Track quality 100.0 %
Test CRC 1317074B
Copy CRC 1317074B
Accurately ripped (confidence 2) [71ECD2BF] (AR v2)
Copy OK

Track 6

Filename L:\POST\Pointer Sisters - Serious Slammin' (1988) [2012]\06 My Life (Remix).wav

Pre-gap length 0:00:00.42

Peak level 96.6 %
Extraction speed 3.6 X
Track quality 100.0 %
Test CRC 5A4E6347
Copy CRC 5A4E6347
Accurately ripped (confidence 2) [7E525DD1] (AR v2)
Copy OK

Track 7

Filename L:\POST\Pointer Sisters - Serious Slammin' (1988) [2012]\07 I'm In Love.wav

Pre-gap length 0:00:00.17

Peak level 96.6 %
Extraction speed 3.3 X
Track quality 99.9 %
Test CRC 816F5659
Copy CRC 816F5659
Accurately ripped (confidence 2) [B057A6D7] (AR v2)
Copy OK

Track 8

Filename L:\POST\Pointer Sisters - Serious Slammin' (1988) [2012]\08 Pride.wav

Pre-gap length 0:00:01.49

Peak level 96.6 %
Extraction speed 3.8 X
Track quality 100.0 %
Test CRC 0C4B4B02
Copy CRC 0C4B4B02
Accurately ripped (confidence 2) [F15FBF34] (AR v2)
Copy OK

Track 9

Filename L:\POST\Pointer Sisters - Serious Slammin' (1988) [2012]\09 Uh Uh.wav

Peak level 96.6 %
Extraction speed 3.6 X
Track quality 99.9 %
Test CRC 0DC8D204
Copy CRC 0DC8D204
Accurately ripped (confidence 2) [6895A9D0] (AR v2)
Copy OK

Track 10

Filename L:\POST\Pointer Sisters - Serious Slammin' (1988) [2012]\10 I Will Be There.wav

Peak level 96.6 %
Extraction speed 4.3 X
Track quality 100.0 %
Test CRC 76799B8C
Copy CRC 76799B8C
Accurately ripped (confidence 2) [BFA5BB59] (AR v2)
Copy OK

Track 11

Filename L:\POST\Pointer Sisters - Serious Slammin' (1988) [2012]\11 Be There (From Beverley Hills Cop II) (12'' Extended Remix).wav

Pre-gap length 0:00:03.31

Peak level 96.6 %
Extraction speed 4.7 X
Track quality 100.0 %
Test CRC 4D8B7EBC
Copy CRC 4D8B7EBC
Accurately ripped (confidence 2) [480492A3] (AR v2)
Copy OK

Track 12

Filename L:\POST\Pointer Sisters - Serious Slammin' (1988) [2012]\12 He Turned Me Out (Extended Dance Mix).wav

Pre-gap length 0:00:00.51

Peak level 96.6 %
Extraction speed 4.6 X
Track quality 99.9 %
Test CRC 6C5EDE61
Copy CRC 6C5EDE61
Accurately ripped (confidence 2) [51A62712] (AR v2)
Copy OK

Track 13

Filename L:\POST\Pointer Sisters - Serious Slammin' (1988) [2012]\13 I'm In Love (Single Version).wav

Pre-gap length 0:00:00.63

Peak level 100.0 %
Extraction speed 4.8 X
Track quality 100.0 %
Test CRC 6B0A6614
Copy CRC 6B0A6614
Accurately ripped (confidence 2) [FC1BD76E] (AR v2)
Copy OK

Track 14

Filename L:\POST\Pointer Sisters - Serious Slammin' (1988) [2012]\14 Translation (Remix).wav

Pre-gap length 0:00:01.47

Peak level 96.6 %
Extraction speed 4.4 X
Track quality 99.9 %
Test CRC 8EE31585
Copy CRC 8EE31585
Accurately ripped (confidence 2) [8F83E758] (AR v2)
Copy OK

Track 15

Filename L:\POST\Pointer Sisters - Serious Slammin' (1988) [2012]\15 He Turned Me Out (Extended Radio Version).wav

Pre-gap length 0:00:00.59

Peak level 96.6 %
Extraction speed 5.1 X
Track quality 100.0 %
Test CRC F65C82EF
Copy CRC F65C82EF
Accurately ripped (confidence 2) [3CD98DED] (AR v2)
Copy OK


All tracks accurately ripped

No errors occurred

End of status report

–– CUETools DB Plugin V2.1.6

[CTDB TOCID: mZ3_I9QnASkGy0b3PgRRtJ_EPQs-] found
Submit result: mZ3_I9QnASkGy0b3PgRRtJ_EPQs- has been confirmed
Track | CTDB Status
1 | (5/5) Accurately ripped
2 | (5/5) Accurately ripped
3 | (5/5) Accurately ripped
4 | (5/5) Accurately ripped
5 | (5/5) Accurately ripped
6 | (5/5) Accurately ripped
7 | (5/5) Accurately ripped
8 | (5/5) Accurately ripped
9 | (5/5) Accurately ripped
10 | (5/5) Accurately ripped
11 | (5/5) Accurately ripped
12 | (5/5) Accurately ripped
13 | (5/5) Accurately ripped
14 | (5/5) Accurately ripped
15 | (5/5) Accurately ripped


==== Log checksum 6CD5DD8A802C4D20CD48B4831D7578173735EEDB2215375802AE9AF454B53977 ====


Tracklist:
1. SERIOUS SLAMMIN’
2. SHUT UP AND DANCE
3. MOONLIGHT DANCING
4. HE TURNED ME OUT (FROM ACTION JACKSON)
5. FLIRTATIOUS
6. MY LIFE
7. I’M IN LOVE
8. PRIDE
9. UH UH
10. I WILL BE THERE
BONUS
11. BE THERE (From Beverly Hills Cop 2) (12” Extended Dance Mix)
12. HE TURNED ME OUT (From Action Jackson) (Extended Dance Mix)
13. I’M IN LOVE (Single Version)
14. TRANSLATION (Remix)
15. HE TURNED ME OUT (From Action Jackson) (Extended Radio Mix)