Subcategories

Leonid Alekseyevich Polovinkin - Piano Music (Karpova)

Posted By: tapaz9
Leonid Alekseyevich Polovinkin - Piano Music (Karpova)

Leonid Alekseyevich Polovinkin - Piano Music (Karpova)
Classical | EAC: FLAC+Cue+Log | 1 Cd, Covers + Booklet | 378 Mb
Label: Fuga Libera - Date: 2009

Still today, no-one really knows who Leonid Polovinkin was. He was however a tireless animator of the Russian avant-garde of the Twenties. He then became the official musician and the companion in life of the great Natalia Sats, who founded the renown musical Theater for Youth of Moscow - the same that ordered Peter and the wolf to Prokofiev. He composed numerous operas for children, ballets, film music, etc. But after Stalin's reign, the war and his premature death, he was forgotten. Completely. It is thus a real discovery that Anait Karpova, soloist at the Moscow Philharmonic Orchestra and direct descendant of Natalia Stats, proposes us. The extraordinary colour's range of Polovinkin, from innocent joy until dark anxiety, will charm all piano and Russian music lovers.
Tracks:

01. Dzyuba - I. Introduction [0:01:30.30]
02. II. Ville d'eau [0:01:59.48]
03. III. Le negre [0:00:43.36]
04. IV. Scene de jongleurs et valse melancolique [0:04:23.48]
05. V. Danse avec les coussins [0:01:48.15]
06. Danse lyrique, Op. 21, No. 2: I. Allegro cantabile [0:02:35.33]
07. Humoresque No. 2: I. Andantino - Allegretto [0:03:45.60]
08. Magniti - I. Regard d'adieux [0:01:05.00]
09. II. Inquietude [0:00:47.15]
10. III. Chanson populaire d'Ukraine [0:01:50.60]
11. IV. Danse populaire [0:03:02.12]
12. Septieme evenement (Seventh Event) - I. Pressentiment [0:02:04.51]
13. II. Action [0:01:51.72]
14. III. Souvenir [0:01:26.27]
15. Humoresque No. 1 [0:03:17.18]
16. 6 Pieces, Op. 30 (excerpts) - No. 4. Valse [0:03:51.48]
17. No. 6. Berceuse [0:01:37.18]
18. Proisshestviya (Incidents), Op. 5 - I. Rubato a tempo moderato [0:03:05.24]
19. II. Allegro non troppo [0:02:30.21]
20. Sonata No. 4 in F major, Op. 18 - I. Presto spirituoso [0:08:03.06]
21. II. Lento maestoso – Allegro tumultuoso [0:02:20.66]
22. III. Finale: Allegro con brio [0:06:26.46]


Exact Audio Copy V1.0 beta 3 from 29. August 2011

EAC extraction logfile from 3. February 2013, 17:56

Leonid Alekseyevich Polovinkin / Piano Music (Karpova)

Used drive : TSSTcorpCDDVDW SH-S223C Adapter: 2 ID: 1

Read mode : Secure
Utilize accurate stream : Yes
Defeat audio cache : Yes
Make use of C2 pointers : No

Read offset correction : 697
Overread into Lead-In and Lead-Out : No
Fill up missing offset samples with silence : Yes
Delete leading and trailing silent blocks : No
Null samples used in CRC calculations : Yes
Used interface : Native Win32 interface for Win NT & 2000

Used output format : User Defined Encoder
Selected bitrate : 896 kBit/s
Quality : High
Add ID3 tag : No
Command line compressor : C:\Program Files (x86)\Exact Audio Copy\FLAC\FLAC.EXE
Additional command line options : -V -0 -T "COMMENT=Ripped by Tapaz9" -T "artist=%artist%" -T "title=%title%" -T "album=%albumtitle%" -T "date=%year%" -T "tracknumber=%tracknr%" -T "genre=%genre%" %source%


TOC of the extracted CD

Track | Start | Length | Start sector | End sector
––––––––––––––––––––––––––––-
1 | 0:00.00 | 1:30.30 | 0 | 6779
2 | 1:30.30 | 1:59.48 | 6780 | 15752
3 | 3:30.03 | 0:43.36 | 15753 | 19013
4 | 4:13.39 | 4:23.48 | 19014 | 38786
5 | 8:37.12 | 1:48.15 | 38787 | 46901
6 | 10:25.27 | 2:35.33 | 46902 | 58559
7 | 13:00.60 | 3:45.60 | 58560 | 75494
8 | 16:46.45 | 1:05.00 | 75495 | 80369
9 | 17:51.45 | 0:47.15 | 80370 | 83909
10 | 18:38.60 | 1:50.60 | 83910 | 92219
11 | 20:29.45 | 3:02.12 | 92220 | 105881
12 | 23:31.57 | 2:04.51 | 105882 | 115232
13 | 25:36.33 | 1:51.72 | 115233 | 123629
14 | 27:28.30 | 1:26.27 | 123630 | 130106
15 | 28:54.57 | 3:17.18 | 130107 | 144899
16 | 32:12.00 | 3:51.48 | 144900 | 162272
17 | 36:03.48 | 1:37.18 | 162273 | 169565
18 | 37:40.66 | 3:05.24 | 169566 | 183464
19 | 40:46.15 | 2:30.21 | 183465 | 194735
20 | 43:16.36 | 8:03.06 | 194736 | 230966
21 | 51:19.42 | 2:20.66 | 230967 | 241532
22 | 53:40.33 | 6:26.46 | 241533 | 270528


Range status and errors

Selected range

Filename F:\Musique\Polovinkin, Leonid Alekseyevich\Polovinkin_PianoWorks\Leonid Alekseyevich Polovinkin - Piano Music (Karpova).wav

Peak level 100.0 %
Extraction speed 14.5 X
Range quality 100.0 %
Copy CRC 37943150
Copy OK

No errors occurred

End of status report

==== Log checksum D9E585A380359C317C857AB60B55BC502C25D1F67627666E95A5FB91BEF81F31 ====

No Mirrors and Torrent-uploads Please

See my classical digital download posts in the Vinyl & HR section or check out My Avax blog