Subcategories

Leonid Polovinkin - Symphony No.9 (repost)

Posted By: tapaz9
Leonid Polovinkin - Symphony No.9 (repost)

Leonid Polovinkin - Symphony No.9 (repost)
Classical | EAC: FLAC+Cue+Log | 1 Cd, Covers | 279 Mb
Label: Northern Flowers - Date: 2011

Written in 1944, Symphony No. 9 looks forward, not backward with victory in the war already almost certain, and Polovinkin renders homage to the Mighty Five in the colorful, folk-derived melodies throughout the 49-minute work but especially in the scherzo, the lullaby slow movement and the first theme of the finale. A work on this scale is de-fact “epic” and elements of that genre are present in the outer movements but there is no anguish and suffering here!
review @ recordsinternational.com
Tracks:

01. I. Andante. Allegro moderato [0:20:13.03]
02. II. Scherzo. Allegro vivace [0:07:33.20]
03. III. Andante. Cantilena della ninna-nanna [0:08:01.64]
04. IV. Finale. Allegro con brio [0:13:38.69]


Exact Audio Copy V1.0 beta 3 from 29. August 2011

EAC extraction logfile from 7. February 2013, 23:58

Leonid Polovinkin / Symphony No.9

Used drive : TSSTcorpCDDVDW SH-S223C Adapter: 2 ID: 1

Read mode : Secure
Utilize accurate stream : Yes
Defeat audio cache : Yes
Make use of C2 pointers : No

Read offset correction : 697
Overread into Lead-In and Lead-Out : No
Fill up missing offset samples with silence : Yes
Delete leading and trailing silent blocks : No
Null samples used in CRC calculations : Yes
Used interface : Native Win32 interface for Win NT & 2000

Used output format : User Defined Encoder
Selected bitrate : 896 kBit/s
Quality : High
Add ID3 tag : No
Command line compressor : C:\Program Files (x86)\Exact Audio Copy\FLAC\FLAC.EXE
Additional command line options : -V -0 -T "COMMENT=Ripped by Tapaz9" -T "artist=%artist%" -T "title=%title%" -T "album=%albumtitle%" -T "date=%year%" -T "tracknumber=%tracknr%" -T "genre=%genre%" %source%


TOC of the extracted CD

Track | Start | Length | Start sector | End sector
––––––––––––––––––––––––––––-
1 | 0:00.00 | 20:13.03 | 0 | 90977
2 | 20:13.03 | 7:33.20 | 90978 | 124972
3 | 27:46.23 | 8:01.64 | 124973 | 161111
4 | 35:48.12 | 13:38.69 | 161112 | 222530


Range status and errors

Selected range

Filename F:\Musique\Polovinkin, Leonid Alekseyevich\Polovinkin_SymphonyNo9\Leonid Polovinkin - Symphony No.9.wav

Peak level 98.5 %
Extraction speed 14.1 X
Range quality 99.9 %
Copy CRC 8C8DFE39
Copy OK

No errors occurred

End of status report

==== Log checksum 87014B8084332886672210123549D02E6C222A5BBFCCA689B43B91F8A7000520 ====

No Mirrors and Torrent-uploads Please

See my classical digital download posts in the Vinyl & HR section or check out My Avax blog