Subcategories

Leonid Alekseyevich Polovinkin - Symphony No. 7, Heroic Overture, The Sunny Tribe (Titov)

Posted By: tapaz9
Leonid Alekseyevich Polovinkin - Symphony No. 7, Heroic Overture, The Sunny Tribe (Titov)

Leonid Alekseyevich Polovinkin - Symphony No. 7, Heroic Overture, The Sunny Tribe (Titov)
Classical | EAC: FLAC+Cue+Log | 1 Cd, Covers | 296 Mb
Label: Northern Flowers - Date: 2011

What an impressive composer Polovinkin is turning out to have been. We noted three months ago that his Symphony No. 9 contained connections with the late Russian Romanticism of the Mighty Five, making that work quite unlike what one might expect from a Soviet composing a symphony in wartime. The Seventh comes from two years earlier (1942), begun in Moscow and finished in evacuation quarters in Tashkent. It’s quite a bit shorter (31 minutes as opposed to 49), making it even more “classical” in length as well as in form: the first movement has the most lovely, folk-tinged second subject and, while there is a striding march, it’s not blastingly militaristic and Polovinkin’s handling of these disparate elements is utterly assured; a short, pastoral, utterly relaxed and lovely Andante pastorale follows, itself giving way to a dancing scherzo with roots in Russian dances of the Borodin type while the finale returns to the conflicts of the first movement but gaining a bright and optimistic conclusion without any resort to stridency or bombast. The Heroic Overture (also 1942) must have been Polovinkin’s repository of choice for the latter although it’s not too brain-battering while the 18-minute suite of music for a documentary on bees (that’s right, bees, in 1944 - and it won the first prize at the 1947 world festival of documentary cinema) is a startlingly creative and innovative set of seven movements which make you wonder what this composer wasn’t good at (note: as a young man he also excelled at soccer, ice hockey and tennis!).
review @ recordsinternational.com
Tracks:

01. Symphony No. 7 - I. Allegro non troppo [0:13:05.36]
02. II. Andante pastorale [0:05:53.21]
03. III. Scherzo: Vivo, ma non presto [0:04:57.49]
04. IV. Finale: Allegro non troppo [0:07:45.02]
05. Heroic Overture [0:09:19.49]
06. The Sunny Tribe - I. Hymn to Nature [0:01:03.41]
07. II. Mist and Sun [0:05:44.60]
08. III. Thunderstorm [0:00:28.45]
09. IV. Dance of Bees [0:02:15.56]
10. V. Mist [0:04:08.31]
11. VI. Palace [0:02:50.62]
12. VII. Battle of Bees [0:01:41.31]


Exact Audio Copy V1.0 beta 3 from 29. August 2011

EAC extraction logfile from 3. February 2013, 13:11

Leonid Alekseyevich Polovinkin / Symphony No. 7, Heroic Overture, The Sunny Tribe (Titov)

Used drive : TSSTcorpCDDVDW SH-S223C Adapter: 2 ID: 1

Read mode : Secure
Utilize accurate stream : Yes
Defeat audio cache : Yes
Make use of C2 pointers : No

Read offset correction : 697
Overread into Lead-In and Lead-Out : No
Fill up missing offset samples with silence : Yes
Delete leading and trailing silent blocks : No
Null samples used in CRC calculations : Yes
Used interface : Native Win32 interface for Win NT & 2000

Used output format : User Defined Encoder
Selected bitrate : 896 kBit/s
Quality : High
Add ID3 tag : No
Command line compressor : C:\Program Files (x86)\Exact Audio Copy\FLAC\FLAC.EXE
Additional command line options : -V -0 -T "COMMENT=Ripped by Tapaz9" -T "artist=%artist%" -T "title=%title%" -T "album=%albumtitle%" -T "date=%year%" -T "tracknumber=%tracknr%" -T "genre=%genre%" %source%


TOC of the extracted CD

Track | Start | Length | Start sector | End sector
––––––––––––––––––––––––––––-
1 | 0:00.00 | 13:05.36 | 0 | 58910
2 | 13:05.36 | 5:53.21 | 58911 | 85406
3 | 18:58.57 | 4:57.49 | 85407 | 107730
4 | 23:56.31 | 7:45.02 | 107731 | 142607
5 | 31:41.33 | 9:19.49 | 142608 | 184581
6 | 41:01.07 | 1:03.41 | 184582 | 189347
7 | 42:04.48 | 5:44.60 | 189348 | 215207
8 | 47:49.33 | 0:28.45 | 215208 | 217352
9 | 48:18.03 | 2:15.56 | 217353 | 227533
10 | 50:33.59 | 4:08.31 | 227534 | 246164
11 | 54:42.15 | 2:50.62 | 246165 | 258976
12 | 57:33.02 | 1:41.31 | 258977 | 266582


Range status and errors

Selected range

Filename F:\Musique\Polovinkin, Leonid Alekseyevich\Polovinkin_SymphonyNo7\Polovinkin - Symphony No. 7, Heroic Overture, The Sunny Tribe.wav

Peak level 99.4 %
Extraction speed 14.0 X
Range quality 100.0 %
Copy CRC 47694803
Copy OK

No errors occurred

End of status report

==== Log checksum 0921B9727118D3EC4406FFBA82DECFC4B23B279F846A2AC57B14EB759EB07F39 ====

No Mirrors and Torrent-uploads Please

See my classical digital download posts in the Vinyl & HR section or check out My Avax blog