Subcategories

Porcupine Tree - 2 Albums (1996-2000) [Reissue 2007] (Repost)

Posted By: gribovar
Porcupine Tree - 2 Albums (1996-2000) [Reissue 2007] (Repost)

Porcupine Tree - 2 Albums (1996-2000) [Reissue 2007]
EAC Rip | FLAC (image+.cue+log) - 1,1 GB | MP3 CBR 320 kbps (LAME 3.93) - 422 MB | Covers - 256 MB
Genre: Progressive/Psychedelic Rock, Electronic, Ambient | RAR 3% Rec. | Label: Kscope

Porcupine Tree - Signify (1996). Signify was the first Porcupine Tree album recorded as a full band unit, rather than primarily by frontman Steven Wilson with occasional assistance from other musicians, primarily the ones who would become full-time band members as of this album; Richard Barbieri, Colin Edwin, and Chris Maitland.
Signify marked a change in musical direction for Porcupine Tree. Instead of long ambient and psychedelic musical adventures, the band streamlined their sound into shorter, more digestible bites. Yes, the psychedelic feel is still there and the Floydian vibe is still present (though much weaker). It's just that now Porcupine Tree has been molded into a more palatable listening experience for the radio. A nicely done, excellent work with elements of psychedelic and ambient rock.

Porcupine Tree - Voyage 34 (2000). Voyage 34, originally a two-volume EP series from 1992-1993, was expanded into "The Complete Trip" after Steven Wilson remixed and added production for its eventual re-release seven years later. Album story is based on a LSD-trip experienced by a guy named Bryan. There are several parts on the album which are familiar with some classic prog material out of the 70's. Once you have a effect of the epic piece A Plague of Lighthouse Keepers by Van Der Graaf Generator and for most part from Pink Floyd a famous guitar rhythm from The Wall, which continues throughout "Voyage 34 - The Complete Trip". These ideas may be stolen from these legendary bands, but they fit incredibly well to the trippy atmosphere of this psychedelic rock concept. Another note is, that this album is completely instrumental, beside the effects and the speaking of the story-guiding teller. Steven Wilson plays some really refreshing guitar leads on the uplifting moments on the record, specially on the best part, "Phase One".

Porcupine Tree - 2 Albums (1996-2000) [Reissue 2007] (Repost)

Porcupine Tree - Signify (1996) [2CD Reissue 2007]
EAC Rip | FLAC (image+.cue+log) - 714 MB | MP3 CBR 320 kbps (LAME 3.93) - 256 MB | Covers - 133 MB
Genre: Progressive/Psychedelic Rock | RAR 3% Rec. | Label: Kscope (KSCOPE131), Remastered

CD 1 Tracklist (Signify, 1996):
01. Bornlivedie
02. Signify
03. The Sleep of No Dreaming
04. Pagan
05. Waiting Phase One
06. Waiting Phase Two
07. Sever
08. Idiot Prayer
09. Every Home Is Wired
10. Intermediate Jesus
11. "Light Mass Prayers"
12. Dark Matter

Total time: 01:02:04

CD 2 Tracklist (Insignificance, Demos 1995-96):
01. Wake As Gun I
02. Hallogallo
03. Signify
04. Waiting
05. Smiling Not Smiling
06. Wake As Gun II
07. Neural Rust
08. Dark Origins
09. Sever Tomorrow
10. Nine Cats (Acoustic version)

Total time: 46:29

Exact Audio Copy V1.0 beta 3 from 29. August 2011

EAC extraction logfile from 5. February 2017, 3:11

Porcupine Tree / Signify (CD 1)

Used drive : ASUS DRW-24B5ST Adapter: 0 ID: 1

Read mode : Secure
Utilize accurate stream : Yes
Defeat audio cache : Yes
Make use of C2 pointers : No

Read offset correction : 6
Overread into Lead-In and Lead-Out : No
Fill up missing offset samples with silence : Yes
Delete leading and trailing silent blocks : No
Null samples used in CRC calculations : Yes
Used interface : Native Win32 interface for Win NT & 2000

Used output format : Internal WAV Routines
Sample format : 44.100 Hz; 16 Bit; Stereo


TOC of the extracted CD

Track | Start | Length | Start sector | End sector
––––––––––––––––––––––––––––-
1 | 0:00.00 | 1:46.03 | 0 | 7952
2 | 1:46.03 | 3:26.15 | 7953 | 23417
3 | 5:12.18 | 5:24.39 | 23418 | 47756
4 | 10:36.57 | 1:38.61 | 47757 | 55167
5 | 12:15.43 | 4:24.28 | 55168 | 74995
6 | 16:39.71 | 6:16.51 | 74996 | 103246
7 | 22:56.47 | 5:30.66 | 103247 | 128062
8 | 28:27.38 | 7:37.22 | 128063 | 162359
9 | 36:04.60 | 5:08.56 | 162360 | 185515
10 | 41:13.41 | 7:29.22 | 185516 | 219212
11 | 48:42.63 | 4:28.56 | 219213 | 239368
12 | 53:11.44 | 8:52.42 | 239369 | 279310


Range status and errors

Selected range

Filename D:\Avaxhome\Porcupine Tree - Signify (CD 1).wav

Peak level 100.0 %
Extraction speed 3.3 X
Range quality 100.0 %
Test CRC 78A69743
Copy CRC 78A69743
Copy OK

No errors occurred


AccurateRip summary

Track 1 accurately ripped (confidence 112) [1BB2026B] (AR v2)
Track 2 accurately ripped (confidence 114) [6D3B324C] (AR v2)
Track 3 accurately ripped (confidence 113) [6B253A51] (AR v2)
Track 4 accurately ripped (confidence 113) [B92A0BD7] (AR v2)
Track 5 accurately ripped (confidence 112) [C7E0BEAE] (AR v2)
Track 6 accurately ripped (confidence 112) [B7F953F1] (AR v2)
Track 7 accurately ripped (confidence 112) [E840133C] (AR v2)
Track 8 accurately ripped (confidence 113) [C6646AE2] (AR v2)
Track 9 accurately ripped (confidence 113) [4CBE2B3E] (AR v2)
Track 10 accurately ripped (confidence 113) [3C95F292] (AR v2)
Track 11 accurately ripped (confidence 112) [027AAA06] (AR v2)
Track 12 accurately ripped (confidence 113) [A279A6A9] (AR v2)

All tracks accurately ripped

End of status report

==== Log checksum 54446F74FDFB92850A79E712A80B453A58DDA947F26F797003D79017D541A046 ====

[CUETools log; Date: 05.02.2017 3:41:24; Version: 2.1.4]
[CTDB TOCID: q7N7v6QX2wcTJGo.zIkHDkY2nbY-] found.
Track | CTDB Status
1 | (281/283) Accurately ripped
2 | (281/283) Accurately ripped
3 | (281/283) Accurately ripped
4 | (281/283) Accurately ripped
5 | (281/283) Accurately ripped
6 | (281/283) Accurately ripped
7 | (281/283) Accurately ripped
8 | (281/283) Accurately ripped
9 | (281/283) Accurately ripped
10 | (281/283) Accurately ripped
11 | (281/283) Accurately ripped
12 | (280/283) Accurately ripped
[AccurateRip ID: 00174a63-00e4994c-9d0e8c0c] found.
Track [ CRC | V2 ] Status
01 [b9a14fda|1bb2026b] (039+112/391) Accurately ripped
02 [04e1ad01|6d3b324c] (039+114/393) Accurately ripped
03 [e460567b|6b253a51] (040+113/394) Accurately ripped
04 [fa713d81|b92a0bd7] (039+113/393) Accurately ripped
05 [79583c18|c7e0beae] (039+112/391) Accurately ripped
06 [39103c55|b7f953f1] (039+112/390) Accurately ripped
07 [9ee0dfe8|e840133c] (039+112/393) Accurately ripped
08 [a0e1f7ad|c6646ae2] (039+113/391) Accurately ripped
09 [6fbdb912|4cbe2b3e] (039+113/391) Accurately ripped
10 [46623363|3c95f292] (039+113/389) Accurately ripped
11 [bace1d2e|027aaa06] (039+112/390) Accurately ripped
12 [dec91ee1|a279a6a9] (039+113/388) Accurately ripped
Offsetted by -30:
01 [07c32909] (006/391) Accurately ripped
02 [81e3f6a5] (006/393) Accurately ripped
03 [0181049c] (006/394) Accurately ripped
04 [df4b97db] (006/393) Accurately ripped
05 [334d92b9] (006/391) Accurately ripped
06 [c291664b] (006/390) Accurately ripped
07 [07692f5b] (007/393) Accurately ripped
08 [c7779cd7] (007/391) Accurately ripped
09 [a7204059] (007/391) Accurately ripped
10 [0eeb1c68] (007/389) Accurately ripped
11 [c4c8c3ce] (007/390) Accurately ripped
12 [7fcfe425] (007/388) Accurately ripped
Offsetted by 30:
01 [4335f8e0] (007/391) Accurately ripped
02 [f86e4fe2] (007/393) Accurately ripped
03 [f40d3a05] (007/394) Accurately ripped
04 [f7d41824] (007/393) Accurately ripped
05 [b8661fd0] (007/391) Accurately ripped
06 [77a2b0c3] (007/390) Accurately ripped
07 [fe7511b4] (007/393) Accurately ripped
08 [801d5255] (007/391) Accurately ripped
09 [3f42f510] (007/391) Accurately ripped
10 [0d80e018] (006/389) Accurately ripped
11 [8b29b550] (007/390) Accurately ripped
12 [684521b0] (007/388) Accurately ripped
Offsetted by 40:
01 [becb9a76] (008/391) Accurately ripped
02 [6c6b2e28] (008/393) Accurately ripped
03 [0a9ac89f] (008/394) Accurately ripped
04 [79c7fc3a] (008/393) Accurately ripped
05 [af9e5d3a] (008/391) Accurately ripped
06 [1b62e9a0] (008/390) Accurately ripped
07 [9711aa01] (008/393) Accurately ripped
08 [20bc1b33] (008/391) Accurately ripped
09 [41cf3436] (008/391) Accurately ripped
10 [731f4654] (008/389) Accurately ripped
11 [ea4ce551] (008/390) Accurately ripped
12 [050e4fc1] (007/388) Accurately ripped
Offsetted by 674:
01 [a9a8e4b3] (002/391) Accurately ripped
02 [4fe1b3eb] (002/393) Accurately ripped
03 [3a382b84] (002/394) Accurately ripped
04 [68144334] (002/393) Accurately ripped
05 [056ca35a] (002/391) Accurately ripped
06 [4646bd29] (002/390) Accurately ripped
07 [b0e71535] (002/393) Accurately ripped
08 [c1790d61] (002/391) Accurately ripped
09 [5193544b] (002/391) Accurately ripped
10 [439b2c2a] (002/389) Accurately ripped
11 [c5e1c087] (002/390) Accurately ripped
12 [0ab7672c] (002/388) Accurately ripped
Offsetted by 676:
01 [8f0736bc] (007/391) Accurately ripped
02 [923f7f2b] (007/393) Accurately ripped
03 [808df6ba] (007/394) Accurately ripped
04 [f093572a] (007/393) Accurately ripped
05 [13dc9cae] (006/391) Accurately ripped
06 [ce7e17f8] (006/390) Accurately ripped
07 [f2bdbb85] (006/393) Accurately ripped
08 [def7cf27] (006/391) Accurately ripped
09 [3601bf32] (006/391) Accurately ripped
10 [ea93b891] (006/389) Accurately ripped
11 [eca23023] (006/390) Accurately ripped
12 [cc434b7a] (006/388) Accurately ripped
Offsetted by 694:
01 [ce127b2e] (044/391) Accurately ripped
02 [5fd26770] (045/393) Accurately ripped
03 [d63f76b2] (045/394) Accurately ripped
04 [ef958f4e] (045/393) Accurately ripped
05 [06b6366a] (045/391) Accurately ripped
06 [5b9cf53a] (045/390) Accurately ripped
07 [0f785720] (045/393) Accurately ripped
08 [e86c9f1d] (045/391) Accurately ripped
09 [34dc60dd] (045/391) Accurately ripped
10 [4b3d9f1e] (045/389) Accurately ripped
11 [abc9e66f] (045/390) Accurately ripped
12 [a44a70d6] (045/388) Accurately ripped
Offsetted by 704:
01 [0f5f9c94] (056/391) Accurately ripped
02 [359601b5] (056/393) Accurately ripped
03 [89bf9aa5] (056/394) Accurately ripped
04 [e6f903b3] (056/393) Accurately ripped
05 [c2544f9d] (056/391) Accurately ripped
06 [06ee5a88] (056/390) Accurately ripped
07 [193b45ac] (056/393) Accurately ripped
08 [7be667fb] (055/391) Accurately ripped
09 [e060b4f4] (056/391) Accurately ripped
10 [adc74fb2] (054/389) Accurately ripped
11 [d238738b] (055/390) Accurately ripped
12 [7cb30bab] (055/388) Accurately ripped
Offsetted by 710:
01 [3abd02c8] (002/391) Accurately ripped
02 [99b6a034] (002/393) Accurately ripped
03 [4242dc18] (002/394) Accurately ripped
04 [7162dc2e] (002/393) Accurately ripped
05 [46ef2c68] (002/391) Accurately ripped
06 [ba6afe8a] (002/390) Accurately ripped
07 [b0c6f95e] (002/393) Accurately ripped
08 [d462ad4d] (002/391) Accurately ripped
09 [a8524010] (002/391) Accurately ripped
10 [4a0aa89c] (002/389) Accurately ripped
11 [76fc5ebc] (002/390) Accurately ripped
12 [cb8bd4d8] (002/388) Accurately ripped
Offsetted by 718:
01 [e26dc296] (006/391) Accurately ripped
02 [886a12a2] (006/393) Accurately ripped
03 [e40876d7] (006/394) Accurately ripped
04 [2fcb6e62] (006/393) Accurately ripped
05 [42ad3dd5] (006/391) Accurately ripped
06 [afcd3d0f] (006/390) Accurately ripped
07 [70662d9d] (006/393) Accurately ripped
08 [4a5db465] (006/391) Accurately ripped
09 [e36ce6a3] (006/391) Accurately ripped
10 [1bb159f4] (006/389) Accurately ripped
11 [cc5e4ecb] (006/390) Accurately ripped
12 [df56937a] (006/388) Accurately ripped
Offsetted by 722:
01 [ad978bfc] (000/391) No match (V2 was not tested)
02 [7e2de1b4] (000/393) No match (V2 was not tested)
03 [cfda127d] (000/394) No match (V2 was not tested)
04 [841de8e2] (000/393) No match (V2 was not tested)
05 [67350a7b] (000/391) No match (V2 was not tested)
06 [887e3eed] (000/390) No match (V2 was not tested)
07 [cdbd4237] (000/393) No match (V2 was not tested)
08 [855b37f1] (000/391) No match (V2 was not tested)
09 [0402b800] (000/391) No match (V2 was not tested)
10 [9f036a5f] (000/389) No match (V2 was not tested)
11 [8124c786] (000/390) No match (V2 was not tested)
12 [6a3976ef] (000/388) No match (V2 was not tested)

Track Peak [ CRC32 ] [W/O NULL] [ LOG ]
– 100,0 [78A69743] [A2F13E79] CRC32
01 79,4 [DF977523] [5DC59D1D]
02 100,0 [02205506] [EC4EAA13]
03 100,0 [504932F2] [831AAE3D]
04 45,3 [FAE741DA] [A39BCF30]
05 100,0 [C85C40DA] [701B5AD2]
06 100,0 [4991092E] [BD35A0D1]
07 100,0 [E6D80E15] [E3FA8467]
08 100,0 [FD9FD63B] [4258CEDE]
09 100,0 [54539CE9] [4443AF52]
10 100,0 [C926957C] [6DF6F8CF]
11 63,0 [D3634343] [33311B93]
12 100,0 [39640522] [D899077A]

Exact Audio Copy V1.0 beta 3 from 29. August 2011

EAC extraction logfile from 5. February 2017, 3:32

Porcupine Tree / Insignificance, Demos 1995-96 (CD 2)

Used drive : ASUS DRW-24B5ST Adapter: 0 ID: 1

Read mode : Secure
Utilize accurate stream : Yes
Defeat audio cache : Yes
Make use of C2 pointers : No

Read offset correction : 6
Overread into Lead-In and Lead-Out : No
Fill up missing offset samples with silence : Yes
Delete leading and trailing silent blocks : No
Null samples used in CRC calculations : Yes
Used interface : Native Win32 interface for Win NT & 2000

Used output format : Internal WAV Routines
Sample format : 44.100 Hz; 16 Bit; Stereo


TOC of the extracted CD

Track | Start | Length | Start sector | End sector
––––––––––––––––––––––––––––-
1 | 0:00.00 | 3:29.70 | 0 | 15744
2 | 3:29.70 | 3:37.30 | 15745 | 32049
3 | 7:07.25 | 3:27.74 | 32050 | 47648
4 | 10:35.24 | 6:56.60 | 47649 | 78908
5 | 17:32.09 | 3:49.58 | 78909 | 96141
6 | 21:21.67 | 2:06.25 | 96142 | 105616
7 | 23:28.17 | 5:53.22 | 105617 | 132113
8 | 29:21.39 | 6:54.66 | 132114 | 163229
9 | 36:16.30 | 6:04.53 | 163230 | 190582
10 | 42:21.08 | 4:08.23 | 190583 | 209205


Range status and errors

Selected range

Filename D:\Avaxhome\Porcupine Tree - Insignificance, Demos 1995-96 (CD 2).wav

Peak level 100.0 %
Extraction speed 8.3 X
Range quality 100.0 %
Test CRC 3A48D823
Copy CRC 3A48D823
Copy OK

No errors occurred


AccurateRip summary

Track 1 accurately ripped (confidence 107) [27A88A1C] (AR v2)
Track 2 accurately ripped (confidence 107) [6BFAFE3B] (AR v2)
Track 3 accurately ripped (confidence 107) [07986A16] (AR v2)
Track 4 accurately ripped (confidence 107) [F124626B] (AR v2)
Track 5 accurately ripped (confidence 107) [94D7D929] (AR v2)
Track 6 accurately ripped (confidence 107) [0C275ACA] (AR v2)
Track 7 accurately ripped (confidence 107) [DC5DACE0] (AR v2)
Track 8 accurately ripped (confidence 107) [74804EEF] (AR v2)
Track 9 accurately ripped (confidence 107) [E9F12450] (AR v2)
Track 10 accurately ripped (confidence 107) [94BF5B42] (AR v2)

All tracks accurately ripped

End of status report

==== Log checksum 9C373E1B135FEEDB6C34F5A5BC711E302DF54C9CC2DD9876BDF6E55845E75194 ====

[CUETools log; Date: 05.02.2017 3:42:07; Version: 2.1.4]
[CTDB TOCID: fckh2m4upB62TOp.ZznTV9G9sj8-] found.
Track | CTDB Status
1 | (269/271) Accurately ripped
2 | (268/271) Accurately ripped
3 | (268/271) Accurately ripped
4 | (267/271) Accurately ripped
5 | (268/271) Accurately ripped
6 | (269/271) Accurately ripped
7 | (266/271) Accurately ripped
8 | (268/271) Accurately ripped
9 | (267/271) Accurately ripped
10 | (268/271) Accurately ripped
[AccurateRip ID: 0010588d-0085b2af-740ae50a] found.
Track [ CRC | V2 ] Status
01 [1aa9298e|27a88a1c] (036+107/372) Accurately ripped
02 [047e073a|6bfafe3b] (036+107/371) Accurately ripped
03 [a7490699|07986a16] (036+107/369) Accurately ripped
04 [1554cd37|f124626b] (036+107/371) Accurately ripped
05 [b9e65d32|94d7d929] (036+107/373) Accurately ripped
06 [2b045eaf|0c275aca] (036+107/373) Accurately ripped
07 [69f343e7|dc5dace0] (036+107/372) Accurately ripped
08 [746c2a2f|74804eef] (036+107/371) Accurately ripped
09 [0f74b8e8|e9f12450] (035+107/369) Accurately ripped
10 [39a113a8|94bf5b42] (036+107/372) Accurately ripped
Offsetted by -30:
01 [03a24182] (007/372) Accurately ripped
02 [ec3fb487] (007/371) Accurately ripped
03 [c389eb9e] (007/369) Accurately ripped
04 [1fbbd493] (007/371) Accurately ripped
05 [28a6fb64] (007/373) Accurately ripped
06 [308ef48b] (007/373) Accurately ripped
07 [c58920a1] (007/372) Accurately ripped
08 [b7891ae1] (007/371) Accurately ripped
09 [f1e652da] (007/369) Accurately ripped
10 [4190315a] (007/372) Accurately ripped
Offsetted by 46:
01 [0764a489] (007/372) Accurately ripped
02 [63d93f2d] (007/371) Accurately ripped
03 [ea3cbedc] (007/369) Accurately ripped
04 [16728ebb] (007/371) Accurately ripped
05 [6990f2e2] (007/373) Accurately ripped
06 [405407a5] (007/373) Accurately ripped
07 [660d79fd] (007/372) Accurately ripped
08 [8a04e876] (007/371) Accurately ripped
09 [ec15b8ad] (007/369) Accurately ripped
10 [c7104c86] (007/372) Accurately ripped
Offsetted by 676:
01 [4e5ae709] (005/372) Accurately ripped
02 [e566d6de] (005/371) Accurately ripped
03 [ea7773dd] (005/369) Accurately ripped
04 [3bfef42f] (005/371) Accurately ripped
05 [844c7717] (006/373) Accurately ripped
06 [31bce7da] (006/373) Accurately ripped
07 [e2c25ebb] (006/372) Accurately ripped
08 [ebf9b7c2] (006/371) Accurately ripped
09 [13fd053d] (006/369) Accurately ripped
10 [2072dcec] (006/372) Accurately ripped
Offsetted by 700:
01 [b2a490eb] (035/372) Accurately ripped
02 [a5454310] (035/371) Accurately ripped
03 [f702d51f] (035/369) Accurately ripped
04 [cd46217f] (035/371) Accurately ripped
05 [af61ab6e] (035/373) Accurately ripped
06 [74905f83] (035/373) Accurately ripped
07 [664a7af3] (035/372) Accurately ripped
08 [8f44d509] (035/371) Accurately ripped
09 [99ad7916] (035/369) Accurately ripped
10 [80805ec4] (035/372) Accurately ripped
Offsetted by 710:
01 [ef6b1f98] (068/372) Accurately ripped
02 [9a9d80df] (067/371) Accurately ripped
03 [5b74649a] (067/369) Accurately ripped
04 [74791f0b] (067/371) Accurately ripped
05 [93f7643f] (068/373) Accurately ripped
06 [a5a73c78] (068/373) Accurately ripped
07 [9d1886b5] (067/372) Accurately ripped
08 [a5d4a6dc] (067/371) Accurately ripped
09 [aee44677] (066/369) Accurately ripped
10 [7ddb54de] (068/372) Accurately ripped
Offsetted by 716:
01 [5b5c0326] (004/372) Accurately ripped
02 [516c605d] (004/371) Accurately ripped
03 [f7847aa6] (004/369) Accurately ripped
04 [d8caea5f] (004/371) Accurately ripped
05 [6c251db0] (004/373) Accurately ripped
06 [5ae0e8f1] (004/373) Accurately ripped
07 [bdfa8dc3] (004/372) Accurately ripped
08 [94ba4659] (004/371) Accurately ripped
09 [5b822666] (004/369) Accurately ripped
10 [15deb554] (004/372) Accurately ripped
Offsetted by 724:
01 [40c4ea4a] (006/372) Accurately ripped
02 [459a3ff6] (006/371) Accurately ripped
03 [9234afcd] (006/369) Accurately ripped
04 [5e8d4ecf] (006/371) Accurately ripped
05 [802a2a28] (006/373) Accurately ripped
06 [db00b939] (006/373) Accurately ripped
07 [e9d2972b] (006/372) Accurately ripped
08 [e7324249] (006/371) Accurately ripped
09 [45c1f886] (006/369) Accurately ripped
10 [e08de09c] (006/372) Accurately ripped
Offsetted by 680:
01 [061c7df3] (000/372) No match (V2 was not tested)
02 [f6c36452] (000/371) No match (V2 was not tested)
03 [f2593655] (000/369) No match
04 [7ee02667] (000/371) No match (V2 was not tested)
05 [de769ae0] (000/373) No match (V2 was not tested)
06 [446f92e9] (000/373) No match (V2 was not tested)
07 [f8ae636f] (000/372) No match (V2 was not tested)
08 [b1d0497c] (000/371) No match (V2 was not tested)
09 [8134ec1b] (000/369) No match (V2 was not tested)
10 [85ca7290] (000/372) No match (V2 was not tested)

Track Peak [ CRC32 ] [W/O NULL] [ LOG ]
– 100,0 [3A48D823] [A416D6C2] CRC32
01 89,1 [77378FCB] [4C52B6F9]
02 100,0 [7135A195] [9235931A]
03 100,0 [A1B161F1] [AA90E9AC]
04 100,0 [30CF7874] [58BA7FE9]
05 100,0 [2789077A] [294AC50D]
06 100,0 [18347DE4] [5A7B7750]
07 100,0 [993CF8C8] [1E229085]
08 100,0 [04B84977] [226EB46A]
09 100,0 [DF572757] [CD9CA455]
10 79,4 [90B493C8] [B82ED04C]

Porcupine Tree - 2 Albums (1996-2000) [Reissue 2007] (Repost)

Porcupine Tree - Voyage 34 (2000) [Reissue 2007]
EAC Rip | FLAC (image+.cue+log) - 395 MB | MP3 CBR 320 kbps (LAME 3.93) - 166 MB | Covers - 123 MB
Genre: Psychedelic Rock, Electronic, Ambient | RAR 3% Rec. | Label: Kscope (KSCOPE123M), Remastered

Tracklist:
01. Phase I
02. Phase II
03. Phase III
04. Phase IV

Total time: 01:10:40

Exact Audio Copy V1.0 beta 3 from 29. August 2011

EAC extraction logfile from 5. February 2017, 22:21

Porcupine Tree / Voyage 34

Used drive : ASUS DRW-24B5ST Adapter: 0 ID: 1

Read mode : Secure
Utilize accurate stream : Yes
Defeat audio cache : Yes
Make use of C2 pointers : No

Read offset correction : 6
Overread into Lead-In and Lead-Out : No
Fill up missing offset samples with silence : Yes
Delete leading and trailing silent blocks : No
Null samples used in CRC calculations : Yes
Used interface : Native Win32 interface for Win NT & 2000

Used output format : Internal WAV Routines
Sample format : 44.100 Hz; 16 Bit; Stereo


TOC of the extracted CD

Track | Start | Length | Start sector | End sector
––––––––––––––––––––––––––––-
1 | 0:00.00 | 12:54.71 | 0 | 58120
2 | 12:54.71 | 17:30.57 | 58121 | 136927
3 | 30:25.53 | 19:29.12 | 136928 | 224614
4 | 49:54.65 | 20:44.73 | 224615 | 317987


Range status and errors

Selected range

Filename D:\Avaxhome\Porcupine Tree - Voyage 34.wav

Peak level 100.0 %
Extraction speed 3.3 X
Range quality 100.0 %
Test CRC B9FD2742
Copy CRC B9FD2742
Copy OK

No errors occurred


AccurateRip summary

Track 1 accurately ripped (confidence 46) [FF2887FE] (AR v2)
Track 2 accurately ripped (confidence 46) [E326A319] (AR v2)
Track 3 accurately ripped (confidence 44) [676D99D1] (AR v2)
Track 4 accurately ripped (confidence 40) [B9450F90] (AR v2)

All tracks accurately ripped

End of status report

==== Log checksum ACF060FCFB91913912B342C9CBF5C9356B8B1BEB8A44307FA8B769DD08AE3D33 ====

[CUETools log; Date: 05.02.2017 22:25:36; Version: 2.1.4]
[CTDB TOCID: DodWJgs8d89A5O4wX38DdzetrSU-] found.
Track | CTDB Status
1 | (173/176) Accurately ripped
2 | (173/176) Accurately ripped
3 | (171/176) Accurately ripped
4 | (167/176) Accurately ripped
[AccurateRip ID: 000b4174-002e0303-42108f04] found.
Track [ CRC | V2 ] Status
01 [d53ef7e8|ff2887fe] (012+046/237) Accurately ripped
02 [674b14f7|e326a319] (012+046/236) Accurately ripped
03 [508d8948|676d99d1] (012+044/232) Accurately ripped
04 [20131bd8|b9450f90] (012+040/227) Accurately ripped
Offsetted by -624:
01 [a70c42df] (003/237) Accurately ripped
02 [41897e17] (003/236) Accurately ripped
03 [426c1db8] (003/232) Accurately ripped
04 [31a407b8] (003/227) Accurately ripped
Offsetted by -618:
01 [e1519f91] (002/237) Accurately ripped
02 [f597a963] (002/236) Accurately ripped
03 [b153d272] (002/232) Accurately ripped
04 [3dc78f4c] (002/227) Accurately ripped
Offsetted by 6:
01 [3895837e] (015/237) Accurately ripped
02 [1b594043] (015/236) Accurately ripped
03 [bf753e02] (015/232) Accurately ripped
04 [2c36a36c] (015/227) Accurately ripped
Offsetted by 30:
01 [dc813311] (035/237) Accurately ripped
02 [eb91ed73] (035/236) Accurately ripped
03 [7b1410ea] (035/232) Accurately ripped
04 [5cc4c1bc] (035/227) Accurately ripped
Offsetted by 40:
01 [9748efe7] (025/237) Accurately ripped
02 [6cfee047] (024/236) Accurately ripped
03 [de963e20] (023/232) Accurately ripped
04 [70fff908] (022/227) Accurately ripped
Offsetted by 54:
01 [9f32ea96] (008/237) Accurately ripped
02 [bbca9aa3] (008/236) Accurately ripped
03 [36b2e3d2] (008/232) Accurately ripped
04 [8d52e00c] (008/227) Accurately ripped
Offsetted by 36:
01 [d2f11863] (000/237) No match (V2 was not tested)
02 [9fa018bf] (000/236) No match (V2 was not tested)
03 [e9fbc5a4] (000/232) No match (V2 was not tested)
04 [68e84950] (000/227) No match (V2 was not tested)

Track Peak [ CRC32 ] [W/O NULL] [ LOG ]
– 100,0 [B9FD2742] [37D98A58] CRC32
01 100,0 [61F91A14] [CBE08BE1]
02 100,0 [8523C500] [F87AF817]
03 100,0 [02F2F8FC] [0CBF5117]
04 100,0 [70230AB2] [8AE7CA3E]

From my CDs