Subcategories

Porcupine Tree - Up The Downstair (1993) [2CD Reissue 2008] (Repost)

Posted By: gribovar
Porcupine Tree - Up The Downstair (1993) [2CD Reissue 2008] (Repost)

Porcupine Tree - Up The Downstair (1993) [2CD Reissue 2008]
EAC Rip | FLAC (image+.cue+log) - 509 MB | MP3 CBR 320 kbps (LAME 3.93) - 186 MB | Covers - 63 MB
Genre: Progressive/Psychedelic Rock | RAR 3% Rec. | Label: WHD Entertainment, Inc. (IECP-20114/115)

This album is from the psychedelic era of Porcupine Tree, back when Porcupine Tree sounded like a trippier and heavier version of Pink Floyd. A huge improvement over PT's eclectic debut featuring much stronger songwriting, playing and production values which will appeal to a wide variety of fans with its masterful blend of trip/psych/pop/hard rock. Memorable melodies and guitar moments abound, with outstanding effects and spacey ambience to fill the gaps, all of which combines to take the listener on a real musical journey.

CD 1 Tracklist (Up The Downstair, 2004 version):
01. What You Are Listening To
02. Synesthesia
03. Monuments Burn Into Moments
04. Always Never
05. Up the Downstair
06. Not Beautiful Anymore
07. Siren
08. Small Fish
09. Burning Sky
10. Fadeaway

Total time: 48:53

CD 2 Tracklist (Staircase Infinities):
01. Cloud Zero
02. The Joke's On You
03. Navigator
04. Rainy Taxi
05. Yellow Hedgerow Dreamscape

Total time: 30:13

Exact Audio Copy V0.99 prebeta 5 from 4. May 2009

Archivo Log de extracciones desde 4. Junio 2013, 19:28

Porcupine Tree / Up The Downstair (CD1) - Japan (IECP-20114)

Usar unidad : HL-DT-STDVDRAM GH22NS70 Adapter: 0 ID: 0

Modo de Lectura : Seguro
Utilizar Corriente Exacta : Sí
Descartar Audio caché : Sí
Utilizar los punteros C2 : No

Corrección de Desplazamiento de Lectura : 667
Sobreleer tanto en Lead-In como en Lead-Out : No
Rellenar las muestras faltantes con silencios : Sí
Eliminar silencios inicial y final : No
Se han usado muestras nulas en los cálculos CRC : Sí
Interfaz usada : Interfaz propio de Win32 para Windowns NT y 2000

Formato de Salida utilizado : Compresor definido por el usuario
Bitrate seleccionado : 32 kBit/s
Calidad : Alta
Añadir Etiqueta ID3 : No
Compresor de linea de comandos : C:\Program Files (x86)\Exact Audio Copy\Flac\flac.exe
Opciones adicionales en línea de comandos : -6 -V %s

TOC del CD extraido

Pista | Inicio | Duración | Sector inicial | Sector final
––––––––––––––––––––––––––––––-
1 | 0:00.00 | 0:57.63 | 0 | 4337
2 | 0:57.63 | 5:16.12 | 4338 | 28049
3 | 6:14.00 | 0:22.19 | 28050 | 29718
4 | 6:36.19 | 7:00.54 | 29719 | 61272
5 | 13:36.73 | 10:14.55 | 61273 | 107377
6 | 23:51.53 | 3:25.54 | 107378 | 122806
7 | 27:17.32 | 0:57.12 | 122807 | 127093
8 | 28:14.44 | 2:42.26 | 127094 | 139269
9 | 30:56.70 | 11:36.64 | 139270 | 191533
10 | 42:33.59 | 6:19.37 | 191534 | 219995

Gama de estados y errores

Seleccionar gama

Nombre de Archivo E:\Música\EAC\Porcupine Tree\Porcupine Tree - Up The Downstair (CD1) - Japan (IECP-20114).wav

Nivel Pico 100.0 %
Gama de Calidad 100.0 %
Test CRC 6B10F7B9
Copiar CRC 6B10F7B9
Copia OK

Sin Errores

Resumen AccurateRip

Pista 1 extraido de modo preciso (nivel de confianza 6) [C266737B]
Pista 2 extraido de modo preciso (nivel de confianza 6) [AA51D58E]
Pista 3 extraido de modo preciso (nivel de confianza 6) [A103FC7A]
Pista 4 extraido de modo preciso (nivel de confianza 6) [A45AA713]
Pista 5 extraido de modo preciso (nivel de confianza 6) [8860EE53]
Pista 6 extraido de modo preciso (nivel de confianza 6) [15EBC016]
Pista 7 extraido de modo preciso (nivel de confianza 6) [278314E4]
Pista 8 extraido de modo preciso (nivel de confianza 6) [F39344F1]
Pista 9 extraido de modo preciso (nivel de confianza 6) [D692C26A]
Pista 10 extraido de modo preciso (nivel de confianza 6) [471FD076]

Todas las pistas extraidas de modo preciso

Final del Informe

[CUETools log; Date: 21.02.2017 21:09:21; Version: 2.1.4]
[CTDB TOCID: xvP8uVJcZ4HjwgmkIw.AcYwDLSA-] found.
Track | CTDB Status
1 | (277/279) Accurately ripped
2 | (277/279) Accurately ripped
3 | (277/279) Accurately ripped
4 | (275/279) Accurately ripped
5 | (274/279) Accurately ripped
6 | (276/279) Accurately ripped
7 | (276/279) Accurately ripped
8 | (276/279) Accurately ripped
9 | (275/279) Accurately ripped
10 | (277/279) Accurately ripped
[AccurateRip ID: 000fbd23-0083a507-a00b750a] found.
Track [ CRC | V2 ] Status
01 [c266737b|68843535] (006+006/320) Accurately ripped
02 [aa51d58e|8f2a6147] (006+006/321) Accurately ripped
03 [a103fc7a|3ce4cd71] (006+006/321) Accurately ripped
04 [a45aa713|686df8fb] (006+006/320) Accurately ripped
05 [8860ee53|f5c727e7] (006+006/320) Accurately ripped
06 [15ebc016|36821b15] (006+006/320) Accurately ripped
07 [278314e4|60a7923a] (006+006/321) Accurately ripped
08 [f39344f1|9eea3f23] (006+006/318) Accurately ripped
09 [d692c26a|6ef475f7] (006+006/315) Accurately ripped
10 [471fd076|4930f644] (006+006/318) Accurately ripped
Offsetted by -1384:
01 [37b222d0] (024/320) Accurately ripped
02 [429f225b] (024/321) Accurately ripped
03 [71ee72af] (024/321) Accurately ripped
04 [0406aa65] (024/320) Accurately ripped
05 [11af3e7f] (024/320) Accurately ripped
06 [48b37d83] (024/320) Accurately ripped
07 [560934c1] (024/321) Accurately ripped
08 [be8542c2] (023/318) Accurately ripped
09 [8a4c5b1e] (023/315) Accurately ripped
10 [d0566357] (023/318) Accurately ripped
Offsetted by -1312:
01 [48fabdfe] (012/320) Accurately ripped
02 [4fcd351a] (011/321) Accurately ripped
03 [5fb07e3e] (012/321) Accurately ripped
04 [7f5f1041] (012/320) Accurately ripped
05 [76187fcc] (012/320) Accurately ripped
06 [54318649] (012/320) Accurately ripped
07 [18f1bcda] (011/321) Accurately ripped
08 [5a289a36] (011/318) Accurately ripped
09 [4fe3bc84] (012/315) Accurately ripped
10 [8a88e64a] (012/318) Accurately ripped
Offsetted by -708:
01 [68ffde6d] (013/320) Accurately ripped
02 [d8a73b70] (013/321) Accurately ripped
03 [3eec89ad] (013/321) Accurately ripped
04 [f5962f36] (013/320) Accurately ripped
05 [8d9018c0] (013/320) Accurately ripped
06 [802c6681] (013/320) Accurately ripped
07 [b8172c9c] (013/321) Accurately ripped
08 [502fab3e] (013/318) Accurately ripped
09 [46d93f1c] (013/315) Accurately ripped
10 [63a36adc] (013/318) Accurately ripped
Offsetted by -678:
01 [fb9cba80] (019/320) Accurately ripped
02 [ec6d4a11] (019/321) Accurately ripped
03 [ff1a8559] (019/321) Accurately ripped
04 [37b14c97] (019/320) Accurately ripped
05 [d95f3767] (019/320) Accurately ripped
06 [85651905] (019/320) Accurately ripped
07 [9110932c] (019/321) Accurately ripped
08 [b6cbaedd] (019/318) Accurately ripped
09 [9a3ed106] (019/315) Accurately ripped
10 [bf144db1] (018/318) Accurately ripped
Offsetted by -648:
01 [b674c09a] (020/320) Accurately ripped
02 [be296ea6] (020/321) Accurately ripped
03 [11cc4f32] (020/321) Accurately ripped
04 [c0492509] (020/320) Accurately ripped
05 [fd2931f6] (020/320) Accurately ripped
06 [8fca5928] (020/320) Accurately ripped
07 [aa964526] (020/321) Accurately ripped
08 [298ff0c7] (020/318) Accurately ripped
09 [5116489f] (019/315) Accurately ripped
10 [12a5268b] (020/318) Accurately ripped
Offsetted by -38:
01 [dcca21cc] (006/320) Accurately ripped
02 [7c5522eb] (007/321) Accurately ripped
03 [a25d5892] (007/321) Accurately ripped
04 [85c97075] (007/320) Accurately ripped
05 [8d866939] (007/320) Accurately ripped
06 [f6643db1] (007/320) Accurately ripped
07 [e1e85aae] (007/321) Accurately ripped
08 [a2d093d2] (007/318) Accurately ripped
09 [5a9c6ccc] (007/315) Accurately ripped
10 [ea01dba8] (007/318) Accurately ripped
Offsetted by -14:
01 [322c8de4] (044/320) Accurately ripped
02 [4d5e0d87] (044/321) Accurately ripped
03 [59c4c767] (044/321) Accurately ripped
04 [db56101d] (043/320) Accurately ripped
05 [4fc2db11] (042/320) Accurately ripped
06 [cfa30c04] (043/320) Accurately ripped
07 [8734118b] (044/321) Accurately ripped
08 [cae056bd] (043/318) Accurately ripped
09 [4ad8d14a] (043/315) Accurately ripped
10 [aa78d58b] (043/318) Accurately ripped

Track Peak [ CRC32 ] [W/O NULL]
– 100,0 [6B10F7B9] [BCC2B345]
01 96,4 [A7F37AE7] [B150E6C5]
02 100,0 [366F0E99] [39A6AD9F]
03 20,3 [7DCCF0B0] [B1E1ABAF]
04 100,0 [9CBA6F24] [8C3F9F62]
05 100,0 [08E4EB50] [C268BFAE]
06 100,0 [A7AF8CD1] [58DD4EE0]
07 29,7 [49DB4562] [0EF815F7]
08 100,0 [E421F933] [C71F9DE9]
09 100,0 [762BC03E] [67294134]
10 100,0 [B50BB7A5] [D7E58272]

Exact Audio Copy V0.99 prebeta 5 from 4. May 2009

Archivo Log de extracciones desde 4. Junio 2013, 19:41

Porcupine Tree / Up The Downstair (CD2) - Staircase Infinities - Japan (IECP-20115)

Usar unidad : HL-DT-STDVDRAM GH22NS70 Adapter: 0 ID: 0

Modo de Lectura : Seguro
Utilizar Corriente Exacta : Sí
Descartar Audio caché : Sí
Utilizar los punteros C2 : No

Corrección de Desplazamiento de Lectura : 667
Sobreleer tanto en Lead-In como en Lead-Out : No
Rellenar las muestras faltantes con silencios : Sí
Eliminar silencios inicial y final : No
Se han usado muestras nulas en los cálculos CRC : Sí
Interfaz usada : Interfaz propio de Win32 para Windowns NT y 2000

Formato de Salida utilizado : Compresor definido por el usuario
Bitrate seleccionado : 32 kBit/s
Calidad : Alta
Añadir Etiqueta ID3 : No
Compresor de linea de comandos : C:\Program Files (x86)\Exact Audio Copy\Flac\flac.exe
Opciones adicionales en línea de comandos : -6 -V %s

TOC del CD extraido

Pista | Inicio | Duración | Sector inicial | Sector final
––––––––––––––––––––––––––––––-
1 | 0:00.00 | 4:40.42 | 0 | 21041
2 | 4:40.42 | 4:17.00 | 21042 | 40316
3 | 8:57.42 | 4:49.43 | 40317 | 62034
4 | 13:47.10 | 6:50.09 | 62035 | 92793
5 | 20:37.19 | 9:36.17 | 92794 | 136010

Gama de estados y errores

Seleccionar gama

Nombre de Archivo E:\Música\EAC\Porcupine Tree\Porcupine Tree - Up The Downstair (CD2) - Staircase Infinities - Japan (IECP-20115).wav

Nivel Pico 100.0 %
Gama de Calidad 100.0 %
Test CRC CC933DCF
Copiar CRC CC933DCF
Copia OK

Sin Errores

Resumen AccurateRip

Pista 1 extraido de modo preciso (nivel de confianza 6) [A1FFC7DF]
Pista 2 extraido de modo preciso (nivel de confianza 6) [2EDE1237]
Pista 3 extraido de modo preciso (nivel de confianza 6) [B8B82B57]
Pista 4 extraido de modo preciso (nivel de confianza 6) [0AAA9B99]
Pista 5 extraido de modo preciso (nivel de confianza 6) [8147441F]

Todas las pistas extraidas de modo preciso

Final del Informe

[CUETools log; Date: 21.02.2017 21:09:38; Version: 2.1.4]
[CTDB TOCID: .4a77umOucJ_zr_iAdLjyivTPMs-] found.
Track | CTDB Status
1 | (271/273) Accurately ripped
2 | (271/273) Accurately ripped
3 | (271/273) Accurately ripped
4 | (271/273) Accurately ripped
5 | (271/273) Accurately ripped
[AccurateRip ID: 00055fc7-0019ce4c-41071505] found.
Track [ CRC | V2 ] Status
01 [a1ffc7df|0c67b10d] (006+005/314) Accurately ripped
02 [2ede1237|9292ce57] (006+005/314) Accurately ripped
03 [b8b82b57|684d5023] (006+005/313) Accurately ripped
04 [0aaa9b99|bb63b016] (006+005/314) Accurately ripped
05 [8147441f|acff75b8] (006+005/314) Accurately ripped
Offsetted by -1312:
01 [949a7664] (012/314) Accurately ripped
02 [abf0881a] (012/314) Accurately ripped
03 [86b6c213] (012/313) Accurately ripped
04 [40d7b87e] (012/314) Accurately ripped
05 [4a8523ee] (012/314) Accurately ripped
Offsetted by -744:
01 [dc8691e9] (023/314) Accurately ripped
02 [2a66d316] (023/314) Accurately ripped
03 [55497438] (023/313) Accurately ripped
04 [8193b8e5] (023/314) Accurately ripped
05 [656d2c55] (023/314) Accurately ripped
Offsetted by -678:
01 [8b2d30b9] (008/314) Accurately ripped
02 [91a7426f] (008/314) Accurately ripped
03 [484a45ff] (007/313) Accurately ripped
04 [506dff32] (008/314) Accurately ripped
05 [b5bda464] (008/314) Accurately ripped
Offsetted by -648:
01 [6e494a58] (020/314) Accurately ripped
02 [f2db7d8d] (020/314) Accurately ripped
03 [9614e642] (020/313) Accurately ripped
04 [7b034fbb] (020/314) Accurately ripped
05 [d2f55c77] (020/314) Accurately ripped
Offsetted by -68:
01 [c5ca5919] (019/314) Accurately ripped
02 [aef8b469] (019/314) Accurately ripped
03 [94c7345e] (019/313) Accurately ripped
04 [a75a74ad] (019/314) Accurately ripped
05 [78f01444] (019/314) Accurately ripped
Offsetted by -44:
01 [41543361] (006/314) Accurately ripped
02 [650a0f94] (006/314) Accurately ripped
03 [9ca43782] (006/313) Accurately ripped
04 [d3947a21] (006/314) Accurately ripped
05 [518dfd2d] (006/314) Accurately ripped
Offsetted by -14:
01 [ac4552af] (045/314) Accurately ripped
02 [c139360e] (045/314) Accurately ripped
03 [6286e504] (045/313) Accurately ripped
04 [fb927790] (045/314) Accurately ripped
05 [5bd1eeb0] (044/314) Accurately ripped
Offsetted by -20:
01 [41d7927f] (000/314) No match (V2 was not tested)
02 [734c5193] (000/314) No match (V2 was not tested)
03 [365c4fb2] (000/313) No match (V2 was not tested)
04 [e77d7467] (000/314) No match (V2 was not tested)
05 [26f4efae] (000/314) No match (V2 was not tested)

Track Peak [ CRC32 ] [W/O NULL]
– 100,0 [CC933DCF] [4E9F0B13]
01 100,0 [9F799C8E] [290B41EB]
02 100,0 [954ACDAA] [AA578CA4]
03 100,0 [A1813FBC] [305BFE3C]
04 100,0 [A22DFCE5] [5CF4C02D]
05 100,0 [97D18E69] [9132596D]

Thanks to jarpomarx

See also:
Porcupine Tree - 2 Albums (1996-2000) [Reissue 2007]