Subcategories

Power Quest - Blood Alliance (2011) [Korean Ed.]

Posted By: Andi_Deris
Power Quest - Blood Alliance (2011) [Korean Ed.]

Power Quest - Blood Alliance (2011) [Korean Ed.]
EAC Rip | FLAC: Image+Cue+Log | 525 Mb | MP3 CBR 320 kbps | 163 Mb | Scans | 51 Mb | Time: 01:04:05
Evolution Music | L100004236
Melodic Power Metal

Blood Alliance is the fifth studio album of the power metal band Power Quest, with recording between September/October 2010 at Foel Studios, Wales with producer Chris Fielding and released worldwide by April 2011.

Following a relatively long break, the band revolving around mastermind Steve Williams release Blood Alliance. Once again, the band focuses on memorable melodies and captivating hooklines, without ever neglecting the fine details that creep out of the woodwork with each successive run. The man on the mic, Chity Somapala, has proven his weight in gold with powerful vocals throughout. Blood Alliance is not only a chapter in Power Quest's history, but also a loud and confident proclamation of melodic power metal. For fans of HELLOWEEN, GAMMA RAY, RHAPSODY OF FIRE, and KAMELOT.

Power Quest - Blood Alliance (2011) [Korean Ed.]




Track Listing

01. Battle Stations (01:47)
02. Rising Anew (04:36)
03. Glorious (04:58)
04. Sacrifice (06:14)
05. Survive (06:03)
06. Better Days (05:24)
07. Crunching The Numbers (07:26)
08. Only In My Dreams (06:10)
09. Blood Alliance (09:05)
10. City Of Lies (06:39)
11. Time To Burn (Bonus Track) (05:43)

Produced by Chris Fielding and Power Quest

The Band

• Chitral ''Chity'' Somapala - Vocals
• Andy Midgley - Guitar
• Gav Owen - Guitar
• Steve Williams - Keyboards
• Paul Finnie - Bass
• Rich Smith - Drums

*****
• Nick Workman - Backing Vocals

Exact Audio Copy V0.99 prebeta 4 from 23. January 2008

EAC extraction logfile from 26. February 2011, 11:53

Power Quest / Blood Alliance

Used drive : ATAPI iHAP122 9 Adapter: 3 ID: 0

Read mode : Secure
Utilize accurate stream : Yes
Defeat audio cache : Yes
Make use of C2 pointers : No

Read offset correction : 6
Overread into Lead-In and Lead-Out : No
Fill up missing offset samples with silence : Yes
Delete leading and trailing silent blocks : No
Null samples used in CRC calculations : Yes
Used interface : Installed external ASPI interface

Used output format : User Defined Encoder
Selected bitrate : 40 kBit/s
Quality : High
Add ID3 tag : No
Command line compressor : C:\Program Files\Exact Audio Copy\flac.exe
Additional command line options : -6 -V %s


TOC of the extracted CD

Track | Start | Length | Start sector | End sector
––––––––––––––––––––––––––––-
1 | 0:00.00 | 1:46.61 | 0 | 8010
2 | 1:46.61 | 4:35.42 | 8011 | 28677
3 | 6:22.28 | 4:58.26 | 28678 | 51053
4 | 11:20.54 | 6:13.50 | 51054 | 79078
5 | 17:34.29 | 6:02.41 | 79079 | 106269
6 | 23:36.70 | 5:24.31 | 106270 | 130600
7 | 29:01.26 | 7:26.26 | 130601 | 164076
8 | 36:27.52 | 6:09.72 | 164077 | 191823
9 | 42:37.49 | 9:04.74 | 191824 | 232697
10 | 51:42.48 | 6:38.74 | 232698 | 262621
11 | 58:21.47 | 5:42.59 | 262622 | 288330


Range status and errors

Selected range

Filename D:\Download\Power Quest - Blood Alliance.wav

Peak level 100.0 %
Range quality 100.0 %
Copy CRC 4FD394DE
Copy OK

No errors occurred


AccurateRip summary

Track 1 not present in database
Track 2 not present in database
Track 3 not present in database
Track 4 not present in database
Track 5 not present in database
Track 6 not present in database
Track 7 not present in database
Track 8 not present in database
Track 9 not present in database
Track 10 not present in database
Track 11 not present in database

None of the tracks are present in the AccurateRip database

End of status report


Many thanks to the original uploader: Ilijan

SEE also:
Power Quest 2017 Sixth Dimension [Japanese Ed.]



Password: pass